<?xml version="1.0" standalone="no"?>
<!DOCTYPE svg PUBLIC "-//W3C//DTD SVG 1.1//EN" "http://www.w3.org/Graphics/SVG/1.1/DTD/svg11.dtd" >
<svg xmlns="http://www.w3.org/2000/svg">
<metadata></metadata>
<defs>
<font id="museo_slab900_italic" horiz-adv-x="1290" >
<font-face units-per-em="2048" ascent="1536" descent="-512" />
<missing-glyph horiz-adv-x="512" />
<glyph unicode="&#xfb01;" horiz-adv-x="1474" d="M80 0l156 799h-144l49 256h144l8 43q19 99 67.5 173t105 114.5t129 65t128 31.5t113.5 7q32 0 62.5 -2t45.5 -4l14 -2l-57 -279q-33 6 -80 6q-28 0 -47.5 -2.5t-49.5 -11t-49.5 -31t-25.5 -57.5l-10 -51h725l-129 -660q-8 -40 -8 -67q0 -74 80 -74l39 2l-50 -256 q-49 -6 -106 -6q-41 0 -70 1.5t-66 7t-62.5 15.5t-52 28t-43 43.5t-26.5 63t-10 85.5q0 44 17 131l84 430h-371l-156 -799h-354zM1040 1188l54 276h346l-54 -276h-346z" />
<glyph unicode="&#xfb02;" horiz-adv-x="1486" d="M80 0l156 799h-144l49 256h144l6 28q24 115 85.5 199.5t151 132t192.5 70t224 22.5t245.5 -17.5t188.5 -35.5l64 -18l-197 -1016q-10 -48 -10 -80q0 -37 18.5 -52.5t61.5 -15.5l43 2l-55 -278q-50 -6 -107 -6q-55 0 -97 5t-87.5 21.5t-75.5 45t-49 78t-19 116.5 q0 56 15 133l164 842q-66 12 -146 12q-108 0 -174.5 -40.5t-81.5 -117.5l-6 -30h217l-49 -256h-217l-156 -799h-354z" />
<glyph unicode="&#xfb03;" horiz-adv-x="2222" d="M80 0l156 799h-144l49 256h144l8 43q19 99 67.5 173t105 114.5t129 65t128 31.5t113.5 7q32 0 62.5 -2t45.5 -4l14 -2l-57 -279q-33 6 -80 6q-28 0 -47.5 -2.5t-49.5 -11t-49.5 -31t-25.5 -57.5l-10 -51h393l8 43q19 99 67.5 173t105 114.5t129 65t128 31.5t113.5 7 q32 0 63 -2t46 -4l14 -2l-57 -279q-33 6 -80 6q-28 0 -47.5 -2.5t-49.5 -11t-49.5 -31t-25.5 -57.5l-11 -51h725l-129 -660q-8 -40 -8 -67q0 -74 80 -74l39 2l-49 -256q-50 -6 -107 -6q-41 0 -70 1.5t-65.5 7t-62.5 15.5t-52.5 28t-42.5 43.5t-26 63t-10 85.5q0 49 16 131 l84 430h-371l-155 -799h-355l156 799h-393l-156 -799h-354zM1788 1188l53 276h346l-53 -276h-346z" />
<glyph unicode="&#xfb04;" horiz-adv-x="2234" d="M80 0l156 799h-144l49 256h144l8 43q19 99 67.5 173t105 114.5t129 65t128 31.5t113.5 7q32 0 62.5 -2t45.5 -4l14 -2l-57 -279q-33 6 -80 6q-28 0 -47.5 -2.5t-49.5 -11t-49.5 -31t-25.5 -57.5l-10 -51h393l6 28q19 93 64 165.5t105.5 120.5t140 79.5t164 45t180.5 13.5 q121 0 245 -17.5t188 -35.5l64 -18l-196 -1016q-11 -53 -11 -80q0 -37 18.5 -52.5t61.5 -15.5l43 2l-55 -278q-49 -6 -106 -6q-55 0 -97 5t-87.5 21.5t-75.5 45t-49 78t-19 116.5q0 62 14 133l164 842q-65 12 -145 12q-108 0 -174.5 -40.5t-81.5 -117.5l-7 -30h218l-50 -256 h-217l-155 -799h-355l156 799h-393l-156 -799h-354z" />
<glyph horiz-adv-x="0" />
<glyph horiz-adv-x="682" />
<glyph unicode=" "  horiz-adv-x="512" />
<glyph unicode="&#x09;" horiz-adv-x="512" />
<glyph unicode="&#xa0;" horiz-adv-x="512" />
<glyph unicode="!" horiz-adv-x="612" d="M29 0l59 307h324l-60 -307h-323zM123 453l164 1011h368l-229 -1011h-303z" />
<glyph unicode="&#x22;" horiz-adv-x="854" d="M180 1004l96 491h250l-96 -491h-250zM571 1004l97 491h250l-97 -491h-250z" />
<glyph unicode="#" horiz-adv-x="1443" d="M23 369l86 245h200l74 195h-197l88 246h197l152 409h280l-151 -409h221l151 409h281l-152 -409h209l-88 -246h-209l-73 -195h204l-88 -245h-204l-136 -369h-280l135 369h-221l-135 -369h-281l135 369h-198zM590 614h221l74 195h-221z" />
<glyph unicode="$" horiz-adv-x="1175" d="M-4 213l194 231q6 -5 16.5 -14t43.5 -31t67.5 -39t84.5 -31t98 -14q77 0 145 33.5t68 93.5q0 38 -30 70t-78.5 57t-106.5 51t-116.5 60t-107 76t-78.5 107t-30 145q0 122 68 221.5t175.5 156t233.5 68.5l37 215h223l-37 -223q66 -11 125 -31t96.5 -40.5t65 -39.5 t39.5 -31l12 -12l-178 -248q-17 12 -46.5 29.5t-108.5 46.5t-144 29q-76 0 -139.5 -34.5t-63.5 -94.5q0 -38 30.5 -69.5t79 -56t107 -50t117.5 -59t107.5 -74.5t79 -105t30.5 -143q0 -118 -64 -219t-179 -164t-259 -72l-32 -211h-224l37 226q-72 14 -135 38.5t-102 50 t-68 48.5t-41 38z" />
<glyph unicode="%" horiz-adv-x="1802" d="M70 0l1380 1464h326l-1381 -1464h-325zM172 1098q0 99 58.5 190t155 146t200.5 55q149 0 244.5 -93t95.5 -231q0 -100 -60.5 -189t-157 -141.5t-198.5 -52.5q-150 0 -244 89t-94 227zM434 1116q0 -39 28 -63.5t75 -24.5q49 0 88 37t39 88q0 39 -28.5 64.5t-74.5 25.5 q-48 0 -87.5 -39t-39.5 -88zM926 291q0 99 58.5 190t154.5 146t200 55q149 0 244.5 -93t95.5 -231q0 -100 -60.5 -189t-156.5 -141.5t-198 -52.5q-150 0 -244 89t-94 227zM1188 309q0 -39 27.5 -63.5t74.5 -24.5q49 0 88 37t39 88q0 39 -28 64.5t-74 25.5q-48 0 -87.5 -39 t-39.5 -88z" />
<glyph unicode="&#x26;" horiz-adv-x="1396" d="M33 397q0 121 92 232.5t227 150.5v4q-5 2 -13.5 7t-30.5 24.5t-39 43.5t-30.5 67.5t-13.5 93.5q0 98 33.5 178.5t87.5 133t126.5 89t147.5 52.5t152 16q53 0 108 -9.5t84 -19.5l29 -10l-131 -266q-35 8 -78 8q-79 0 -140.5 -47.5t-61.5 -134.5q0 -54 31.5 -87.5 t91.5 -33.5h178l37 190h352l-37 -190h182l-57 -287h-182l-27 -151q-44 -233 -199 -354.5t-401 -121.5q-242 0 -380 117t-138 305zM410 424q0 -58 42.5 -95.5t110.5 -37.5q98 0 162 50.5t78 129.5l24 131h-200q-29 0 -57.5 -5t-58 -18t-51.5 -33t-36 -51.5t-14 -70.5z" />
<glyph unicode="'" horiz-adv-x="468" d="M180 1004l96 491h256l-96 -491h-256z" />
<glyph unicode="(" horiz-adv-x="733" d="M106 371q0 335 104.5 623t334.5 542h301q-216 -265 -324 -563t-108 -611q0 -301 94 -557h-281q-121 276 -121 566z" />
<glyph unicode=")" horiz-adv-x="737" d="M-86 -195q216 265 324 563t108 611q0 301 -94 557h280q121 -276 121 -565q0 -335 -104.5 -624t-333.5 -542h-301z" />
<glyph unicode="*" horiz-adv-x="1013" d="M152 1040l149 287l191 -92l22 229h311l-69 -229l229 94l41 -299l-246 -51l-2 -4l121 -164l-268 -180l-82 200h-4l-152 -198l-225 184l188 176l2 4z" />
<glyph unicode="+" d="M55 455l51 266h420l88 457h279l-88 -457h420l-51 -266h-420l-88 -455h-279l88 455h-420z" />
<glyph unicode="," horiz-adv-x="614" d="M-137 -227l260 567h346l-342 -567h-264z" />
<glyph unicode="-" horiz-adv-x="929" d="M109 434l59 307h643l-59 -307h-643z" />
<glyph unicode="." horiz-adv-x="585" d="M10 0l64 336h336l-64 -336h-336z" />
<glyph unicode="/" horiz-adv-x="972" d="M-68 -86l836 1622h315l-837 -1622h-314z" />
<glyph unicode="0" horiz-adv-x="1306" d="M100 487q0 83 10.5 173t34.5 188.5t59.5 189.5t90.5 174t122 144t159 97t198 36q486 0 486 -508q0 -83 -10.5 -173t-35 -188.5t-60.5 -190t-91 -175t-122.5 -145t-159.5 -98t-197 -36.5q-484 0 -484 512zM471 504q0 -211 121 -211q70 0 128.5 71.5t93.5 178t54 217.5 t19 201q0 210 -123 210q-57 0 -106.5 -48t-83 -122.5t-57.5 -165.5t-35 -176t-11 -155z" />
<glyph unicode="1" horiz-adv-x="1112" d="M-8 0l53 287h311l123 624l25 113h-4q-27 -41 -74 -78l-111 -88l-170 232l480 374h309l-227 -1177h311l-57 -287h-969z" />
<glyph unicode="2" horiz-adv-x="1245" d="M-2 0q0 113 28 211.5t75 172t108 137t128.5 111.5t134.5 91t128 81t108 75t75 79.5t28 88.5q0 61 -39.5 92.5t-97.5 31.5q-40 0 -81.5 -17t-71.5 -41.5t-55 -49.5t-38 -42l-12 -17l-238 188q4 6 12 17t35.5 41.5t58.5 58.5t80 62.5t100.5 59t120 41.5t138.5 17 q89 0 173 -26.5t152 -75t109 -125.5t41 -170q0 -90 -40 -173.5t-104.5 -147.5t-142.5 -122t-158.5 -106t-148 -90.5t-114.5 -85.5t-56 -80h338l35 174h307l-90 -461h-1026z" />
<glyph unicode="3" horiz-adv-x="1212" d="M-8 162l188 250q5 -5 14.5 -13t40.5 -28.5t64 -36t81.5 -28.5t96.5 -13q106 0 175 57t69 137q0 60 -54.5 99t-146.5 39l-74 -4l-43 163l314 336q16 16 34.5 31t28.5 22l11 7v4q-54 -6 -95 -6h-174l-30 -154h-308l86 440h967l-49 -254l-344 -362q110 -39 183 -121.5 t73 -210.5q0 -98 -43.5 -193.5t-121 -173.5t-198.5 -126t-264 -48q-64 0 -125 10.5t-107.5 27t-88 36t-70 39.5t-49.5 36.5t-31 27.5z" />
<glyph unicode="4" horiz-adv-x="1298" d="M-4 354l39 217l729 893h448l-161 -833h174l-54 -277h-174l-69 -354h-355l70 354h-647zM414 631h282l70 354q4 27 15 65t19 62l9 25h-8q-39 -75 -90 -136l-297 -366v-4z" />
<glyph unicode="5" horiz-adv-x="1216" d="M-12 168l194 240q5 -5 14.5 -12.5t40.5 -27.5t63 -35t79.5 -27.5t93.5 -12.5q107 0 183.5 57.5t76.5 151.5q0 77 -55 115t-150 38q-53 0 -106 -11.5t-80 -22.5l-27 -11l-188 78l217 776h854l-86 -440h-307l31 154h-238l-49 -179l-27 -73h4q57 12 125 12q128 0 231 -50 t164.5 -149.5t61.5 -232.5q0 -146 -87 -268.5t-234.5 -192.5t-321.5 -70q-87 0 -168 20t-135 48.5t-95 56.5t-60 48z" />
<glyph unicode="6" horiz-adv-x="1282" d="M86 528q0 107 27.5 219.5t77.5 219.5t127 202t171 166t214 112.5t251 41.5q91 0 173 -17.5t119 -35.5l36 -17l-131 -289q-90 41 -207 41q-132 0 -229.5 -68.5t-155.5 -182.5h4q31 24 90 37.5t119 13.5q100 0 181 -35.5t131.5 -95.5t77 -136t26.5 -161q0 -84 -25 -166.5 t-74.5 -155t-117.5 -127.5t-160 -87t-195 -32q-108 0 -203 35t-168.5 102.5t-116 174.5t-42.5 241zM451 518q0 -94 57 -159.5t135 -65.5q79 0 128.5 68t49.5 155q0 73 -43.5 119.5t-142.5 46.5q-184 0 -184 -164z" />
<glyph unicode="7" horiz-adv-x="1173" d="M18 0l764 1102q16 23 33 42.5t26 27.5l9 8v4q-46 -6 -107 -6h-251l-31 -154h-307l86 440h1063l-50 -250l-850 -1214h-385z" />
<glyph unicode="8" horiz-adv-x="1269" d="M43 373q0 128 78 228t219 192q-115 100 -115 243q0 83 36 162.5t102 145t170.5 105.5t230.5 40q205 0 338 -101t133 -266q0 -40 -10.5 -81t-22.5 -71t-38.5 -67.5t-40 -55.5t-47 -51t-39.5 -38.5t-36 -32.5q67 -48 106.5 -117.5t39.5 -154.5q0 -87 -41.5 -171.5 t-115.5 -153t-190 -111t-253 -42.5q-119 0 -216.5 32.5t-159.5 87.5t-95 126.5t-33 151.5zM412 426q0 -67 40.5 -105t120.5 -38q79 0 142 41t63 114q0 27 -11 51t-23 39.5t-42.5 36t-45 28.5t-57 29t-54.5 27q-133 -112 -133 -223zM578 1040q0 -34 14.5 -61.5t46.5 -51.5 t59.5 -39.5t77.5 -39.5q16 18 35.5 44.5t43.5 79t24 95.5q0 56 -33 85.5t-96 29.5q-72 0 -122 -39.5t-50 -102.5z" />
<glyph unicode="9" horiz-adv-x="1275" d="M51 45l131 289q90 -41 199 -41q133 0 231 70.5t156 187.5h-4q-31 -24 -90 -37.5t-119 -13.5q-81 0 -150 23t-118 63t-83 93.5t-50.5 115t-16.5 127.5q0 106 40.5 207t112 181.5t181.5 129.5t238 49q108 0 203 -35t168.5 -102.5t116 -174.5t42.5 -241q0 -107 -27.5 -219.5 t-77.5 -219.5t-127 -202t-171 -166t-214 -112.5t-251 -41.5q-88 0 -168 17.5t-116 35.5zM504 948q0 -69 44 -114.5t144 -45.5q95 0 138.5 43t43.5 115q0 94 -57 159.5t-135 65.5q-79 0 -128.5 -68t-49.5 -155z" />
<glyph unicode=":" horiz-adv-x="630" d="M29 0l65 336h336l-65 -336h-336zM170 719l66 336h335l-65 -336h-336z" />
<glyph unicode=";" horiz-adv-x="645" d="M-135 -227l260 567h346l-342 -567h-264zM201 719l65 336h324l-66 -336h-323z" />
<glyph unicode="&#x3c;" d="M80 479v219l1032 457v-297l-676 -268v-4l676 -267v-296z" />
<glyph unicode="=" d="M121 219v266h1036v-266h-1036zM121 690v266h1036v-266h-1036z" />
<glyph unicode="&#x3e;" d="M170 23v296l676 267v4l-676 268v297l1032 -457v-219z" />
<glyph unicode="?" horiz-adv-x="1054" d="M174 0l59 307h324l-59 -307h-324zM195 1346q8 6 22 16t59 36t92.5 45.5t118 35.5t138.5 16t132 -15t119.5 -45.5t97 -74t65.5 -103.5t24 -131q0 -74 -23.5 -138t-61.5 -110.5t-84.5 -87t-94 -73.5t-88 -62.5t-69.5 -62.5t-36 -66l-14 -73h-340l18 102q11 60 40 112.5 t66.5 90.5t81 71.5t84 62.5t74 56.5t54 59t20.5 65.5q0 44 -35 72.5t-88 28.5q-31 0 -63.5 -9t-58 -22t-46.5 -26.5t-32 -22.5l-11 -9z" />
<glyph unicode="@" horiz-adv-x="1722" d="M33 385q0 173 74 333.5t200 279.5t306 190.5t380 71.5q133 0 235.5 -31.5t165.5 -88t94.5 -130.5t31.5 -162q0 -50 -15 -131l-67 -355h151l-47 -243h-549q-105 0 -188.5 27.5t-134.5 74.5t-78 106t-27 126q0 60 20 117t63.5 108.5t106.5 90t155.5 61t203.5 22.5h90 q2 8 2 16q0 52 -77 83.5t-173 31.5q-118 0 -226.5 -54t-183 -140t-119 -193t-44.5 -213q0 -169 110.5 -278t319.5 -109l-51 -262q-215 0 -380 79.5t-257 227.5t-92 344zM918 469q0 -48 28 -77.5t84 -29.5h80l53 275h-76q-76 0 -122.5 -51t-46.5 -117z" />
<glyph unicode="A" horiz-adv-x="1503" d="M-94 0l51 266h119l633 1198h417l166 -1198h121l-51 -266h-602l51 266h127l-16 195h-377l-94 -195h127l-54 -266h-618zM676 739h219l-23 271q-4 40 -4 78t2 56l2 19h-8q-16 -63 -57 -153z" />
<glyph unicode="B" horiz-adv-x="1454" d="M-16 0l51 266h162l182 932h-164l51 266h623q158 0 262 -28q117 -35 181.5 -117.5t64.5 -196.5q0 -108 -60.5 -202.5t-167.5 -149.5v-4q92 -35 134.5 -110.5t42.5 -176.5q0 -155 -90 -269t-236 -169q-114 -41 -287 -41h-749zM567 287h195q83 0 139 43q35 28 55.5 70.5 t20.5 88.5q0 57 -32.5 89t-96.5 32h-217zM686 897h184q72 0 115 49.5t43 116.5t-35 92q-33 23 -96 23h-158z" />
<glyph unicode="C" horiz-adv-x="1511" d="M88 625q0 139 44.5 270t126 238t190.5 187.5t244.5 124.5t281.5 44q53 0 112.5 -6t127.5 -18.5t126.5 -35t105 -53t68.5 -75.5q15 -30 15 -64q0 -17 -4 -35l-47 -237h-324l21 106q6 33 -13 56.5t-55.5 34.5t-70 15.5t-68.5 4.5q-117 0 -215 -50t-159 -129.5t-94.5 -173 t-33.5 -186.5q0 -76 20 -140t60 -113.5t105 -78t149 -28.5q59 0 108 9.5t87 35t46 65.5l21 107h328l-41 -217q-13 -69 -58 -124t-105 -88.5t-134.5 -56t-142.5 -31t-134 -8.5q-304 0 -496 181.5t-192 468.5z" />
<glyph unicode="D" horiz-adv-x="1613" d="M-14 0l51 266h162l180 932h-162l51 266h617q189 0 329 -47q174 -62 266.5 -200t92.5 -345q0 -177 -65.5 -341t-189 -291t-284.5 -187q-144 -53 -329 -53h-719zM569 287h127q130 0 228 49q128 66 204 205.5t76 304.5q0 227 -160 301q-69 31 -176 31h-127z" />
<glyph unicode="E" horiz-adv-x="1353" d="M-16 0l51 266h162l182 932h-164l51 266h1129l-84 -432h-307l28 146h-291l-57 -297h428l-57 -287h-428l-60 -307h316l28 145h308l-84 -432h-1151z" />
<glyph unicode="F" horiz-adv-x="1251" d="M-16 0l51 266h162l182 932h-164l51 266h1092l-84 -432h-307l24 125h-254l-61 -317h430l-57 -287h-431l-55 -287h185l-52 -266h-712z" />
<glyph unicode="G" horiz-adv-x="1576" d="M88 623q0 235 120.5 434t330 315.5t458.5 116.5q67 0 140.5 -8t156.5 -28.5t145 -51.5t97 -83q26 -38 26 -83q0 -16 -3 -33l-48 -237h-323l20 106q6 33 -14 56.5t-58 34.5t-73 15.5t-72 4.5q-99 0 -185.5 -33t-147.5 -87.5t-105 -125.5t-65 -147.5t-21 -151.5 q0 -354 364 -354q98 0 182 25t95 81l20 100h-237l53 267h563l-94 -475q-16 -81 -80 -143t-155 -96t-188.5 -50.5t-196.5 -16.5q-316 0 -510.5 180.5t-194.5 467.5z" />
<glyph unicode="H" horiz-adv-x="1792" d="M-14 0l51 266h162l180 932h-162l51 266h695l-52 -266h-163l-64 -328h524l64 328h-164l51 266h694l-51 -266h-164l-182 -932h164l-51 -266h-695l52 266h164l61 318h-524l-62 -318h164l-51 -266h-692z" />
<glyph unicode="I" horiz-adv-x="901" d="M-14 0l51 266h162l180 932h-162l51 266h695l-52 -266h-166l-180 -932h164l-51 -266h-692z" />
<glyph unicode="J" horiz-adv-x="1189" d="M-14 362q0 44 8 93t16 75l8 27h347q-27 -88 -27 -156q0 -108 98 -108q118 0 146 153l147 752h-192l51 266h702l-51 -266h-143l-150 -768q-28 -148 -108.5 -253t-186 -153.5t-227.5 -48.5q-86 0 -163.5 25.5t-139.5 72.5t-98.5 122t-36.5 167z" />
<glyph unicode="K" horiz-adv-x="1540" d="M-14 0l51 266h162l180 932h-162l51 266h637l-51 -266h-109l-59 -309h115l274 309h-100l51 266h598l-51 -266h-123l-395 -440v-4q44 -33 71 -111l93 -281q19 -59 38 -79.5t68 -20.5l66 4l-50 -266q-58 -6 -151 -6q-78 0 -136.5 19t-93 53.5t-54 69t-32.5 79.5l-96 320 q-20 67 -100 67h-47l-66 -336h154l-51 -266h-682z" />
<glyph unicode="L" horiz-adv-x="1298" d="M-12 0l51 266h162l178 912h-164l55 286h695l-56 -286h-166l-172 -891h316l43 215h307l-98 -502h-1151z" />
<glyph unicode="M" horiz-adv-x="2021" d="M-39 0l51 266h158l250 932h-160l51 266h566l104 -725q6 -40 9 -77.5t3 -55.5v-18h4q23 61 70 151l387 725h586l-51 -266h-160l-115 -932h160l-51 -266h-658l52 266h145l68 527q4 27 14 68t18 68l8 27h-8q-34 -94 -69 -155l-297 -535h-308l-88 535q-4 27 -6 66t-2 64v25 h-8q-9 -102 -25 -163l-137 -527h146l-52 -266h-655z" />
<glyph unicode="N" horiz-adv-x="1757" d="M-16 0l51 266h162l182 932h-164l51 266h525l313 -790q11 -26 19.5 -62t10.5 -59l3 -23h8q6 92 20 158l101 510h-172l51 266h702l-51 -266h-164l-233 -1198h-361l-317 788q-10 26 -18.5 61.5t-11.5 58.5l-3 22h-8q-6 -90 -18 -156l-99 -508h172l-51 -266h-700z" />
<glyph unicode="O" horiz-adv-x="1675" d="M88 629q0 171 72 330t191 275t281 185.5t335 69.5q196 0 348.5 -82t236.5 -227.5t84 -329.5q0 -173 -73 -335.5t-193 -280t-281.5 -188.5t-332.5 -71q-147 0 -272 49t-212 135.5t-135.5 207.5t-48.5 262zM457 649q0 -159 89 -257.5t232 -98.5q89 0 177.5 41.5t157 112 t111 171t42.5 209.5q0 154 -90.5 249t-233.5 95q-122 0 -233.5 -68.5t-181.5 -190t-70 -263.5z" />
<glyph unicode="P" horiz-adv-x="1404" d="M-14 0l51 266h164l182 932h-164l51 266h686q146 0 236 -32q109 -43 177.5 -148.5t68.5 -247.5q0 -173 -96.5 -317.5t-251.5 -206.5q-102 -39 -254 -39h-228l-41 -207h166l-51 -266h-696zM664 760h167q70 0 121 28q54 31 85.5 92.5t31.5 135.5q0 94 -51 133 q-40 29 -103 29h-170z" />
<glyph unicode="Q" horiz-adv-x="1675" d="M88 629q0 170 71.5 329.5t188.5 275.5t275 185.5t323 69.5q310 0 500 -179t190 -460q0 -314 -227 -561l123 -125l-225 -209l-121 143q-181 -123 -410 -123q-155 0 -284.5 49t-217.5 135.5t-137 207.5t-49 262zM457 649q0 -159 90 -257.5t233 -98.5q95 0 191 47l-168 188 l221 205l162 -184q80 131 80 278q0 154 -90.5 249t-233.5 95q-122 0 -233.5 -68.5t-181.5 -190t-70 -263.5z" />
<glyph unicode="R" horiz-adv-x="1517" d="M-14 0l51 266h164l182 932h-164l51 266h699q153 0 239 -37q97 -42 155 -132t58 -220q0 -67 -17 -135t-52 -135t-97.5 -122t-144.5 -85v-6q53 -49 78 -117l41 -113q12 -32 18 -45.5t17.5 -29t27.5 -20.5t41 -5l62 4l-49 -266q-58 -6 -146 -6q-63 0 -113.5 13.5t-82 33.5 t-56.5 51.5t-38 59t-25 63.5l-76 231q-20 68 -100 68h-91l-49 -248h152l-51 -266h-684zM672 801h153q99 0 163.5 60t64.5 165q0 80 -43 117q-44 35 -123 35h-142z" />
<glyph unicode="S" d="M41 356l31 164h327l-20 -100q-3 -12 -3 -22q0 -32 25 -55q33 -30 81 -40t108 -10q109 0 163 45.5t54 107.5q0 33 -26.5 60.5t-70 46.5t-99 42t-113 44.5t-113 56.5t-99 76.5t-70 106t-26.5 143.5q0 95 33.5 173.5t91 132t136 90.5t167 54t185.5 17q60 0 121.5 -7.5 t131 -28.5t119 -53.5t75.5 -88.5q17 -36 17 -78q0 -24 -5 -49l-39 -193h-328l18 94q8 33 -15 53t-57.5 26.5t-80.5 6.5q-96 0 -149.5 -31.5t-53.5 -95.5q0 -33 21 -59.5t57 -45.5t82.5 -36.5t97.5 -37t102.5 -41.5t98 -54.5t82.5 -73t57 -100t21 -131.5q0 -118 -51.5 -212.5 t-139.5 -154.5t-201 -91.5t-241 -31.5q-56 0 -114.5 8.5t-121 26t-115 48.5t-91.5 71.5t-56 98.5q-10 33 -10 70q0 28 6 58z" />
<glyph unicode="T" horiz-adv-x="1429" d="M117 971l96 493h1329l-96 -493h-307l39 207h-172l-179 -912h164l-51 -266h-694l51 266h164l178 912h-176l-39 -207h-307z" />
<glyph unicode="U" horiz-adv-x="1687" d="M170 1198l51 266h694l-51 -266h-164l-112 -588q-21 -114 -21 -133q0 -90 56.5 -137t158.5 -47q141 0 222 84q59 62 77 162l127 659h-164l52 266h694l-51 -266h-164l-129 -670q-28 -145 -98 -259.5t-174 -184.5q-165 -109 -398 -109q-119 0 -222 29t-183.5 84t-127 144.5 t-46.5 201.5q0 60 22 176l115 588h-164z" />
<glyph unicode="V" horiz-adv-x="1499" d="M135 1198l51 266h637l-51 -266h-143l67 -643q3 -38 3 -73.5t-3 -61.5l-2 -25h8q23 88 60 160l317 643h-143l51 266h658l-52 -266h-123l-651 -1198h-377l-184 1198h-123z" />
<glyph unicode="W" horiz-adv-x="2121" d="M143 1198l52 266h639l-52 -266h-170l9 -649q0 -32 -2.5 -70.5t-5.5 -60.5l-3 -23h8q21 82 54 154l403 915h283l47 -915q1 -25 1 -49v-23q-1 -34 -3 -58l-2 -24h8q18 82 47 154l262 649h-170l51 266h660l-51 -266h-123l-524 -1198h-404l-41 750q-1 16 -1 34t1 38 q2 40 5 64l3 25h-8q-24 -89 -57 -161l-332 -750h-403l-58 1198h-123z" />
<glyph unicode="X" horiz-adv-x="1486" d="M-47 0l51 266h117l459 496l-250 436h-133l51 266h608l-51 -266h-127l106 -188l35 -68h4q23 29 58 68l166 188h-117l51 266h596l-51 -266h-117l-453 -489l254 -443h129l-51 -266h-608l51 266h131l-108 191l-37 73h-4q-29 -34 -62 -73l-168 -191h121l-51 -266h-600z" />
<glyph unicode="Y" horiz-adv-x="1374" d="M135 1198l51 266h592l-51 -266h-123l96 -270l19 -72h4q16 31 47 72l203 270h-123l51 266h619l-52 -266h-125l-475 -598l-65 -334h164l-52 -266h-694l51 266h164l66 334l-242 598h-125z" />
<glyph unicode="Z" horiz-adv-x="1359" d="M-14 0l43 225l780 885q16 18 36 35.5t32 26.5l12 8v4q-47 -6 -88 -6h-273l-41 -207h-307l96 493h1125l-43 -221l-785 -889q-16 -18 -36 -35.5t-31 -25.5l-12 -8v-4q47 6 88 6h307l43 215h307l-98 -502h-1155z" />
<glyph unicode="[" horiz-adv-x="747" d="M16 -195l338 1731h504l-49 -246h-209l-240 -1239h209l-49 -246h-504z" />
<glyph unicode="\" horiz-adv-x="944" d="M248 1536h282l211 -1622h-282z" />
<glyph unicode="]" horiz-adv-x="745" d="M-86 -195l47 246h209l240 1239h-209l49 246h504l-338 -1731h-502z" />
<glyph unicode="^" d="M0 494l416 970h219l416 -970h-297l-230 614l-227 -614h-297z" />
<glyph unicode="_" horiz-adv-x="1200" d="M-178 -266l49 266h1221l-52 -266h-1218z" />
<glyph unicode="`" horiz-adv-x="991" d="M141 1866h351l178 -307h-279z" />
<glyph unicode="a" horiz-adv-x="1193" d="M-18 254q0 74 31.5 136t86.5 104.5t123.5 74.5t147 50.5t152.5 27t145 8.5h14q8 39 8 62q0 43 -37 64.5t-94 21.5q-62 0 -139.5 -24t-124.5 -48l-47 -24l-72 256q9 5 25 12.5t66.5 27.5t101.5 35.5t123 28t137 12.5q57 0 110.5 -8.5t109.5 -31.5t97.5 -58.5t67.5 -94 t26 -132.5q0 -65 -35.5 -224t-35.5 -202q0 -74 80 -74l38 2l-49 -256q-27 -6 -133 -6q-35 0 -57.5 1t-56.5 5.5t-57.5 14.5t-48 26.5t-41.5 44t-26 64.5h-4q-5 -7 -14.5 -19t-42.5 -42t-69 -53t-93 -42t-116 -19q-126 0 -211.5 72t-85.5 207zM330 313q0 -84 80 -84 q69 0 137.5 67t87.5 136l6 25h-33q-36 0 -77.5 -6t-89.5 -20t-79.5 -45t-31.5 -73z" />
<glyph unicode="b" horiz-adv-x="1323" d="M31 0l233 1208h-143l49 256h498l-78 -397l-23 -94h4q51 50 126.5 78t150.5 28q191 0 299 -123.5t108 -334.5q0 -139 -49.5 -261.5t-130.5 -205.5t-185 -131t-212 -48q-90 0 -170 32t-127 97h-4q-2 -26 -8 -59l-9 -45h-329zM467 453q0 -80 42 -132.5t124 -52.5 q99 0 181.5 90t82.5 236q0 86 -44.5 136t-121.5 50q-42 0 -87.5 -22.5t-85.5 -62t-65.5 -103.5t-25.5 -139z" />
<glyph unicode="c" horiz-adv-x="1179" d="M31 449q0 113 48 224.5t133.5 202.5t217 147t285.5 56q59 0 118 -8t121.5 -29t107.5 -52t68 -83q15 -34 15 -74q0 -21 -4 -42l-29 -148h-301l12 57q1 7 1 13q0 29 -30 47q-38 24 -104 24q-69 0 -128 -29t-95.5 -74.5t-57 -99t-20.5 -106.5q0 -88 56 -147.5t176 -59.5 q52 0 105.5 12.5t93 30t71.5 35.5t49 30l16 13l91 -260q-7 -6 -19.5 -16.5t-57 -37t-94.5 -47t-129 -37t-163 -16.5q-133 0 -239.5 37.5t-174.5 103t-103.5 150.5t-35.5 183z" />
<glyph unicode="d" horiz-adv-x="1380" d="M35 428q0 143 48.5 266t130 206.5t189 131t224.5 47.5q193 0 264 -104h4q2 27 6 47l35 186h-141l49 256h497l-206 -1069q-9 -45 -9 -67q0 -74 80 -74l39 2l-49 -256q-45 -6 -117 -6q-45 0 -70 1t-62.5 5t-60 14t-47 27t-39.5 44.5t-24 64.5h-4q-56 -77 -147.5 -126 t-180.5 -49q-192 0 -300.5 122.5t-108.5 330.5zM393 455q0 -86 44.5 -136.5t121.5 -50.5q93 0 177.5 93t84.5 233q0 81 -41 133.5t-123 52.5q-99 0 -181.5 -89.5t-82.5 -235.5z" />
<glyph unicode="e" horiz-adv-x="1153" d="M35 436q0 181 79 328.5t218 231t311 83.5q218 0 334.5 -112t116.5 -301q0 -43 -10 -93.5t-20 -80.5l-9 -29h-664q-2 -11 -2 -21q0 -79 56.5 -126.5t150.5 -47.5q68 0 146.5 27t122.5 53l44 27l90 -262q-8 -6 -22 -15t-59 -33t-92 -42t-116.5 -33t-136.5 -15 q-131 0 -235.5 37t-169.5 101t-99 146.5t-34 176.5zM434 657h311q5 29 5 41q0 51 -30 83t-83 32q-72 0 -124 -43.5t-79 -112.5z" />
<glyph unicode="f" horiz-adv-x="800" d="M80 0l156 799h-144l49 256h144l8 43q19 99 67.5 173t105 114.5t129 65t128 31.5t113.5 7q32 0 62.5 -2t45.5 -4l14 -2l-57 -279q-33 6 -80 6q-28 0 -47.5 -2.5t-49.5 -11t-49.5 -31t-25.5 -57.5l-10 -51h217l-49 -256h-217l-156 -799h-354z" />
<glyph unicode="g" horiz-adv-x="1345" d="M-14 -322l135 244q4 -3 12 -7.5t36 -16t59 -20.5t80.5 -16t101.5 -7q115 0 185.5 49t98.5 164l21 77h-2q-56 -58 -117 -86t-141 -28q-102 0 -181.5 34.5t-128.5 95.5t-74.5 140t-25.5 172q0 112 38.5 219.5t108 194t178.5 139.5t238 53q67 0 121.5 -14t85.5 -34t52 -40.5 t29 -34.5l7 -14h4q0 13 4 31q6 27 41.5 54.5t89.5 27.5h324l-51 -256h-78q-45 0 -51 -39l-133 -674q-22 -111 -70 -200t-109.5 -147.5t-138.5 -97t-154 -55t-159 -16.5q-81 0 -155.5 11t-123.5 27t-86 32t-54 27zM403 504q0 -80 40 -129t122 -49q74 0 131.5 49.5t85 117.5 t27.5 138q0 153 -170 153q-107 0 -171.5 -80.5t-64.5 -199.5z" />
<glyph unicode="h" horiz-adv-x="1384" d="M31 0l233 1208h-141l49 256h498l-92 -473q-4 -23 -11 -45.5t-11 -33.5l-5 -11h4q5 7 15 19t45 43t74.5 54.5t102 42.5t128.5 19q138 0 222.5 -75.5t84.5 -219.5q0 -71 -37 -246.5t-37 -209.5q0 -74 80 -74l39 2l-49 -256q-37 -6 -125 -6q-35 0 -61.5 1.5t-60.5 7 t-59 15.5t-50.5 28.5t-41.5 43.5t-26.5 63t-10.5 85q0 67 35 234.5t35 197.5q0 88 -100 88q-105 0 -182 -90t-103 -222l-88 -446h-354z" />
<glyph unicode="i" horiz-adv-x="751" d="M88 799l49 256h498l-129 -660q-8 -40 -8 -67q0 -74 80 -74l38 2l-49 -256q-49 -6 -106 -6q-41 0 -70 1.5t-66 7t-62.5 15.5t-52 28t-43 43.5t-26.5 63t-10 85.5q0 49 16 131l84 430h-143zM311 1188l54 276h346l-54 -276h-346z" />
<glyph unicode="j" horiz-adv-x="702" d="M-233 -420l53 270q18 -2 45 -2q32 0 61 5t63 18t58.5 42t32.5 71l158 815h-146l49 256h500l-205 -1057q-20 -102 -69 -181t-107 -123.5t-129.5 -73t-128.5 -37.5t-111 -9q-34 0 -65 1.5t-45 2.5zM317 1188l54 276h346l-53 -276h-347z" />
<glyph unicode="k" horiz-adv-x="1251" d="M31 0l233 1208h-143l49 256h498l-156 -802h102l146 137h-105l50 256h542l-49 -256h-100l-252 -242v-4q32 -30 61 -98l56 -123q16 -39 39.5 -57.5t64.5 -18.5h57l-49 -256q-53 -6 -131 -6q-77 0 -128.5 13t-83 45t-44 54t-31.5 70q-5 13 -8 19l-65 159q-22 56 -68 56h-53 l-80 -410h-352z" />
<glyph unicode="l" horiz-adv-x="694" d="M76 256q0 62 14 133l160 819h-144l50 256h497l-200 -1044q-11 -53 -11 -80q0 -37 18.5 -52.5t61.5 -15.5l43 2l-55 -278q-50 -6 -107 -6q-55 0 -97 5t-87.5 21.5t-75 45t-48.5 78t-19 116.5z" />
<glyph unicode="m" horiz-adv-x="2011" d="M80 0l147 756q1 7 1 13q0 30 -38 30h-98l49 256h334q127 0 127 -94q0 -34 -16 -84h4q6 8 17.5 21.5t48.5 48.5t76 61.5t98 48.5t118 22q92 0 162 -55t86 -160h4q62 95 155 155t208 60q128 0 208 -76t80 -221q0 -68 -36.5 -242.5t-36.5 -211.5q0 -74 80 -74l38 2l-49 -256 q-37 -6 -125 -6q-50 0 -86.5 3.5t-81.5 17.5t-73.5 39t-48 72t-19.5 112q0 63 36 237t36 205q0 40 -16.5 59t-63.5 19q-91 0 -155.5 -91t-90.5 -231l-86 -436h-354l123 625q8 50 8 63q0 70 -76 70q-52 0 -96.5 -29t-75 -79t-52 -108t-34.5 -126l-82 -416h-354z" />
<glyph unicode="n" horiz-adv-x="1433" d="M80 0l147 754q1 7 1 14q0 31 -38 31h-98l49 256h336q125 0 125 -97q0 -38 -16 -81h4q5 8 15.5 21.5t46 48.5t76.5 61.5t106.5 48.5t136.5 22q137 0 221 -76t84 -221q0 -71 -37 -244.5t-37 -209.5q0 -74 80 -74l39 2l-49 -256q-37 -6 -125 -6q-50 0 -86.5 3.5t-81.5 17.5 t-73.5 39t-48 72t-19.5 112q0 67 34.5 234.5t34.5 197.5q0 88 -100 88q-105 0 -182 -90t-103 -222l-88 -446h-354z" />
<glyph unicode="o" horiz-adv-x="1300" d="M33 449q0 135 57 254t151 200.5t216.5 128.5t253.5 47q230 0 378 -130t148 -343q0 -136 -57 -255.5t-151.5 -200.5t-217 -128t-252.5 -47q-229 0 -377.5 130t-148.5 344zM391 465q0 -90 54 -142.5t141 -52.5q113 0 203 88t90 226q0 92 -54 146t-139 54q-111 0 -203 -90.5 t-92 -228.5z" />
<glyph unicode="p" horiz-adv-x="1374" d="M4 -410l223 1164q1 6 1 11q0 34 -35 34h-99l49 256h326q119 0 119 -78q0 -9 -3 -22t-7 -22l-3 -9h5q58 75 141.5 115t177.5 40q190 0 299 -124t109 -334q0 -139 -49.5 -261.5t-131 -205.5t-185.5 -131t-212 -48q-174 0 -276 111h-4q-5 -37 -15 -90l-76 -406h-354z M520 455q0 -82 41 -134.5t123 -52.5q100 0 182 90t82 236q0 86 -44 136t-120 50q-42 0 -87.5 -22.5t-85.5 -62t-65.5 -103t-25.5 -137.5z" />
<glyph unicode="q" horiz-adv-x="1323" d="M35 428q0 143 48.5 266t130 206.5t189 131t224.5 47.5q198 0 284 -123h4q-1 21 7 60l8 39h332l-236 -1215h143l-49 -250h-497l79 414q4 24 10 46.5t10 33.5l3 10h-4q-44 -46 -115 -82.5t-162 -36.5q-192 0 -300.5 122.5t-108.5 330.5zM393 455q0 -86 44.5 -136.5 t121.5 -50.5q93 0 177.5 93t84.5 233q0 81 -41 133.5t-123 52.5q-99 0 -181.5 -89.5t-82.5 -235.5z" />
<glyph unicode="r" horiz-adv-x="950" d="M84 0l145 754q1 7 1 13q0 32 -37 32h-99l51 256h334q127 0 127 -97q0 -57 -28 -147h4q53 111 154 186.5t210 75.5l62 -4l-68 -348q-27 6 -70 6q-45 0 -95 -16.5t-104.5 -53t-98.5 -109t-62 -171.5l-72 -377h-354z" />
<glyph unicode="s" horiz-adv-x="1058" d="M-10 266l20 107h297l-8 -37q-6 -28 8 -47t42 -28.5t55 -13t57 -3.5q135 0 135 69q0 27 -26.5 47t-68.5 35t-92.5 30.5t-101.5 39.5t-93 56t-68.5 85t-26.5 121q0 73 29 133t78 100t115 67.5t138 39.5t150 12q73 0 141 -14t127 -42.5t89 -80.5q21 -37 22 -80q0 -18 -4 -37 l-23 -118h-297l6 41q1 5 1 9q0 54 -103 54q-125 0 -125 -63q0 -26 20.5 -45.5t54.5 -31t77 -25.5t88.5 -27t88.5 -35.5t77 -51.5t54.5 -76t20.5 -106q0 -173 -148.5 -274t-379.5 -101q-58 0 -118 8.5t-122 30t-107 53.5q-45 31 -68 83q-15 34 -15 74q0 20 4 42z" />
<glyph unicode="t" horiz-adv-x="837" d="M78 799l49 256h156l55 284h340l-55 -284h223l-49 -256h-224l-69 -367q-6 -27 -6 -55q0 -105 155 -105l56 4l-56 -280q-53 -6 -94 -6q-90 0 -164.5 19t-134.5 58t-93.5 105.5t-33.5 155.5q0 34 10 82l78 389h-143z" />
<glyph unicode="u" horiz-adv-x="1437" d="M82 799l51 256h498l-121 -619q-8 -46 -8 -59q0 -90 92 -90q69 0 130 47t98.5 114t51.5 140l41 211h-143l51 256h498l-129 -660q-8 -40 -8 -67q0 -74 80 -74l39 2l-50 -256q-49 -6 -137 -6q-37 0 -60 1.5t-58.5 6.5t-59 18t-48 33t-39 54.5t-20.5 80.5h-4 q-149 -213 -381 -213q-136 0 -224.5 74t-88.5 219q0 56 12 117l80 414h-143z" />
<glyph unicode="v" horiz-adv-x="1277" d="M55 799l51 256h551l-51 -256h-94l47 -381q4 -28 4.5 -63t-1.5 -55l-1 -21h8q21 76 56 139l194 381h-94l51 256h572l-52 -256h-118l-449 -799h-418l-137 799h-119z" />
<glyph unicode="w" horiz-adv-x="1794" d="M61 799l52 256h551l-52 -256h-104l6 -367q1 -27 -1.5 -62t-5.5 -56l-3 -21h8q18 78 43 139l268 623h303l23 -623q2 -27 -0.5 -62t-6.5 -56l-3 -21h8q20 78 43 139l149 367h-104l51 256h572l-52 -256h-120l-357 -799h-409l-23 487q-1 14 -1 30.5t1 33.5q2 35 5 55l3 21h-8 q-16 -74 -45 -140l-215 -487h-410l-45 799h-121z" />
<glyph unicode="x" horiz-adv-x="1177" d="M-49 0l49 256h117l268 285l-123 223q-10 20 -25 27.5t-44 7.5h-89l52 256h229q59 0 86.5 -15.5t48.5 -64.5l60 -135l30 -82h4q27 43 60 82l180 215h336l-51 -256h-105l-270 -285l106 -182q20 -31 28 -42t28 -22.5t47 -11.5h67l-49 -256q-53 -6 -110 -6q-71 0 -120 13 t-81 44t-46 52.5t-36 67.5q-3 6 -4.5 8.5t-3.5 7t-4 8.5l-13 24q-8 16 -15.5 36.5t-11.5 32.5l-3 13h-4q-27 -43 -60 -82l-182 -219h-346z" />
<glyph unicode="y" horiz-adv-x="1286" d="M-164 -344l152 244q6 -5 18 -12.5t55 -20t93 -12.5q137 0 190 86l6 10l-182 848h-119l49 256h570l-50 -256h-102l53 -391q3 -33 3 -63.5t-2 -52.5l-3 -22h8q25 75 60 138l201 391h-97l49 256h558l-50 -256h-108l-514 -891q-109 -186 -239 -262t-288 -76q-56 0 -108.5 9 t-87.5 21.5t-62.5 25t-40.5 21.5z" />
<glyph unicode="z" horiz-adv-x="1136" d="M-31 0l41 217l553 522q17 16 36 31t29 22l11 7v4q-53 -4 -94 -4h-125l-25 -127h-297l76 383h942l-43 -219l-545 -521q-17 -16 -36 -31t-29 -22l-10 -6v-4q53 4 94 4h147l25 127h297l-76 -383h-971z" />
<glyph unicode="{" horiz-adv-x="790" d="M37 524l59 307q7 0 19 1t44 12t58.5 30.5t53.5 61t38 98.5l41 211q15 78 55 137t94 91.5t121.5 52.5t138.5 20.5t144 -4.5l-49 -254q-43 7 -88.5 2t-85 -34t-47.5 -74l-53 -271q-10 -52 -37 -94.5t-58 -67t-60.5 -42t-48.5 -23.5l-20 -6v-4q5 -2 14 -5.5t31 -19.5t39 -38 t31 -63.5t14 -92.5q0 -28 -6 -66l-43 -219q-4 -20 -4 -35q0 -42 32.5 -63.5t73 -21.5t76.5 3l-49 -254q-39 -4 -90 -4q-35 0 -73.5 5.5t-89 24t-89 47.5t-65.5 82.5t-27 123.5q0 39 8 80l33 170q6 30 6 53q0 40 -14.5 69.5t-35.5 43t-41.5 21t-34.5 8.5z" />
<glyph unicode="|" horiz-adv-x="749" d="M233 -338v1980h295v-1980h-295z" />
<glyph unicode="}" horiz-adv-x="790" d="M-90 -201l49 254q66 -17 137 12t84 95l58 284q10 52 37 95t58 67.5t60 41.5t49 24l19 6v4q-5 2 -14 5.5t-31 19.5t-39 38t-31 63.5t-14 92.5q0 29 6 66l41 215q2 8 2 24q0 42 -32.5 63.5t-73 21.5t-76.5 -3l49 254q69 10 142.5 -0.5t140 -41t109 -92t42.5 -144.5 q0 -41 -8 -80l-29 -156q-6 -30 -6 -53q0 -40 14.5 -69.5t35.5 -43t41.5 -21.5t35.5 -9l14 -1l-59 -307q-7 0 -19 -1t-44 -12t-58.5 -30t-53.5 -60.5t-38 -98.5l-45 -226q-15 -78 -55 -137t-94 -91.5t-121.5 -52.5t-138.5 -20.5t-144 4.5z" />
<glyph unicode="~" horiz-adv-x="1261" d="M82 391q0 416 356 416q53 0 99 -17t78 -41t60 -48t57.5 -41t58.5 -17q51 0 81.5 40t30.5 116h273q0 -206 -89 -311t-266 -105q-53 0 -98.5 17t-77.5 41t-60 48t-58 41t-60 17q-49 0 -80 -40.5t-31 -115.5h-274z" />
<glyph unicode="&#xa1;" horiz-adv-x="604" d="M-78 -410l230 1012h303l-164 -1012h-369zM166 748l59 307h324l-60 -307h-323z" />
<glyph unicode="&#xa2;" horiz-adv-x="1228" d="M94 647q0 113 33.5 215.5t89 178.5t128 135t151 93.5t157.5 45.5l33 172h225l-34 -187q77 -21 137.5 -64.5t92.5 -90t52.5 -90t26.5 -71.5l6 -28l-318 -114q0 3 -1 8.5t-5 21t-10 29.5t-19 31t-29 29.5t-42 21t-57 8.5q-92 0 -176 -97.5t-84 -236.5q0 -88 43.5 -135 t115.5 -47q43 0 82.5 15t65.5 36.5t46 43t29 36.5l9 15l299 -127q-3 -7 -9 -18.5t-27.5 -45.5t-47 -65t-68.5 -70.5t-90 -69.5t-112 -53.5t-136 -30.5l-33 -166h-225l37 189q-152 47 -244 175t-92 308z" />
<glyph unicode="&#xa3;" horiz-adv-x="1300" d="M-31 0l51 276h162l68 336h-152l45 230h150l45 225q37 188 187 305t354 117q71 0 138 -19t112 -46t79.5 -54t51.5 -46l16 -19l-217 -218q-3 3 -9.5 9t-26.5 20.5t-41 25.5t-52 20t-62 9q-61 0 -109.5 -37t-60.5 -98l-39 -194h318l-45 -230h-316l-67 -336h311l45 226h307 l-96 -502h-1147z" />
<glyph unicode="&#xa5;" horiz-adv-x="1355" d="M102 342l37 197h334l12 57l-30 100h-285l39 197h188l-170 571h391l58 -293q12 -60 23 -128t17 -106l5 -38h4q59 139 135 272l162 293h426l-393 -571h190l-39 -197h-286l-68 -100l-12 -57h336l-37 -197h-336l-68 -342h-366l67 342h-334z" />
<glyph unicode="&#xa7;" horiz-adv-x="1064" d="M-41 41l176 201q4 -3 11.5 -9t33 -21t53.5 -26t72 -20.5t90 -9.5q133 0 192.5 82.5t47.5 224.5l-45 532h258l45 -538q10 -118 -17.5 -223t-88 -185.5t-162 -128t-230.5 -47.5q-78 0 -151.5 17.5t-123 42t-87.5 49t-56 42.5zM201 905q-10 118 17 223t88 185.5t162 128 t230 47.5q78 0 152 -17.5t123.5 -42t87.5 -49t56 -42.5l18 -17l-177 -201q-4 3 -11.5 9t-33 21t-53.5 26t-72 20.5t-90 9.5q-133 0 -192.5 -82.5t-46.5 -224.5l45 -532h-258z" />
<glyph unicode="&#xa8;" horiz-adv-x="993" d="M-27 1579l58 287h268l-57 -287h-269zM475 1579l57 287h269l-58 -287h-268z" />
<glyph unicode="&#xa9;" horiz-adv-x="1644" d="M106 733q0 154 58.5 293.5t157 240.5t234.5 160.5t286 59.5q153 0 290.5 -59.5t236.5 -160.5t157.5 -240.5t58.5 -293.5t-58.5 -294.5t-157.5 -242t-237 -161.5t-290 -60q-150 0 -286 60t-234.5 161.5t-157 242t-58.5 294.5zM338 733q0 -150 66 -276t182 -198.5 t256 -72.5q143 0 261 72.5t185.5 198t67.5 276.5q0 150 -67.5 274.5t-185.5 196.5t-261 72q-140 0 -256 -72t-182 -197t-66 -274zM494 727q0 161 104.5 272t247.5 111q74 0 136 -24.5t96.5 -59t58.5 -69t33 -59.5l8 -24l-205 -79q-1 4 -3.5 11t-12.5 24t-22 30t-34 24 t-47 11q-48 0 -84.5 -48t-36.5 -120q0 -81 33.5 -124.5t87.5 -43.5q25 0 46.5 10.5t34.5 25t22 29t13 24.5l3 11l205 -79q-3 -10 -9 -25.5t-31.5 -56.5t-59.5 -72t-96 -56.5t-136 -25.5q-143 0 -247.5 111t-104.5 272z" />
<glyph unicode="&#xaa;" horiz-adv-x="858" d="M104 549l33 174h625l-35 -174h-623zM178 963q0 243 408 243h20q6 33 6 45q0 27 -22.5 41.5t-61.5 14.5q-35 0 -79 -13t-71 -26l-26 -13l-51 160q13 8 37.5 19.5t103.5 31t162 19.5q122 0 185 -58t63 -161q0 -30 -6 -68l-78 -399h-221l16 90h-4q-3 -4 -8 -11t-22.5 -25.5 t-38 -32t-54 -25t-69.5 -11.5q-78 0 -133.5 49.5t-55.5 129.5zM418 997q0 -41 47 -41q40 0 71.5 30t41.5 91h-21q-53 0 -96 -21t-43 -59z" />
<glyph unicode="&#xab;" horiz-adv-x="1357" d="M53 578l391 421h336l-413 -436l266 -405h-314zM586 578l436 421h342l-465 -436l266 -405h-313z" />
<glyph unicode="&#xac;" horiz-adv-x="1314" d="M129 690v266h1036v-686h-276v420h-760z" />
<glyph unicode="&#xad;" horiz-adv-x="929" d="M109 434l59 307h643l-59 -307h-643z" />
<glyph unicode="&#xae;" horiz-adv-x="1644" d="M106 733q0 154 58.5 293.5t157 240.5t234.5 160.5t286 59.5q153 0 290.5 -59.5t236.5 -160.5t157.5 -240.5t58.5 -293.5t-58.5 -294.5t-157.5 -242t-237 -161.5t-290 -60q-150 0 -286 60t-234.5 161.5t-157 242t-58.5 294.5zM338 733q0 -150 66 -276t182 -198.5 t256 -72.5q143 0 261 72.5t185.5 198t67.5 276.5q0 150 -67.5 274.5t-185.5 196.5t-261 72q-140 0 -256 -72t-182 -197t-66 -274zM575 383v711h334q115 0 182.5 -64t67.5 -172q0 -76 -40.5 -123.5t-78.5 -58.5v-4q9 -6 27 -41l129 -248h-242l-100 242h-57v-242h-222z M797 772h55q40 0 61 22.5t21 63.5q0 84 -78 84h-59v-170z" />
<glyph unicode="&#xaf;" horiz-adv-x="993" d="M86 1602l45 229h563l-45 -229h-563z" />
<glyph unicode="&#xb0;" horiz-adv-x="864" d="M158 1106q0 99 57.5 189.5t150 145t191.5 54.5q151 0 248.5 -91.5t97.5 -227.5q0 -101 -58.5 -192t-151 -143.5t-191.5 -52.5q-151 0 -247.5 90t-96.5 228zM416 1126q0 -41 28 -66.5t74 -25.5q47 0 87 36.5t40 82.5q0 43 -29 69.5t-75 26.5q-49 0 -87 -38.5t-38 -84.5z " />
<glyph unicode="&#xb1;" d="M82 455v266h420v457h278v-457h420v-266h-420v-455h-278v455h-420zM102 -143h1078v-267h-1078v267z" />
<glyph unicode="&#xb2;" horiz-adv-x="845" d="M131 866q0 97 28.5 176t74.5 130t101 91.5t110 68t101 51.5t74.5 51.5t28.5 58.5t-22 46t-54 15q-38 0 -80 -23t-65 -46l-22 -23l-154 160q6 7 16.5 18t45.5 40t73 51.5t95.5 40.5t115.5 18q78 0 148.5 -27t121 -90t50.5 -151q0 -61 -24.5 -113t-65 -89t-89 -68t-99 -55 t-93.5 -45t-73.5 -42.5t-37.5 -42.5h232l16 88h199l-56 -289h-696z" />
<glyph unicode="&#xb3;" horiz-adv-x="811" d="M131 985l154 172q2 -3 7 -8t21.5 -18.5t35 -23.5t49 -18t63.5 -8q55 0 91 28.5t36 70.5q0 31 -32 46t-81 15h-61l-29 107l180 182q10 11 24 23t23 18l9 6v8q-37 -8 -70 -8h-90l-19 -96h-198l55 288h637l-31 -161l-215 -207q73 -26 117.5 -84t44.5 -135q0 -60 -28 -120 t-77.5 -108t-124 -78t-159.5 -30q-67 0 -125.5 14.5t-94.5 35t-63 40.5t-38 34z" />
<glyph unicode="&#xb4;" horiz-adv-x="991" d="M53 1559l297 307h375l-369 -307h-303z" />
<glyph unicode="&#xb6;" horiz-adv-x="1363" d="M117 924q0 144 80 270t207 198t264 72h762l-60 -307h-485l-246 -1259h-246l117 596q-75 0 -146 32.5t-126 88.5t-88 137t-33 172zM766 -102l225 1157h246l-225 -1157h-246z" />
<glyph unicode="&#xb7;" horiz-adv-x="610" d="M109 436l63 336h324l-64 -336h-323z" />
<glyph unicode="&#xb8;" horiz-adv-x="991" d="M111 -461l28 154q42 -17 99 -17q17 0 33 2.5t34.5 8.5t29.5 19t11 32q0 49 -104 49h-52l144 272l141 -34l-4 -15l-59 -112q71 -5 117 -46t46 -106q0 -60 -30.5 -105.5t-80.5 -70.5t-104.5 -37t-111.5 -12q-32 0 -66.5 4.5t-52.5 8.5z" />
<glyph unicode="&#xb9;" horiz-adv-x="776" d="M129 866l39 201h203l59 311q3 16 8.5 33.5t9.5 26.5l5 10h-4q-25 -29 -48 -45l-67 -49l-119 162l328 253h221l-135 -702h205l-39 -201h-666z" />
<glyph unicode="&#xba;" horiz-adv-x="946" d="M113 549l34 174h693l-35 -174h-692zM195 1087q0 113 61.5 205.5t158 142.5t203.5 50q146 0 239 -82t93 -217q0 -112 -62 -205t-159 -143t-203 -50q-145 0 -238 82t-93 217zM440 1104q0 -48 30 -76.5t77 -28.5q61 0 109.5 47t48.5 121q0 49 -30 79t-75 30 q-60 0 -110 -49.5t-50 -122.5z" />
<glyph unicode="&#xbb;" horiz-adv-x="1355" d="M-18 158l464 436l-266 405h314l266 -419l-436 -422h-342zM565 158l414 436l-266 405h313l266 -419l-391 -422h-336z" />
<glyph unicode="&#xbc;" horiz-adv-x="2115" d="M102 561l39 201h203l59 311q3 16 8.5 33.5t10.5 27.5l4 9h-4q-24 -29 -47 -45l-68 -49l-119 161l328 254h221l-135 -702h205l-39 -201h-666zM465 0l971 1464h258l-971 -1464h-258zM1204 188l29 162l450 553h314l-103 -526h109l-35 -189h-108l-37 -188h-254l37 188h-402z M1468 377h172l43 215q4 20 11.5 45.5t13.5 40.5l6 16h-8q-28 -55 -59 -94l-179 -219v-4z" />
<glyph unicode="&#xbd;" horiz-adv-x="2103" d="M96 561l39 201h203l59 311q3 16 8.5 33.5t10.5 27.5l4 9h-4q-24 -29 -47 -45l-68 -49l-119 161l328 254h221l-135 -702h205l-39 -201h-666zM467 0l971 1464h258l-971 -1464h-258zM1219 0q0 97 28.5 176t74.5 130t101 91.5t110 68t101 51.5t74.5 51.5t28.5 58.5t-22 46 t-54 15q-38 0 -80 -23t-65 -46l-23 -23l-154 160q6 7 16.5 18t46 40t73 51.5t95.5 40.5t116 18q57 0 112 -16.5t102 -48t76 -84.5t29 -120q0 -70 -33.5 -129t-83.5 -97t-110.5 -72.5t-113.5 -57t-92.5 -48.5t-47.5 -50h231l17 88h198l-55 -289h-696z" />
<glyph unicode="&#xbe;" horiz-adv-x="2107" d="M90 680l154 172q2 -3 7 -8t21.5 -18.5t35 -23.5t49 -18t63.5 -8q55 0 91 28t36 70q0 31 -32 46.5t-81 15.5h-61l-29 106l180 183q10 11 24 23t23 18l9 6v8q-37 -8 -70 -8h-90l-19 -96h-198l55 288h637l-31 -161l-215 -207q73 -26 117.5 -84t44.5 -135q0 -60 -28 -120 t-77.5 -108t-124 -78t-159.5 -30q-67 0 -125.5 14.5t-94.5 34.5t-63 40.5t-38 35.5zM459 0l971 1464h258l-971 -1464h-258zM1198 188l29 162l450 553h314l-103 -526h109l-35 -189h-109l-36 -188h-254l36 188h-401zM1462 377h172l43 215q4 20 11.5 45.5t13.5 40.5l6 16h-8 q-29 -55 -60 -94l-178 -219v-4z" />
<glyph unicode="&#xbf;" horiz-adv-x="1056" d="M-37 -61q0 74 23.5 138t61.5 110.5t84.5 87t94 73.5t88 62.5t69.5 62.5t36 66l12 63h340l-16 -92q-11 -60 -40 -112.5t-66.5 -90.5t-81 -71.5t-84 -62.5t-74 -56.5t-54 -59t-20.5 -65.5q0 -44 35 -72.5t88 -28.5q48 0 101 22.5t82 44.5l28 22l161 -261q-8 -6 -22 -16 t-59 -36t-92.5 -45.5t-118 -35.5t-138.5 -16t-132 15t-119.5 45.5t-97 74t-65.5 103.5t-24 131zM467 748l59 307h324l-59 -307h-324z" />
<glyph unicode="&#xc0;" horiz-adv-x="1499" d="M-96 0l51 266h119l633 1198h417l166 -1198h121l-51 -266h-602l51 266h127l-16 195h-377l-94 -195h126l-53 -266h-618zM578 1866h350l178 -307h-279zM674 739h219l-23 271q-4 40 -4 78t2 56l2 19h-8q-16 -63 -57 -153z" />
<glyph unicode="&#xc1;" horiz-adv-x="1503" d="M-94 0l51 266h119l633 1198h417l166 -1198h121l-51 -266h-602l51 266h127l-16 195h-377l-94 -195h127l-54 -266h-618zM676 739h219l-23 271q-4 40 -4 78t2 56l2 19h-8q-16 -63 -57 -153zM739 1559l297 307h375l-369 -307h-303z" />
<glyph unicode="&#xc2;" horiz-adv-x="1503" d="M-94 0l51 266h119l633 1198h417l166 -1198h121l-51 -266h-602l51 266h127l-16 195h-377l-94 -195h127l-54 -266h-618zM545 1559l264 307h344l141 -307h-266l-63 167h-4l-130 -167h-286zM676 739h219l-23 271q-4 40 -4 78t2 56l2 19h-8q-16 -63 -57 -153z" />
<glyph unicode="&#xc3;" horiz-adv-x="1503" d="M-94 0l51 266h119l633 1198h417l166 -1198h121l-51 -266h-602l51 266h127l-16 195h-377l-94 -195h127l-54 -266h-618zM535 1559q30 148 106.5 230.5t187.5 82.5q41 0 73 -12.5t51 -31t35 -36.5t34 -30.5t39 -12.5q69 0 90 117h231q-26 -146 -103.5 -230t-186.5 -84 q-40 0 -72.5 12.5t-52.5 31t-37 36.5t-35.5 30.5t-38.5 12.5q-66 0 -90 -116h-231zM676 739h219l-23 271q-4 40 -4 78t2 56l2 19h-8q-16 -63 -57 -153z" />
<glyph unicode="&#xc4;" horiz-adv-x="1503" d="M-94 0l51 266h119l633 1198h417l166 -1198h121l-51 -266h-602l51 266h127l-16 195h-377l-94 -195h127l-54 -266h-618zM549 1579l57 287h268l-57 -287h-268zM676 739h219l-23 271q-4 40 -4 78t2 56l2 19h-8q-16 -63 -57 -153zM1051 1579l57 287h268l-57 -287h-268z" />
<glyph unicode="&#xc5;" horiz-adv-x="1503" d="M-94 0l51 266h119l633 1198h417l166 -1198h121l-51 -266h-602l51 266h127l-16 195h-377l-94 -195h127l-54 -266h-618zM676 739h219l-23 271q-4 40 -4 78t2 56l2 19h-8q-16 -63 -57 -153zM731 1679q0 96 77 148.5t173 52.5q85 0 145 -40.5t60 -115.5q0 -48 -23.5 -86.5 t-61.5 -61.5t-81 -34.5t-86 -11.5q-85 0 -144 38.5t-59 110.5zM887 1686q0 -25 15 -39.5t42 -14.5q36 0 62 25t26 63q0 26 -16 42t-43 16q-35 0 -60.5 -26t-25.5 -66z" />
<glyph unicode="&#xc6;" horiz-adv-x="2064" d="M-90 0l51 266h111l563 932h-137l51 266h1556l-84 -432h-286l28 146h-299l-57 -297h418l-58 -287h-417l-60 -307h324l28 145h287l-84 -432h-1143l52 266h166l65 334h-342l-192 -334h137l-51 -266h-627zM799 868h237l62 310h-117z" />
<glyph unicode="&#xc7;" horiz-adv-x="1511" d="M88 625q0 139 44.5 270t126 238t190.5 187.5t244.5 124.5t281.5 44q53 0 112.5 -6t127.5 -18.5t126.5 -35t105 -53t68.5 -75.5t11 -99l-47 -237h-324l21 106q6 33 -13 56.5t-55.5 34.5t-70 15.5t-68.5 4.5q-117 0 -215 -50t-159 -129.5t-94.5 -173t-33.5 -186.5 q0 -76 20 -140t60 -113.5t105 -78t149 -28.5q59 0 108 9.5t87 35t46 65.5l21 107h328l-41 -217q-13 -69 -58 -124t-105 -88.5t-134.5 -56t-142.5 -31t-134 -8.5h-20l-41 -77q71 -5 117.5 -46.5t46.5 -105.5q0 -60 -31 -105.5t-81 -70.5t-104.5 -37t-111.5 -12 q-32 0 -66.5 4.5t-52.5 8.5l-18 5l28 154q42 -17 99 -17q17 0 33 2.5t34.5 8.5t29.5 19t11 32q0 49 -104 49h-51l108 207q-235 48 -374.5 218t-139.5 413z" />
<glyph unicode="&#xc8;" horiz-adv-x="1353" d="M-16 0l51 266h162l182 932h-164l51 266h1129l-84 -432h-307l28 146h-291l-57 -297h428l-57 -287h-428l-60 -307h316l28 145h308l-84 -432h-1151zM539 1866h350l178 -307h-279z" />
<glyph unicode="&#xc9;" horiz-adv-x="1353" d="M-16 0l51 266h162l182 932h-164l51 266h1129l-84 -432h-307l28 146h-291l-57 -297h428l-57 -287h-428l-60 -307h316l28 145h308l-84 -432h-1151zM698 1559l297 307h375l-369 -307h-303z" />
<glyph unicode="&#xca;" horiz-adv-x="1353" d="M-16 0l51 266h162l182 932h-164l51 266h1129l-84 -432h-307l28 146h-291l-57 -297h428l-57 -287h-428l-60 -307h316l28 145h308l-84 -432h-1151zM504 1559l264 307h344l141 -307h-266l-63 167h-4l-129 -167h-287z" />
<glyph unicode="&#xcb;" horiz-adv-x="1353" d="M-16 0l51 266h162l182 932h-164l51 266h1129l-84 -432h-307l28 146h-291l-57 -297h428l-57 -287h-428l-60 -307h316l28 145h308l-84 -432h-1151zM508 1579l57 287h269l-58 -287h-268zM1010 1579l57 287h268l-57 -287h-268z" />
<glyph unicode="&#xcc;" horiz-adv-x="901" d="M-14 0l51 266h162l180 932h-162l51 266h695l-52 -266h-166l-180 -932h164l-51 -266h-692zM281 1866h350l178 -307h-279z" />
<glyph unicode="&#xcd;" horiz-adv-x="901" d="M-14 0l51 266h162l180 932h-162l51 266h695l-52 -266h-166l-180 -932h164l-51 -266h-692zM440 1559l297 307h375l-369 -307h-303z" />
<glyph unicode="&#xce;" horiz-adv-x="901" d="M-14 0l51 266h162l180 932h-162l51 266h695l-52 -266h-166l-180 -932h164l-51 -266h-692zM246 1559l264 307h344l141 -307h-266l-63 167h-4l-130 -167h-286z" />
<glyph unicode="&#xcf;" horiz-adv-x="901" d="M-14 0l51 266h162l180 932h-162l51 266h695l-52 -266h-166l-180 -932h164l-51 -266h-692zM250 1579l57 287h268l-57 -287h-268zM752 1579l57 287h268l-57 -287h-268z" />
<glyph unicode="&#xd0;" horiz-adv-x="1613" d="M-14 0l51 266h162l61 316h-143l55 286h143l66 330h-164l51 266h627q319 0 498.5 -152.5t179.5 -426.5q0 -182 -63.5 -344.5t-175 -281.5t-272.5 -189t-347 -70h-729zM569 287h138q147 0 261.5 76.5t175 204.5t60.5 284q0 158 -85 242t-240 84h-138l-59 -310h233l-55 -286 h-233z" />
<glyph unicode="&#xd1;" horiz-adv-x="1757" d="M-16 0l51 266h162l182 932h-164l51 266h525l313 -790q11 -26 19.5 -62t10.5 -59l3 -23h8q6 92 20 158l101 510h-172l51 266h702l-51 -266h-164l-233 -1198h-361l-317 788q-10 26 -18.5 61.5t-11.5 58.5l-3 22h-8q-6 -90 -18 -156l-99 -508h172l-51 -266h-700zM670 1559 q30 148 106.5 230.5t188.5 82.5q41 0 72.5 -12.5t51 -31t35.5 -36.5t33.5 -30.5t38.5 -12.5q69 0 90 117h232q-26 -146 -104 -230t-187 -84q-40 0 -72.5 12.5t-52.5 31t-37 36.5t-35.5 30.5t-38.5 12.5q-66 0 -90 -116h-231z" />
<glyph unicode="&#xd2;" horiz-adv-x="1675" d="M88 629q0 171 72 330t191 275t281 185.5t335 69.5q196 0 348.5 -82t236.5 -227.5t84 -329.5q0 -173 -73 -335.5t-193 -280t-281.5 -188.5t-332.5 -71q-147 0 -272 49t-212 135.5t-135.5 207.5t-48.5 262zM457 649q0 -159 89 -257.5t232 -98.5q89 0 177.5 41.5t157 112 t111 171t42.5 209.5q0 154 -90.5 249t-233.5 95q-122 0 -233.5 -68.5t-181.5 -190t-70 -263.5zM670 1866h350l178 -307h-278z" />
<glyph unicode="&#xd3;" horiz-adv-x="1675" d="M88 629q0 171 72 330t191 275t281 185.5t335 69.5q196 0 348.5 -82t236.5 -227.5t84 -329.5q0 -173 -73 -335.5t-193 -280t-281.5 -188.5t-332.5 -71q-147 0 -272 49t-212 135.5t-135.5 207.5t-48.5 262zM457 649q0 -159 89 -257.5t232 -98.5q89 0 177.5 41.5t157 112 t111 171t42.5 209.5q0 154 -90.5 249t-233.5 95q-122 0 -233.5 -68.5t-181.5 -190t-70 -263.5zM829 1559l297 307h375l-368 -307h-304z" />
<glyph unicode="&#xd4;" horiz-adv-x="1675" d="M88 629q0 171 72 330t191 275t281 185.5t335 69.5q196 0 348.5 -82t236.5 -227.5t84 -329.5q0 -173 -73 -335.5t-193 -280t-281.5 -188.5t-332.5 -71q-147 0 -272 49t-212 135.5t-135.5 207.5t-48.5 262zM457 649q0 -159 89 -257.5t232 -98.5q89 0 177.5 41.5t157 112 t111 171t42.5 209.5q0 154 -90.5 249t-233.5 95q-122 0 -233.5 -68.5t-181.5 -190t-70 -263.5zM635 1559l264 307h344l141 -307h-266l-63 167h-4l-129 -167h-287z" />
<glyph unicode="&#xd5;" horiz-adv-x="1675" d="M88 629q0 171 72 330t191 275t281 185.5t335 69.5q196 0 348.5 -82t236.5 -227.5t84 -329.5q0 -173 -73 -335.5t-193 -280t-281.5 -188.5t-332.5 -71q-147 0 -272 49t-212 135.5t-135.5 207.5t-48.5 262zM457 649q0 -159 89 -257.5t232 -98.5q89 0 177.5 41.5t157 112 t111 171t42.5 209.5q0 154 -90.5 249t-233.5 95q-122 0 -233.5 -68.5t-181.5 -190t-70 -263.5zM625 1559q30 148 106.5 230.5t188.5 82.5q41 0 72.5 -12.5t51 -31t35.5 -36.5t33.5 -30.5t38.5 -12.5q69 0 90 117h232q-26 -146 -104 -230t-187 -84q-40 0 -72.5 12.5t-52.5 31 t-37 36.5t-35.5 30.5t-38.5 12.5q-66 0 -90 -116h-231z" />
<glyph unicode="&#xd6;" horiz-adv-x="1675" d="M88 629q0 171 72 330t191 275t281 185.5t335 69.5q196 0 348.5 -82t236.5 -227.5t84 -329.5q0 -173 -73 -335.5t-193 -280t-281.5 -188.5t-332.5 -71q-147 0 -272 49t-212 135.5t-135.5 207.5t-48.5 262zM457 649q0 -159 89 -257.5t232 -98.5q89 0 177.5 41.5t157 112 t111 171t42.5 209.5q0 154 -90.5 249t-233.5 95q-122 0 -233.5 -68.5t-181.5 -190t-70 -263.5zM639 1579l57 287h269l-58 -287h-268zM1141 1579l57 287h268l-57 -287h-268z" />
<glyph unicode="&#xd7;" d="M84 188l373 400l-373 401l188 189l367 -394l369 394l188 -189l-375 -401l375 -400l-188 -188l-369 393l-367 -393z" />
<glyph unicode="&#xd8;" horiz-adv-x="1677" d="M90 629q0 170 71.5 329.5t188.5 275.5t275 185.5t323 69.5q221 0 391 -98l121 131l133 -107l-120 -131q165 -173 165 -434q0 -173 -72.5 -335.5t-191 -280t-276 -188.5t-320.5 -71q-244 0 -416 115l-135 -147l-133 108l142 152q-146 176 -146 426zM459 649q0 -96 35 -168 l600 647q-71 33 -150 33q-91 0 -179.5 -40t-155.5 -107.5t-108.5 -163.5t-41.5 -201zM606 350q74 -47 176 -47q89 0 177 41t156 110t110.5 167.5t42.5 205.5q0 102 -47 185z" />
<glyph unicode="&#xd9;" horiz-adv-x="1687" d="M170 1198l51 266h694l-51 -266h-164l-112 -588q-21 -114 -21 -133q0 -90 56.5 -137t158.5 -47q141 0 222 84q59 62 77 162l127 659h-164l52 266h694l-51 -266h-164l-129 -670q-28 -145 -98 -259.5t-174 -184.5q-165 -109 -398 -109q-119 0 -222 29t-183.5 84t-127 144.5 t-46.5 201.5q0 60 22 176l115 588h-164zM676 1866h350l178 -307h-278z" />
<glyph unicode="&#xda;" horiz-adv-x="1687" d="M170 1198l51 266h694l-51 -266h-164l-112 -588q-21 -114 -21 -133q0 -90 56.5 -137t158.5 -47q141 0 222 84q59 62 77 162l127 659h-164l52 266h694l-51 -266h-164l-129 -670q-28 -145 -98 -259.5t-174 -184.5q-165 -109 -398 -109q-119 0 -222 29t-183.5 84t-127 144.5 t-46.5 201.5q0 60 22 176l115 588h-164zM836 1559l297 307h374l-368 -307h-303z" />
<glyph unicode="&#xdb;" horiz-adv-x="1687" d="M170 1198l51 266h694l-51 -266h-164l-112 -588q-21 -114 -21 -133q0 -90 56.5 -137t158.5 -47q141 0 222 84q59 62 77 162l127 659h-164l52 266h694l-51 -266h-164l-129 -670q-28 -145 -98 -259.5t-174 -184.5q-165 -109 -398 -109q-119 0 -222 29t-183.5 84t-127 144.5 t-46.5 201.5q0 60 22 176l115 588h-164zM641 1559l264 307h344l142 -307h-267l-63 167h-4l-129 -167h-287z" />
<glyph unicode="&#xdc;" horiz-adv-x="1687" d="M170 1198l51 266h694l-51 -266h-164l-112 -588q-21 -114 -21 -133q0 -90 56.5 -137t158.5 -47q141 0 222 84q59 62 77 162l127 659h-164l52 266h694l-51 -266h-164l-129 -670q-28 -145 -98 -259.5t-174 -184.5q-165 -109 -398 -109q-119 0 -222 29t-183.5 84t-127 144.5 t-46.5 201.5q0 60 22 176l115 588h-164zM645 1579l57 287h269l-58 -287h-268zM1147 1579l57 287h269l-58 -287h-268z" />
<glyph unicode="&#xdd;" horiz-adv-x="1374" d="M135 1198l51 266h592l-51 -266h-123l96 -270l19 -72h4q16 31 47 72l203 270h-123l51 266h619l-52 -266h-125l-475 -598l-65 -334h164l-52 -266h-694l51 266h164l66 334l-242 598h-125zM688 1559l297 307h375l-369 -307h-303z" />
<glyph unicode="&#xde;" horiz-adv-x="1382" d="M-16 0l51 266h162l182 932h-164l51 266h695l-52 -266h-172l-18 -94h276q186 0 287.5 -86.5t101.5 -229.5q0 -193 -144.5 -306t-377.5 -113h-287l-20 -103h172l-51 -266h-692zM627 635h190q197 0 197 131q0 39 -35.5 55.5t-114.5 16.5h-196z" />
<glyph unicode="&#xdf;" horiz-adv-x="1320" d="M29 0l213 1100q18 94 71 169.5t128.5 122.5t164 72t182.5 25q192 0 320.5 -95.5t128.5 -250.5q0 -66 -22 -120.5t-53.5 -89.5t-63.5 -63.5t-54 -57t-22 -56.5q0 -31 20.5 -63.5t50 -63.5t58.5 -65.5t49.5 -82.5t20.5 -102q0 -108 -63 -199.5t-164 -142.5t-214 -51 q-82 0 -151 10.5t-97 21.5l-28 11l57 284q76 -32 187 -32q46 0 82 22.5t36 73.5q0 31 -21 63t-51 62t-60 62.5t-51 75.5t-21 89q0 58 22.5 109t55 86t64.5 65.5t54.5 60.5t22.5 58q0 39 -28.5 62.5t-80.5 23.5q-158 0 -184 -139l-205 -1055h-354z" />
<glyph unicode="&#xe0;" horiz-adv-x="1193" d="M-18 254q0 74 31.5 136t86.5 104.5t123.5 74.5t147 50.5t152.5 27t145 8.5h14q8 39 8 62q0 43 -37 64.5t-94 21.5q-62 0 -139.5 -24t-124.5 -48l-47 -24l-72 256q9 5 25 12.5t66.5 27.5t101.5 35.5t123 28t137 12.5q57 0 110.5 -8.5t109.5 -31.5t97.5 -58.5t67.5 -94 t26 -132.5q0 -65 -35.5 -224t-35.5 -202q0 -74 80 -74l38 2l-49 -256q-27 -6 -133 -6q-35 0 -57.5 1t-56.5 5.5t-57.5 14.5t-48 26.5t-41.5 44t-26 64.5h-4q-5 -7 -14.5 -19t-42.5 -42t-69 -53t-93 -42t-116 -19q-126 0 -211.5 72t-85.5 207zM319 1464h351l178 -307h-279z M330 313q0 -84 80 -84q69 0 137.5 67t87.5 136l6 25h-33q-36 0 -77.5 -6t-89.5 -20t-79.5 -45t-31.5 -73z" />
<glyph unicode="&#xe1;" horiz-adv-x="1193" d="M-18 254q0 74 31.5 136t86.5 104.5t123.5 74.5t147 50.5t152.5 27t145 8.5h14q8 39 8 62q0 43 -37 64.5t-94 21.5q-62 0 -139.5 -24t-124.5 -48l-47 -24l-72 256q9 5 25 12.5t66.5 27.5t101.5 35.5t123 28t137 12.5q57 0 110.5 -8.5t109.5 -31.5t97.5 -58.5t67.5 -94 t26 -132.5q0 -65 -35.5 -224t-35.5 -202q0 -74 80 -74l38 2l-49 -256q-27 -6 -133 -6q-35 0 -57.5 1t-56.5 5.5t-57.5 14.5t-48 26.5t-41.5 44t-26 64.5h-4q-5 -7 -14.5 -19t-42.5 -42t-69 -53t-93 -42t-116 -19q-126 0 -211.5 72t-85.5 207zM330 313q0 -84 80 -84 q69 0 137.5 67t87.5 136l6 25h-33q-36 0 -77.5 -6t-89.5 -20t-79.5 -45t-31.5 -73zM479 1157l297 307h375l-369 -307h-303z" />
<glyph unicode="&#xe2;" horiz-adv-x="1193" d="M-18 254q0 74 31.5 136t86.5 104.5t123.5 74.5t147 50.5t152.5 27t145 8.5h14q8 39 8 62q0 43 -37 64.5t-94 21.5q-62 0 -139.5 -24t-124.5 -48l-47 -24l-72 256q9 5 25 12.5t66.5 27.5t101.5 35.5t123 28t137 12.5q57 0 110.5 -8.5t109.5 -31.5t97.5 -58.5t67.5 -94 t26 -132.5q0 -65 -35.5 -224t-35.5 -202q0 -74 80 -74l38 2l-49 -256q-27 -6 -133 -6q-35 0 -57.5 1t-56.5 5.5t-57.5 14.5t-48 26.5t-41.5 44t-26 64.5h-4q-5 -7 -14.5 -19t-42.5 -42t-69 -53t-93 -42t-116 -19q-126 0 -211.5 72t-85.5 207zM285 1157l264 307h344l141 -307 h-266l-63 168h-5l-129 -168h-286zM330 313q0 -84 80 -84q69 0 137.5 67t87.5 136l6 25h-33q-36 0 -77.5 -6t-89.5 -20t-79.5 -45t-31.5 -73z" />
<glyph unicode="&#xe3;" horiz-adv-x="1193" d="M-18 254q0 74 31.5 136t86.5 104.5t123.5 74.5t147 50.5t152.5 27t145 8.5h14q8 39 8 62q0 43 -37 64.5t-94 21.5q-62 0 -139.5 -24t-124.5 -48l-47 -24l-72 256q9 5 25 12.5t66.5 27.5t101.5 35.5t123 28t137 12.5q57 0 110.5 -8.5t109.5 -31.5t97.5 -58.5t67.5 -94 t26 -132.5q0 -65 -35.5 -224t-35.5 -202q0 -74 80 -74l38 2l-49 -256q-27 -6 -133 -6q-35 0 -57.5 1t-56.5 5.5t-57.5 14.5t-48 26.5t-41.5 44t-26 64.5h-4q-5 -7 -14.5 -19t-42.5 -42t-69 -53t-93 -42t-116 -19q-126 0 -211.5 72t-85.5 207zM274 1157q30 148 106.5 230.5 t188.5 82.5q41 0 73 -12.5t51 -30.5t35 -36t34 -30.5t39 -12.5q69 0 90 116h231q-26 -146 -104 -229.5t-187 -83.5q-40 0 -72.5 12.5t-52.5 30.5t-36.5 36.5t-35 31t-38.5 12.5q-66 0 -90 -117h-232zM330 313q0 -84 80 -84q69 0 137.5 67t87.5 136l6 25h-33q-36 0 -77.5 -6 t-89.5 -20t-79.5 -45t-31.5 -73z" />
<glyph unicode="&#xe4;" horiz-adv-x="1193" d="M-18 254q0 74 31.5 136t86.5 104.5t123.5 74.5t147 50.5t152.5 27t145 8.5h14q8 39 8 62q0 43 -37 64.5t-94 21.5q-62 0 -139.5 -24t-124.5 -48l-47 -24l-72 256q9 5 25 12.5t66.5 27.5t101.5 35.5t123 28t137 12.5q57 0 110.5 -8.5t109.5 -31.5t97.5 -58.5t67.5 -94 t26 -132.5q0 -65 -35.5 -224t-35.5 -202q0 -74 80 -74l38 2l-49 -256q-27 -6 -133 -6q-35 0 -57.5 1t-56.5 5.5t-57.5 14.5t-48 26.5t-41.5 44t-26 64.5h-4q-5 -7 -14.5 -19t-42.5 -42t-69 -53t-93 -42t-116 -19q-126 0 -211.5 72t-85.5 207zM289 1178l57 286h268l-57 -286 h-268zM330 313q0 -84 80 -84q69 0 137.5 67t87.5 136l6 25h-33q-36 0 -77.5 -6t-89.5 -20t-79.5 -45t-31.5 -73zM791 1178l57 286h268l-57 -286h-268z" />
<glyph unicode="&#xe5;" horiz-adv-x="1193" d="M-18 254q0 74 31.5 136t86.5 104.5t123.5 74.5t147 50.5t152.5 27t145 8.5h14q8 39 8 62q0 43 -37 64.5t-94 21.5q-62 0 -139.5 -24t-124.5 -48l-47 -24l-72 256q9 5 25 12.5t66.5 27.5t101.5 35.5t123 28t137 12.5q57 0 110.5 -8.5t109.5 -31.5t97.5 -58.5t67.5 -94 t26 -132.5q0 -65 -35.5 -224t-35.5 -202q0 -74 80 -74l38 2l-49 -256q-27 -6 -133 -6q-35 0 -57.5 1t-56.5 5.5t-57.5 14.5t-48 26.5t-41.5 44t-26 64.5h-4q-5 -7 -14.5 -19t-42.5 -42t-69 -53t-93 -42t-116 -19q-126 0 -211.5 72t-85.5 207zM330 313q0 -84 80 -84 q69 0 137.5 67t87.5 136l6 25h-33q-36 0 -77.5 -6t-89.5 -20t-79.5 -45t-31.5 -73zM471 1278q0 96 77 148.5t173 52.5q85 0 145 -40.5t60 -115.5q0 -48 -23.5 -87t-61.5 -61.5t-81 -34.5t-86 -12q-84 0 -143.5 39t-59.5 111zM627 1284q0 -53 57 -53q36 0 62 25t26 63 q0 26 -15.5 41.5t-43.5 15.5q-35 0 -60.5 -26t-25.5 -66z" />
<glyph unicode="&#xe6;" horiz-adv-x="1744" d="M-14 268q0 77 31.5 139.5t86 103t120 70t142 45t142 22.5t129.5 7h41q4 20 4 43q0 54 -36.5 79.5t-96.5 25.5q-76 0 -152 -24t-115 -48l-38 -24l-76 256q9 5 25 12.5t66 27.5t100.5 35.5t122 28t136.5 12.5q180 0 300 -108h4q146 108 313 108q218 0 334.5 -112 t116.5 -301q0 -43 -10 -94.5t-20 -81.5l-9 -31h-662q-2 -11 -2 -21q0 -79 59.5 -128.5t153.5 -49.5q68 0 144.5 27t118.5 53l42 27l90 -254q-8 -6 -22 -15t-59 -33t-92 -42t-116.5 -33t-136.5 -15q-292 0 -438 187h-4q-10 -17 -24 -34.5t-48 -47t-74 -51t-104 -38 t-137 -16.5q-142 0 -246 82t-104 211zM342 313q0 -31 21.5 -49t64.5 -18q67 0 132 59.5t77 126.5l4 25h-33q-27 0 -57 -3t-69 -12t-68.5 -24t-50.5 -42t-21 -63zM1028 655h311q2 25 2 43q0 51 -29.5 83t-82.5 32q-73 0 -124 -43t-77 -115z" />
<glyph unicode="&#xe7;" horiz-adv-x="1179" d="M31 449q0 113 48 224.5t133.5 202.5t217 147t285.5 56q59 0 118 -8t121.5 -29t107.5 -52t68 -83t11 -116l-29 -148h-301l12 57q8 37 -29.5 60.5t-103.5 23.5q-69 0 -128 -29t-95.5 -74.5t-57 -99t-20.5 -106.5q0 -88 56 -147.5t176 -59.5q52 0 105.5 12.5t93 30 t71.5 35.5t49 30l16 13l91 -260q-7 -6 -19.5 -16.5t-57 -37t-94.5 -47t-129 -37t-163 -16.5h-31l-41 -77q71 -5 117.5 -46.5t46.5 -105.5q0 -60 -31 -105.5t-81 -70.5t-104.5 -37t-111.5 -12q-32 0 -66.5 4.5t-52.5 8.5l-18 5l29 154q41 -17 98 -17q17 0 33 2.5t34.5 8.5 t29.5 19t11 32q0 49 -104 49h-51l108 209q-178 43 -273 166t-95 287z" />
<glyph unicode="&#xe8;" horiz-adv-x="1153" d="M35 436q0 181 79 328.5t218 231t311 83.5q218 0 334.5 -112t116.5 -301q0 -43 -10 -93.5t-20 -80.5l-9 -29h-664q-2 -11 -2 -21q0 -79 56.5 -126.5t150.5 -47.5q68 0 146.5 27t122.5 53l44 27l90 -262q-8 -6 -22 -15t-59 -33t-92 -42t-116.5 -33t-136.5 -15 q-131 0 -235.5 37t-169.5 101t-99 146.5t-34 176.5zM350 1464h350l179 -307h-279zM434 657h311q5 29 5 41q0 51 -30 83t-83 32q-72 0 -124 -43.5t-79 -112.5z" />
<glyph unicode="&#xe9;" horiz-adv-x="1153" d="M35 436q0 181 79 328.5t218 231t311 83.5q218 0 334.5 -112t116.5 -301q0 -43 -10 -93.5t-20 -80.5l-9 -29h-664q-2 -11 -2 -21q0 -79 56.5 -126.5t150.5 -47.5q68 0 146.5 27t122.5 53l44 27l90 -262q-8 -6 -22 -15t-59 -33t-92 -42t-116.5 -33t-136.5 -15 q-131 0 -235.5 37t-169.5 101t-99 146.5t-34 176.5zM434 657h311q5 29 5 41q0 51 -30 83t-83 32q-72 0 -124 -43.5t-79 -112.5zM510 1157l297 307h375l-369 -307h-303z" />
<glyph unicode="&#xea;" horiz-adv-x="1153" d="M35 436q0 181 79 328.5t218 231t311 83.5q218 0 334.5 -112t116.5 -301q0 -43 -10 -93.5t-20 -80.5l-9 -29h-664q-2 -11 -2 -21q0 -79 56.5 -126.5t150.5 -47.5q68 0 146.5 27t122.5 53l44 27l90 -262q-8 -6 -22 -15t-59 -33t-92 -42t-116.5 -33t-136.5 -15 q-131 0 -235.5 37t-169.5 101t-99 146.5t-34 176.5zM315 1157l265 307h344l141 -307h-266l-64 168h-4l-129 -168h-287zM434 657h311q5 29 5 41q0 51 -30 83t-83 32q-72 0 -124 -43.5t-79 -112.5z" />
<glyph unicode="&#xeb;" horiz-adv-x="1153" d="M35 436q0 181 79 328.5t218 231t311 83.5q218 0 334.5 -112t116.5 -301q0 -43 -10 -93.5t-20 -80.5l-9 -29h-664q-2 -11 -2 -21q0 -79 56.5 -126.5t150.5 -47.5q68 0 146.5 27t122.5 53l44 27l90 -262q-8 -6 -22 -15t-59 -33t-92 -42t-116.5 -33t-136.5 -15 q-131 0 -235.5 37t-169.5 101t-99 146.5t-34 176.5zM319 1178l58 286h268l-57 -286h-269zM434 657h311q5 29 5 41q0 51 -30 83t-83 32q-72 0 -124 -43.5t-79 -112.5zM821 1178l58 286h268l-57 -286h-269z" />
<glyph unicode="&#xec;" horiz-adv-x="751" d="M88 799l49 256h498l-129 -660q-8 -40 -8 -67q0 -74 80 -74l38 2l-49 -256q-49 -6 -106 -6q-41 0 -70 1.5t-65.5 7t-62 15.5t-52 28t-42.5 43.5t-26 63t-10 85.5q0 60 14 131l84 430h-143zM125 1464h350l178 -307h-278z" />
<glyph unicode="&#xed;" horiz-adv-x="751" d="M88 799l49 256h498l-129 -660q-8 -40 -8 -67q0 -74 80 -74l38 2l-49 -256q-49 -6 -106 -6q-41 0 -70 1.5t-65.5 7t-62 15.5t-52 28t-42.5 43.5t-26 63t-10 85.5q0 60 14 131l84 430h-143zM285 1157l297 307h374l-368 -307h-303z" />
<glyph unicode="&#xee;" horiz-adv-x="751" d="M88 799l49 256h498l-129 -660q-8 -40 -8 -67q0 -74 80 -74l38 2l-49 -256q-49 -6 -106 -6q-41 0 -70 1.5t-65.5 7t-62 15.5t-52 28t-42.5 43.5t-26 63t-10 85.5q0 60 14 131l84 430h-143zM90 1157l264 307h344l142 -307h-267l-63 168h-4l-129 -168h-287z" />
<glyph unicode="&#xef;" horiz-adv-x="751" d="M88 799l49 256h498l-129 -660q-8 -40 -8 -67q0 -74 80 -74l38 2l-49 -256q-49 -6 -106 -6q-41 0 -70 1.5t-65.5 7t-62 15.5t-52 28t-42.5 43.5t-26 63t-10 85.5q0 60 14 131l84 430h-143zM127 1178l57 286h269l-58 -286h-268zM565 1178l58 286h268l-57 -286h-269z" />
<glyph unicode="&#xf0;" horiz-adv-x="1220" d="M25 414q0 100 41.5 196t114.5 171.5t181.5 122t233.5 46.5q36 0 75 -8t60 -16l21 -8h4q-14 36 -54.5 83t-87.5 86l-417 -157l32 160l238 88q-122 64 -205 79l144 254q252 -65 432 -194l360 135l-31 -160l-219 -82q86 -99 137.5 -227.5t51.5 -271.5q0 -74 -15 -153.5 t-45.5 -163t-81.5 -158t-117 -133.5t-159.5 -93.5t-202.5 -34.5q-119 0 -213.5 34.5t-154.5 95t-91.5 139.5t-31.5 170zM383 418q0 -67 32 -107.5t103 -40.5q104 0 173 89t69 192q0 60 -37.5 94.5t-106.5 34.5q-111 0 -172 -78t-61 -184z" />
<glyph unicode="&#xf1;" horiz-adv-x="1433" d="M80 0l147 754q9 45 -37 45h-98l49 256h336q125 0 125 -97q0 -38 -16 -81h4q5 8 15.5 21.5t46 48.5t76.5 61.5t106.5 48.5t136.5 22q137 0 221 -76t84 -221q0 -71 -37 -244.5t-37 -209.5q0 -74 80 -74l39 2l-49 -256q-37 -6 -125 -6q-50 0 -86.5 3.5t-81.5 17.5t-73.5 39 t-48 72t-19.5 112q0 67 34.5 234.5t34.5 197.5q0 88 -100 88q-105 0 -182 -90t-103 -222l-88 -446h-354zM444 1157q30 148 106.5 230.5t188.5 82.5q41 0 73 -12.5t51 -30.5t35 -36t34 -30.5t39 -12.5q69 0 90 116h231q-26 -146 -104 -229.5t-187 -83.5q-40 0 -72.5 12.5 t-52.5 30.5t-36.5 36.5t-35 31t-38.5 12.5q-66 0 -90 -117h-232z" />
<glyph unicode="&#xf2;" horiz-adv-x="1300" d="M33 449q0 135 57 254t151 200.5t216.5 128.5t253.5 47q230 0 378 -130t148 -343q0 -136 -57 -255.5t-151.5 -200.5t-217 -128t-252.5 -47q-229 0 -377.5 130t-148.5 344zM391 465q0 -90 54 -142.5t141 -52.5q113 0 203 88t90 226q0 92 -54 146t-139 54q-111 0 -203 -90.5 t-92 -228.5zM408 1464h350l178 -307h-279z" />
<glyph unicode="&#xf3;" horiz-adv-x="1300" d="M33 449q0 135 57 254t151 200.5t216.5 128.5t253.5 47q230 0 378 -130t148 -343q0 -136 -57 -255.5t-151.5 -200.5t-217 -128t-252.5 -47q-229 0 -377.5 130t-148.5 344zM391 465q0 -90 54 -142.5t141 -52.5q113 0 203 88t90 226q0 92 -54 146t-139 54q-111 0 -203 -90.5 t-92 -228.5zM567 1157l297 307h375l-369 -307h-303z" />
<glyph unicode="&#xf4;" horiz-adv-x="1300" d="M33 449q0 135 57 254t151 200.5t216.5 128.5t253.5 47q230 0 378 -130t148 -343q0 -136 -57 -255.5t-151.5 -200.5t-217 -128t-252.5 -47q-229 0 -377.5 130t-148.5 344zM373 1157l264 307h344l141 -307h-266l-63 168h-5l-129 -168h-286zM391 465q0 -90 54 -142.5 t141 -52.5q113 0 203 88t90 226q0 92 -54 146t-139 54q-111 0 -203 -90.5t-92 -228.5z" />
<glyph unicode="&#xf5;" horiz-adv-x="1300" d="M33 449q0 135 57 254t151 200.5t216.5 128.5t253.5 47q230 0 378 -130t148 -343q0 -136 -57 -255.5t-151.5 -200.5t-217 -128t-252.5 -47q-229 0 -377.5 130t-148.5 344zM362 1157q30 148 106.5 230.5t188.5 82.5q41 0 73 -12.5t51 -30.5t35 -36t34 -30.5t39 -12.5 q69 0 90 116h231q-26 -146 -103.5 -229.5t-186.5 -83.5q-40 0 -72.5 12.5t-52.5 30.5t-37 36.5t-35.5 31t-38.5 12.5q-66 0 -90 -117h-232zM391 465q0 -90 54 -142.5t141 -52.5q113 0 203 88t90 226q0 92 -54 146t-139 54q-111 0 -203 -90.5t-92 -228.5z" />
<glyph unicode="&#xf6;" horiz-adv-x="1300" d="M33 449q0 135 57 254t151 200.5t216.5 128.5t253.5 47q230 0 378 -130t148 -343q0 -136 -57 -255.5t-151.5 -200.5t-217 -128t-252.5 -47q-229 0 -377.5 130t-148.5 344zM377 1178l57 286h268l-57 -286h-268zM391 465q0 -90 54 -142.5t141 -52.5q113 0 203 88t90 226 q0 92 -54 146t-139 54q-111 0 -203 -90.5t-92 -228.5zM879 1178l57 286h268l-57 -286h-268z" />
<glyph unicode="&#xf7;" d="M82 455v266h1118v-266h-1118zM492 0v276h299v-276h-299zM492 901v277h299v-277h-299z" />
<glyph unicode="&#xf8;" horiz-adv-x="1300" d="M33 449q0 135 56.5 254.5t148.5 200.5t210.5 128t241.5 47q168 0 303 -69l123 131l115 -94l-119 -127q125 -135 125 -314q0 -135 -56.5 -255t-149 -201t-210.5 -128t-241 -47q-155 0 -289 62l-127 -135l-115 96l117 125q-133 136 -133 326zM391 465q0 -27 19 -82l358 383 q-41 18 -82 18q-111 0 -203 -90.5t-92 -228.5zM518 281q49 -11 68 -11q113 0 203 88t90 226q0 14 -7.5 40.5t-7.5 28.5z" />
<glyph unicode="&#xf9;" horiz-adv-x="1437" d="M82 799l51 256h498l-121 -619q-8 -46 -8 -59q0 -90 92 -90q69 0 130 47t98.5 114t51.5 140l41 211h-143l51 256h498l-129 -660q-8 -40 -8 -67q0 -74 80 -74l39 2l-50 -256q-49 -6 -137 -6q-37 0 -60 1.5t-58.5 6.5t-59 18t-48 33t-39 54.5t-20.5 80.5h-4 q-149 -213 -381 -213q-136 0 -224.5 74t-88.5 219q0 56 12 117l80 414h-143zM430 1464h350l178 -307h-278z" />
<glyph unicode="&#xfa;" horiz-adv-x="1437" d="M82 799l51 256h498l-121 -619q-8 -46 -8 -59q0 -90 92 -90q69 0 130 47t98.5 114t51.5 140l41 211h-143l51 256h498l-129 -660q-8 -40 -8 -67q0 -74 80 -74l39 2l-50 -256q-49 -6 -137 -6q-37 0 -60 1.5t-58.5 6.5t-59 18t-48 33t-39 54.5t-20.5 80.5h-4 q-149 -213 -381 -213q-136 0 -224.5 74t-88.5 219q0 56 12 117l80 414h-143zM590 1157l297 307h375l-369 -307h-303z" />
<glyph unicode="&#xfb;" horiz-adv-x="1437" d="M82 799l51 256h498l-121 -619q-8 -46 -8 -59q0 -90 92 -90q69 0 130 47t98.5 114t51.5 140l41 211h-143l51 256h498l-129 -660q-8 -40 -8 -67q0 -74 80 -74l39 2l-50 -256q-49 -6 -137 -6q-37 0 -60 1.5t-58.5 6.5t-59 18t-48 33t-39 54.5t-20.5 80.5h-4 q-149 -213 -381 -213q-136 0 -224.5 74t-88.5 219q0 56 12 117l80 414h-143zM395 1157l264 307h345l141 -307h-266l-64 168h-4l-129 -168h-287z" />
<glyph unicode="&#xfc;" horiz-adv-x="1437" d="M82 799l51 256h498l-121 -619q-8 -46 -8 -59q0 -90 92 -90q69 0 130 47t98.5 114t51.5 140l41 211h-143l51 256h498l-129 -660q-8 -40 -8 -67q0 -74 80 -74l39 2l-50 -256q-49 -6 -137 -6q-37 0 -60 1.5t-58.5 6.5t-59 18t-48 33t-39 54.5t-20.5 80.5h-4 q-149 -213 -381 -213q-136 0 -224.5 74t-88.5 219q0 56 12 117l80 414h-143zM399 1178l58 286h268l-57 -286h-269zM901 1178l57 286h269l-58 -286h-268z" />
<glyph unicode="&#xfd;" horiz-adv-x="1286" d="M-164 -344l152 244q6 -5 18 -12.5t55 -20t93 -12.5q137 0 190 86l6 10l-182 848h-119l49 256h570l-50 -256h-102l53 -391q3 -33 3 -63.5t-2 -52.5l-3 -22h8q25 75 60 138l201 391h-97l49 256h558l-50 -256h-108l-514 -891q-109 -186 -239 -262t-288 -76q-56 0 -108.5 9 t-87.5 21.5t-62.5 25t-40.5 21.5zM549 1157l297 307h375l-369 -307h-303z" />
<glyph unicode="&#xfe;" horiz-adv-x="1320" d="M-51 -410l315 1618h-147l49 256h498l-84 -426q-3 -16 -7.5 -32.5t-8.5 -25.5l-3 -9h4q53 52 128 80t153 28q189 0 298 -124t109 -334q0 -139 -49.5 -261.5t-130.5 -205.5t-185 -131t-212 -48q-76 0 -153 28.5t-124 82.5h-4q-4 -37 -14 -90l-80 -406h-352zM467 455 q0 -82 41 -134.5t123 -52.5q100 0 182 90t82 236q0 86 -44 136t-120 50q-42 0 -87.5 -22.5t-85.5 -62t-65.5 -103t-25.5 -137.5z" />
<glyph unicode="&#xff;" horiz-adv-x="1286" d="M-164 -344l152 244q6 -5 18 -12.5t55 -20t93 -12.5q137 0 190 86l6 10l-182 848h-119l49 256h570l-50 -256h-102l53 -391q3 -33 3 -63.5t-2 -52.5l-3 -22h8q25 75 60 138l201 391h-97l49 256h558l-50 -256h-108l-514 -891q-109 -186 -239 -262t-288 -76q-56 0 -108.5 9 t-87.5 21.5t-62.5 25t-40.5 21.5zM358 1178l58 286h268l-57 -286h-269zM860 1178l58 286h268l-58 -286h-268z" />
<glyph unicode="&#x152;" horiz-adv-x="2086" d="M86 627q0 170 75 329.5t196 273.5t279.5 182.5t321.5 68.5q99 0 192.5 -8.5t145.5 -8.5h832l-84 -432h-287l29 146h-301l-60 -299h418l-55 -285h-418l-59 -307h325l29 145h287l-84 -432h-826q-39 0 -118.5 -8t-155.5 -8q-147 0 -274.5 48.5t-216.5 133.5t-140 204.5 t-51 256.5zM459 641q0 -159 93.5 -260.5t244.5 -101.5q40 0 77.5 3.5t55.5 7.5l18 3l168 878q-53 15 -143 15q-97 0 -190.5 -43.5t-165 -116.5t-115 -174.5t-43.5 -210.5z" />
<glyph unicode="&#x153;" horiz-adv-x="1988" d="M33 449q0 180 91.5 326t241 225t324.5 79q244 0 395 -164h5q164 164 389 164q218 0 334 -112t116 -301q0 -43 -9.5 -94.5t-19.5 -81.5l-10 -31h-663q-2 -11 -2 -21q0 -75 57 -121.5t150 -46.5q68 0 146.5 27t122.5 53l44 27l90 -264q-8 -6 -22 -15t-59 -33t-92 -42 t-116.5 -33t-136.5 -15q-264 0 -408 170h-4q-88 -82 -197 -126t-220 -44q-241 0 -394 130t-153 344zM391 465q0 -90 54 -142.5t141 -52.5q113 0 203 88t90 226q0 92 -54 146t-139 54q-122 0 -208.5 -89t-86.5 -230zM1272 662h311q2 24 2 36q0 51 -29.5 83t-82.5 32 q-72 0 -123 -41.5t-78 -109.5z" />
<glyph unicode="&#x178;" horiz-adv-x="1374" d="M135 1198l51 266h592l-51 -266h-123l96 -270l19 -72h4q16 31 47 72l203 270h-123l51 266h619l-52 -266h-125l-475 -598l-65 -334h164l-52 -266h-694l51 266h164l66 334l-242 598h-125zM498 1579l57 287h268l-57 -287h-268zM999 1579l58 287h268l-57 -287h-269z" />
<glyph unicode="&#x2c6;" horiz-adv-x="995" d="M-29 1559l265 307h344l141 -307h-266l-64 167h-4l-129 -167h-287z" />
<glyph unicode="&#x2dc;" horiz-adv-x="993" d="M-47 1559q30 148 106.5 230.5t188.5 82.5q41 0 72.5 -12.5t51 -31t35.5 -36.5t33.5 -30.5t38.5 -12.5q69 0 90 117h232q-26 -146 -104 -230t-187 -84q-40 0 -72.5 12.5t-52.5 31t-37 36.5t-35.5 30.5t-38.5 12.5q-66 0 -90 -116h-231z" />
<glyph unicode="&#x2000;" horiz-adv-x="940" />
<glyph unicode="&#x2001;" horiz-adv-x="1880" />
<glyph unicode="&#x2002;" horiz-adv-x="940" />
<glyph unicode="&#x2003;" horiz-adv-x="1880" />
<glyph unicode="&#x2004;" horiz-adv-x="626" />
<glyph unicode="&#x2005;" horiz-adv-x="470" />
<glyph unicode="&#x2006;" horiz-adv-x="313" />
<glyph unicode="&#x2007;" horiz-adv-x="313" />
<glyph unicode="&#x2008;" horiz-adv-x="235" />
<glyph unicode="&#x2009;" horiz-adv-x="376" />
<glyph unicode="&#x200a;" horiz-adv-x="104" />
<glyph unicode="&#x2010;" horiz-adv-x="929" d="M109 434l59 307h643l-59 -307h-643z" />
<glyph unicode="&#x2011;" horiz-adv-x="929" d="M109 434l59 307h643l-59 -307h-643z" />
<glyph unicode="&#x2012;" horiz-adv-x="929" d="M109 434l59 307h643l-59 -307h-643z" />
<glyph unicode="&#x2013;" horiz-adv-x="1517" d="M117 455l51 266h1221l-52 -266h-1220z" />
<glyph unicode="&#x2014;" horiz-adv-x="1927" d="M117 455l51 266h1630l-51 -266h-1630z" />
<glyph unicode="&#x2018;" horiz-adv-x="555" d="M135 973l283 522h252l-211 -522h-324z" />
<glyph unicode="&#x2019;" horiz-adv-x="540" d="M147 973l211 522h324l-283 -522h-252z" />
<glyph unicode="&#x201a;" horiz-adv-x="583" d="M-98 -182l211 522h323l-282 -522h-252z" />
<glyph unicode="&#x201c;" horiz-adv-x="960" d="M135 973l283 522h252l-211 -522h-324zM541 973l282 522h252l-211 -522h-323z" />
<glyph unicode="&#x201d;" horiz-adv-x="946" d="M147 973l211 522h324l-283 -522h-252zM553 973l211 522h323l-282 -522h-252z" />
<glyph unicode="&#x201e;" horiz-adv-x="989" d="M-98 -182l211 522h323l-282 -522h-252zM307 -182l211 522h324l-283 -522h-252z" />
<glyph unicode="&#x2022;" horiz-adv-x="958" d="M96 596q0 158 111.5 269.5t269.5 111.5t269.5 -111.5t111.5 -269.5t-111.5 -269.5t-269.5 -111.5t-269.5 111.5t-111.5 269.5z" />
<glyph unicode="&#x2026;" horiz-adv-x="1900" d="M10 0l64 336h323l-63 -336h-324zM674 0l63 336h324l-64 -336h-323zM1337 0l64 336h323l-63 -336h-324z" />
<glyph unicode="&#x202f;" horiz-adv-x="376" />
<glyph unicode="&#x2039;" horiz-adv-x="794" d="M53 578l391 421h336l-413 -436l266 -405h-314z" />
<glyph unicode="&#x203a;" horiz-adv-x="796" d="M6 158l414 436l-266 405h313l266 -419l-391 -422h-336z" />
<glyph unicode="&#x205f;" horiz-adv-x="470" />
<glyph unicode="&#x20ac;" horiz-adv-x="1263" d="M47 475l39 187h113q3 44 20 139h-106l39 186h129q107 227 309.5 364.5t451.5 137.5q71 0 143.5 -11.5t108.5 -22.5l37 -11l-137 -287q-84 21 -162 21q-222 0 -350 -191h444l-79 -186h-453q-23 -76 -23 -139h424l-80 -187h-311q31 -89 103 -135.5t178 -46.5q44 0 93.5 7.5 t77.5 15.5l27 8v-314q-94 -35 -233 -35q-243 0 -418 135.5t-219 364.5h-166z" />
<glyph unicode="&#x2122;" horiz-adv-x="2174" d="M199 1241v223h835v-223h-286v-692h-259v692h-290zM1073 549l72 915h241l150 -358l27 -90h4q14 59 26 90l150 358h242l67 -915h-260l-20 356l2 66h-5l-104 -256h-201l-104 256h-4l2 -66l-25 -356h-260z" />
<glyph unicode="&#x25fc;" horiz-adv-x="1054" d="M0 0v1055h1055v-1055h-1055z" />
</font>
</defs>
</svg>
