<?xml version="1.0" standalone="no"?>
<!DOCTYPE svg PUBLIC "-//W3C//DTD SVG 1.1//EN" "http://www.w3.org/Graphics/SVG/1.1/DTD/svg11.dtd" >
<svg xmlns="http://www.w3.org/2000/svg">
<metadata></metadata>
<defs>
<font id="museo_slab700_italic" horiz-adv-x="1159" >
<font-face units-per-em="2048" ascent="1536" descent="-512" />
<missing-glyph horiz-adv-x="512" />
<glyph unicode="&#xfb01;" horiz-adv-x="1368" d="M104 0l166 850h-161l36 194h162l8 43q19 97 64 170.5t97 113.5t116.5 64t113 31t97.5 7q27 0 52.5 -2.5t37.5 -4.5l12 -2l-43 -209q-26 7 -67 7q-185 0 -220 -168l-10 -50h676l-139 -706q-6 -30 -6 -64q0 -84 86 -84l45 5l-37 -195q-47 -6 -92 -6t-77.5 3t-72 15.5 t-64.5 35t-42 64t-17 99.5q0 29 15 106l104 533h-416l-163 -850h-261zM1014 1223l45 231h264l-47 -231h-262z" />
<glyph unicode="&#xfb02;" horiz-adv-x="1382" d="M104 0l164 850h-159l36 194h160l8 33q19 95 61.5 168t98 119t127.5 75t144.5 40.5t154.5 11.5q105 0 210.5 -15.5t158.5 -30.5l53 -15l-207 -1074q-10 -45 -10 -75q0 -44 22 -61t66 -17l47 2l-41 -207q-45 -6 -92 -6q-43 0 -77 4.5t-71.5 19t-63 38.5t-42 67t-16.5 102 q0 47 12 109l182 944q-62 16 -160 16q-257 0 -297 -213l-8 -35h238l-37 -194h-238l-163 -850h-261z" />
<glyph unicode="&#xfb03;" horiz-adv-x="2068" d="M104 0l164 850h-159l36 194h160l10 43q19 97 64 170.5t97 113.5t116.5 64t113 31t97.5 7q27 0 52.5 -2.5t37.5 -4.5l12 -2l-43 -209q-26 7 -67 7q-185 0 -220 -168l-10 -50h441l8 43q14 71 41.5 129t60.5 97t75.5 69t82 47t84 27.5t78 13.5t67.5 3q26 0 51.5 -2.5 t37.5 -4.5l12 -2l-43 -209q-27 7 -68 7q-182 0 -217 -168l-10 -50h673l-137 -706q-8 -40 -8 -64q0 -84 88 -84l45 5l-39 -195q-47 -6 -90 -6q-45 0 -77.5 3t-71.5 15.5t-64 35t-42 64t-17 99.5q0 45 12 106l104 533h-413l-166 -850h-260l166 850h-441l-163 -850h-261z M1712 1223l47 231h262l-45 -231h-264z" />
<glyph unicode="&#xfb04;" horiz-adv-x="2080" d="M104 0l164 850h-159l36 194h160l10 43q19 97 64 170.5t97 113.5t116.5 64t113 31t97.5 7q27 0 52.5 -2.5t37.5 -4.5l12 -2l-43 -209q-26 7 -67 7q-185 0 -220 -168l-10 -50h441l6 33q19 95 61.5 168t97.5 119t127 75t144.5 40.5t154.5 11.5q105 0 211 -15.5t160 -30.5 l53 -15l-209 -1074q-8 -54 -8 -75q0 -45 21.5 -61.5t64.5 -16.5l49 2l-43 -207q-43 -6 -90 -6q-43 0 -77 4.5t-72 19t-63.5 38.5t-42.5 67t-17 102q0 47 12 109l185 944q-62 16 -162 16q-255 0 -297 -213l-6 -35h235l-37 -194h-235l-166 -850h-260l166 850h-441l-163 -850 h-261z" />
<glyph horiz-adv-x="0" />
<glyph horiz-adv-x="682" />
<glyph unicode=" "  horiz-adv-x="512" />
<glyph unicode="&#x09;" horiz-adv-x="512" />
<glyph unicode="&#xa0;" horiz-adv-x="512" />
<glyph unicode="!" horiz-adv-x="550" d="M31 0l49 244h252l-49 -244h-252zM123 420l180 1034h270l-223 -1034h-227z" />
<glyph unicode="&#x22;" horiz-adv-x="765" d="M201 1024l90 457h192l-88 -457h-194zM530 1024l88 457h193l-88 -457h-193z" />
<glyph unicode="#" horiz-adv-x="1460" d="M37 383l65 186h240l107 287h-236l68 188h235l152 410h213l-152 -410h281l151 410h213l-151 -410h241l-67 -188h-242l-106 -287h239l-67 -186h-240l-141 -383h-213l141 383h-281l-141 -383h-213l141 383h-237zM555 569h281l106 287h-280z" />
<glyph unicode="$" horiz-adv-x="1134" d="M4 203l150 170q5 -5 15.5 -14.5t43.5 -32.5t68 -41t87.5 -32.5t104.5 -14.5q106 0 192.5 52.5t86.5 137.5q0 48 -31.5 86.5t-82 67t-111.5 57t-122 62.5t-111.5 75t-82 104t-31.5 142q0 114 63 207t169 148t235 67l39 217h176l-39 -223q62 -8 119 -26t93.5 -38t64 -39 t39.5 -31l12 -12l-137 -184q-5 4 -15 11.5t-42 26.5t-65 33t-82 26t-97 12q-109 0 -189 -53t-80 -134q0 -46 32 -84t82.5 -66t112 -55.5t123 -61t112 -74t82.5 -103t32 -140.5q0 -113 -61.5 -209.5t-172.5 -158t-249 -70.5l-37 -215h-176l38 225q-71 10 -134 33t-102.5 48.5 t-68.5 49t-41 39.5z" />
<glyph unicode="%" horiz-adv-x="1656" d="M39 0l1372 1454h252l-1372 -1454h-252zM186 1120q0 137 116 248t263 111q132 0 216.5 -82.5t84.5 -208.5q0 -139 -117.5 -248t-261.5 -109q-134 0 -217.5 80.5t-83.5 208.5zM387 1128q0 -47 32.5 -77.5t86.5 -30.5q63 0 111.5 47.5t48.5 112.5q0 48 -33 79t-86 31 q-61 0 -110.5 -49t-49.5 -113zM838 262q0 138 115 248.5t261 110.5q134 0 219 -82.5t85 -208.5q0 -139 -117.5 -247t-261.5 -108q-134 0 -217.5 80t-83.5 207zM1038 272q0 -48 32 -78t87 -30q63 0 111.5 47.5t48.5 112.5q0 47 -33 78.5t-86 31.5q-62 0 -111 -49.5 t-49 -112.5z" />
<glyph unicode="&#x26;" horiz-adv-x="1370" d="M49 373q0 132 94 249t238 156v4q-6 2 -15 7t-32.5 25t-41.5 45t-33 69.5t-15 97.5q0 109 45 197t119 143t165.5 84t188.5 29q50 0 101.5 -8.5t77.5 -16.5l26 -8l-99 -201q-47 10 -98 10q-105 0 -183.5 -63.5t-78.5 -173.5q0 -68 42.5 -112t143.5 -44h234l37 197h260 l-39 -197h188l-43 -213h-188l-33 -180q-49 -247 -198 -370.5t-382 -123.5q-225 0 -353 110.5t-128 287.5zM326 395q0 -84 57 -135t156 -51q124 0 206.5 70.5t108.5 203.5l31 166h-246q-58 0 -112.5 -15.5t-100 -45t-73 -80t-27.5 -113.5z" />
<glyph unicode="'" horiz-adv-x="442" d="M201 1024l90 457h196l-88 -457h-198z" />
<glyph unicode="(" horiz-adv-x="684" d="M121 360q0 665 428 1158h229q-430 -531 -430 -1164q0 -293 96 -549h-213q-110 270 -110 555z" />
<glyph unicode=")" horiz-adv-x="688" d="M-72 -195q428 532 428 1164q0 298 -94 549h211q113 -266 113 -555q0 -666 -430 -1158h-228z" />
<glyph unicode="*" horiz-adv-x="999" d="M168 1069l113 217l227 -100l35 268h235l-71 -268l268 100l31 -223l-279 -70l-2 -4l129 -198l-201 -136l-102 228h-4l-182 -226l-170 140l211 209l2 4z" />
<glyph unicode="+" horiz-adv-x="1267" d="M61 483l37 203h445l94 485h211l-94 -485h442l-39 -203h-442l-94 -483h-211l94 483h-443z" />
<glyph unicode="," horiz-adv-x="577" d="M-123 -244l244 508h264l-305 -508h-203z" />
<glyph unicode="-" horiz-adv-x="954" d="M141 471l43 227h617l-43 -227h-617z" />
<glyph unicode="." horiz-adv-x="550" d="M31 0l49 262h260l-49 -262h-260z" />
<glyph unicode="/" horiz-adv-x="915" d="M-57 -86l833 1614h240l-836 -1614h-237z" />
<glyph unicode="0" horiz-adv-x="1290" d="M113 467q0 83 10 173t34 189.5t59 191.5t89 176t120 146t156.5 99t194.5 37q449 0 449 -490q0 -83 -10.5 -173t-34 -190t-59 -192t-89.5 -176.5t-120.5 -146.5t-156.5 -99t-194 -37q-448 0 -448 492zM383 475q0 -264 184 -264q78 0 144.5 54.5t109.5 138.5t73.5 188.5 t44 201.5t13.5 181q0 268 -184 268q-76 0 -141.5 -53t-109 -136.5t-75 -187t-45.5 -203.5t-14 -188z" />
<glyph unicode="1" horiz-adv-x="1036" d="M-6 0l39 215h315l160 807l22 102h-4q-28 -36 -73 -73l-150 -123l-129 174l442 352h232l-242 -1239h314l-43 -215h-883z" />
<glyph unicode="2" horiz-adv-x="1216" d="M2 0q1 105 31.5 198t81 162t115.5 130.5t137 110t144 93.5t137 88t115 86t79.5 95.5t29.5 109.5q0 80 -51.5 125t-136.5 45q-49 0 -98 -18.5t-85 -45t-64.5 -53t-42.5 -44.5l-15 -19l-176 139q8 11 23 30t66 66.5t106.5 84t142 66.5t174.5 30q187 0 313.5 -102.5 t126.5 -272.5q0 -75 -26.5 -145t-72 -126t-104.5 -107.5t-125 -95.5t-133 -85.5t-130 -81.5t-113 -78.5t-85 -82t-44 -87.5h481l37 184h229l-78 -399h-989z" />
<glyph unicode="3" horiz-adv-x="1189" d="M0 166l147 182q5 -6 14.5 -15t41.5 -32.5t66.5 -41.5t86.5 -33t105 -15q131 0 224 79t93 193q0 88 -68.5 138.5t-177.5 50.5l-83 -6l-35 129l385 393q14 14 30.5 27t26.5 19l10 7v4q-49 -6 -84 -6h-303l-35 -172h-229l76 387h915l-35 -186l-421 -424q55 -12 104.5 -35 t97 -62t75.5 -101t28 -140q0 -100 -43 -195.5t-119 -170t-189.5 -120t-244.5 -45.5q-84 0 -162 19.5t-129.5 48t-91 56.5t-58.5 47z" />
<glyph unicode="4" horiz-adv-x="1263" d="M10 375l29 162l799 917h319l-168 -872h187l-39 -207h-189l-74 -375h-260l74 375h-678zM332 582h395l96 485q4 24 12.5 55t15.5 50l7 20h-6q-35 -60 -80 -111l-440 -495v-4z" />
<glyph unicode="5" horiz-adv-x="1181" d="M2 166l150 174l14 -14t39.5 -31t63 -39t83 -31t101.5 -14q134 0 234.5 84.5t100.5 208.5q0 99 -68 154t-181 55q-61 0 -122 -15.5t-91 -31.5l-31 -15l-143 60l217 743h786l-76 -387h-229l35 172h-330l-80 -264l-26 -80h4q72 31 170 31q192 0 316 -114.5t124 -305.5 q0 -108 -50 -207t-133.5 -169.5t-197.5 -112.5t-238 -42q-83 0 -159 19.5t-125.5 48t-87 56.5t-54.5 47z" />
<glyph unicode="6" horiz-adv-x="1251" d="M100 512q0 99 25.5 208t72.5 217t121 206t163.5 173t207 119t246.5 44q84 0 159.5 -16.5t109.5 -32.5l34 -17l-104 -213q-88 43 -207 43q-86 0 -163.5 -33t-136.5 -90t-103 -126t-74 -148h4q46 48 123.5 75t158.5 27q189 0 297.5 -115t108.5 -290q0 -105 -39.5 -206.5 t-109 -182t-176 -130t-230.5 -49.5q-216 0 -352 143t-136 394zM369 496q0 -114 67 -199.5t168 -85.5q116 0 192 93.5t76 221.5q0 93 -56 150t-169 57q-115 0 -196.5 -67.5t-81.5 -169.5z" />
<glyph unicode="7" horiz-adv-x="1142" d="M57 0l807 1169q15 21 30 39t22 26l8 7v4q-40 -6 -93 -6h-401l-33 -172h-229l76 387h1020l-37 -184l-885 -1270h-285z" />
<glyph unicode="8" horiz-adv-x="1253" d="M59 362q0 63 22.5 123.5t53.5 104.5t78 88t81.5 69t78.5 54q-125 100 -125 243q0 80 35 157t99 139.5t163.5 100.5t218.5 38q199 0 318.5 -94t119.5 -252q0 -202 -242 -417q-4 -3 -6 -5q154 -104 154 -269q0 -90 -42.5 -174.5t-116.5 -149t-183 -104t-234 -39.5 q-215 0 -344 108.5t-129 278.5zM332 397q0 -89 59 -140.5t158 -51.5q52 0 102 15.5t92 43.5t67.5 72.5t25.5 97.5q0 32 -14 61t-33.5 49t-54 42t-62 36t-71.5 35t-69 35q-26 -19 -42 -31.5t-50 -45t-54 -61.5t-37 -71.5t-17 -85.5zM508 1049q0 -23 7 -43.5t16 -36.5t29 -34 t33 -28t43.5 -27t44 -24t50.5 -25t49 -24q16 13 37.5 37t51.5 63.5t50.5 91t20.5 99.5q0 71 -49 111t-135 40q-106 0 -177 -57t-71 -143z" />
<glyph unicode="9" horiz-adv-x="1249" d="M63 41l103 213q86 -43 201 -43q86 0 164 33t137 89.5t103.5 126.5t74.5 150h-4q-47 -47 -125.5 -74.5t-159.5 -27.5q-188 0 -296.5 115t-108.5 286q0 84 24.5 166.5t73 155t114 128t154.5 88t189 32.5q216 0 351.5 -144t135.5 -395q0 -84 -18 -176.5t-55 -186 t-88.5 -181.5t-122.5 -164.5t-153 -133.5t-184.5 -90t-212.5 -33q-82 0 -156 16.5t-108 32.5zM422 928q0 -90 56 -146.5t167 -56.5q115 0 198 67t83 166q0 114 -66.5 199.5t-167.5 85.5q-116 0 -193 -93.5t-77 -221.5z" />
<glyph unicode=":" horiz-adv-x="620" d="M59 0l52 262h262l-51 -262h-263zM213 780l51 264h260l-51 -264h-260z" />
<glyph unicode=";" horiz-adv-x="632" d="M-106 -244l239 508h268l-305 -508h-202zM233 780l52 264h254l-52 -264h-254z" />
<glyph unicode="&#x3c;" horiz-adv-x="1267" d="M92 502v168l985 438v-227l-710 -293v-4l710 -293v-228z" />
<glyph unicode="=" horiz-adv-x="1267" d="M125 274v201h1001v-201h-1001zM125 694v201h1001v-201h-1001z" />
<glyph unicode="&#x3e;" horiz-adv-x="1267" d="M186 63v228l709 293v4l-709 293v227l985 -438v-168z" />
<glyph unicode="?" horiz-adv-x="1003" d="M180 0l47 244h252l-47 -244h-252zM205 1352q7 5 20 14t54.5 31.5t84.5 40t107 31.5t125 14q172 0 287.5 -93t115.5 -251q0 -74 -24 -138t-62.5 -110.5t-86 -88t-96.5 -77t-91 -69.5t-73 -74t-40 -82l-16 -80h-250l19 98q12 64 43 120t71 96t86 77t89 69.5t78.5 65.5 t57 72.5t21.5 83.5q0 62 -46.5 101.5t-121.5 39.5q-56 0 -114 -21.5t-89 -43.5l-30 -21z" />
<glyph unicode="@" horiz-adv-x="1660" d="M47 377q0 173 74 334.5t199 281t299 191t364 71.5q121 0 214 -29t149.5 -80t85 -118t28.5 -147q0 -51 -10 -109l-92 -475h149l-37 -186h-540q-187 0 -292.5 95.5t-105.5 237.5q0 81 35.5 156t100 134.5t167 95.5t226.5 36h164q2 17 2 29q0 65 -78 108.5t-195 43.5 q-105 0 -204.5 -37.5t-178.5 -103t-139 -150t-92.5 -183t-32.5 -196.5q0 -126 52 -224t158 -156t251 -58l-39 -199q-301 0 -491.5 176t-190.5 461zM793 457q0 -71 43.5 -115.5t119.5 -44.5h158l78 401h-154q-102 0 -173.5 -73t-71.5 -168z" />
<glyph unicode="A" horiz-adv-x="1490" d="M-92 0l39 201h131l680 1253h303l194 -1253h131l-38 -201h-537l39 201h143l-37 272h-458l-144 -272h144l-41 -201h-549zM600 682h334l-55 412q-4 32 -5 64t0 48v15h-6q-16 -55 -49 -127z" />
<glyph unicode="B" horiz-adv-x="1419" d="M-12 0l39 201h172l207 1050h-177l39 203h625q149 0 250 -37q95 -34 149 -111.5t54 -181.5q0 -117 -64.5 -211.5t-173.5 -146.5v-4q87 -33 131.5 -108t44.5 -179q0 -149 -81 -261.5t-214 -168.5q-112 -45 -274 -45h-727zM471 215h258q104 0 172 47q49 35 81 93.5t32 123.5 q0 79 -46 123.5t-130 44.5h-283zM596 860h256q96 0 159.5 64.5t63.5 160.5q0 87 -55 125q-42 29 -121 29h-229z" />
<glyph unicode="C" horiz-adv-x="1513" d="M104 614q0 174 71 334t189.5 276.5t280.5 185.5t338 69q61 0 129.5 -7.5t146.5 -28t137 -51.5q58 -30 92 -82q24 -38 25 -83q0 -17 -4 -35l-41 -201h-239l20 113q2 10 2 19q0 29 -19 53q-25 30 -71 45t-91.5 21.5t-90.5 6.5q-128 0 -241.5 -54t-190.5 -141t-121.5 -198.5 t-44.5 -226.5q0 -188 105 -306t294 -118q52 0 104.5 8t101.5 24.5t83.5 46t42.5 68.5l21 109h243l-37 -187q-12 -65 -56.5 -118t-104.5 -86t-134.5 -55t-143 -31t-134.5 -9q-295 0 -478.5 177.5t-183.5 461.5z" />
<glyph unicode="D" horiz-adv-x="1601" d="M-12 0l39 201h172l204 1050h-174l39 203h606q192 0 326 -49q166 -61 254 -196t88 -337q0 -261 -140 -485.5t-370 -320.5q-159 -66 -360 -66h-684zM469 215h193q161 0 282 59q149 75 238.5 233.5t89.5 344.5q0 264 -193 350q-86 37 -219 37h-192z" />
<glyph unicode="E" horiz-adv-x="1314" d="M-12 0l39 201h172l207 1050h-177l39 203h1080l-72 -375h-229l30 160h-407l-78 -399h479l-43 -215h-477l-80 -410h436l33 164h229l-73 -379h-1108z" />
<glyph unicode="F" horiz-adv-x="1212" d="M-12 0l39 201h172l207 1050h-177l39 203h1039l-74 -377h-229l28 150h-364l-80 -418h471l-43 -215h-471l-78 -393h192l-38 -201h-633z" />
<glyph unicode="G" horiz-adv-x="1579" d="M104 610q0 175 70.5 335.5t189.5 277.5t285.5 186.5t349.5 69.5q69 0 143.5 -9.5t152 -31.5t136 -53.5t91.5 -82.5q23 -36 23 -78q0 -16 -3 -32l-41 -201h-241l20 107q2 10 2 19q0 30 -20 53q-25 32 -72 48t-96.5 23.5t-98.5 7.5q-134 0 -251 -54.5t-195 -143.5 t-122 -201t-44 -227q0 -188 108 -303t320 -115q52 0 106.5 7.5t110 23.5t94.5 47.5t47 72.5l31 156h-264l39 201h508l-86 -432q-13 -65 -58.5 -118.5t-108 -87.5t-141 -57.5t-154.5 -33t-151 -9.5q-308 0 -494 176t-186 459z" />
<glyph unicode="H" horiz-adv-x="1757" d="M-12 0l39 201h172l204 1050h-174l39 203h619l-39 -203h-176l-82 -420h661l82 420h-176l39 203h619l-39 -203h-174l-207 -1050h176l-39 -201h-619l39 201h174l82 415h-659l-82 -415h174l-39 -201h-614z" />
<glyph unicode="I" horiz-adv-x="829" d="M-12 0l39 201h172l204 1050h-174l39 203h619l-39 -203h-176l-205 -1050h174l-39 -201h-614z" />
<glyph unicode="J" d="M-6 336q0 40 7 84.5t15 69.5l7 24h256q-25 -83 -25 -149q0 -154 147 -154q78 0 140 52t82 163l159 825h-204l38 203h629l-39 -203h-155l-162 -839q-21 -111 -71 -196.5t-118 -137t-145.5 -77.5t-161.5 -26q-79 0 -150 22.5t-127 66t-89 114t-33 158.5z" />
<glyph unicode="K" horiz-adv-x="1464" d="M-12 0l39 201h172l204 1050h-174l39 203h580l-39 -203h-137l-78 -395h154l352 395h-115l39 203h530l-38 -203h-134l-444 -493v-4q36 -25 63 -97l134 -362q20 -55 40.5 -76.5t71.5 -21.5l64 4l-39 -201q-75 -6 -119 -6q-54 0 -96.5 12t-70 29.5t-50 47t-34.5 55t-25 61.5 l-129 374q-23 68 -103 68h-92l-86 -440h168l-39 -201h-608z" />
<glyph unicode="L" horiz-adv-x="1257" d="M-10 0l39 201h174l203 1038h-177l43 215h617l-41 -215h-176l-199 -1024h430l45 225h230l-88 -440h-1100z" />
<glyph unicode="M" horiz-adv-x="1984" d="M-37 0l39 201h170l285 1050h-172l39 203h467l159 -821q6 -32 10 -62t4 -45l1 -14h4q20 49 57 121l483 821h482l-39 -203h-172l-127 -1050h172l-39 -201h-594l39 201h164l88 733q4 23 12 56.5t15 55.5l6 23h-7q-30 -80 -59 -129l-408 -670h-231l-145 670q-4 22 -7 54 t-3 54l-1 21h-6q-8 -84 -20 -135l-197 -733h162l-39 -201h-592z" />
<glyph unicode="N" horiz-adv-x="1736" d="M-12 0l39 201h172l207 1050h-177l39 203h437l432 -946q9 -22 16.5 -51t10.5 -47l3 -19h7q6 76 18 129l143 731h-180l39 203h623l-39 -203h-174l-244 -1251h-262l-436 946q-9 21 -16.5 49.5t-11.5 46.5l-3 19h-6q-5 -76 -15 -129l-143 -731h180l-39 -201h-620z" />
<glyph unicode="O" horiz-adv-x="1681" d="M102 614q0 115 33 226t91.5 206t141 175.5t179 137t208 88.5t224.5 32q141 0 262 -47t204.5 -129.5t131 -198.5t47.5 -250q0 -139 -47 -273t-131 -242t-193.5 -190.5t-241 -128t-266.5 -45.5q-141 0 -261.5 48t-204 132t-130.5 202.5t-47 256.5zM373 629q0 -186 109 -302 t282 -116q86 0 172.5 31.5t160.5 89.5t131.5 134.5t90.5 173t33 198.5q0 181 -108.5 293t-282.5 112q-110 0 -217 -48.5t-188.5 -130t-132 -196.5t-50.5 -239z" />
<glyph unicode="P" horiz-adv-x="1370" d="M-10 0l39 201h174l207 1050h-177l39 203h670q136 0 223 -33q102 -38 165 -134t63 -230q0 -165 -90.5 -303.5t-237.5 -198.5q-100 -39 -246 -39h-284l-64 -315h176l-39 -201h-618zM575 731h238q83 0 150 31q71 36 114 111t43 167q0 123 -78 170q-53 29 -133 29h-235z" />
<glyph unicode="Q" horiz-adv-x="1683" d="M102 614q0 171 73 331.5t191.5 277t276.5 186.5t322 70q295 0 478 -175.5t183 -449.5q0 -333 -252 -594l129 -145l-168 -156l-129 160q-200 -144 -442 -144q-147 0 -271 48t-210 132.5t-133.5 202.5t-47.5 256zM375 629q0 -186 109 -302t282 -116q147 0 285 88l-172 207 l163 151l168 -204q144 174 144 385q0 181 -108.5 293t-282.5 112q-111 0 -218 -48.5t-188.5 -130t-131.5 -196.5t-50 -239z" />
<glyph unicode="R" horiz-adv-x="1464" d="M-10 0l39 201h174l207 1050h-177l39 203h662q164 0 252 -43q86 -40 136 -122.5t50 -201.5q0 -158 -93 -293t-259 -180v-6q41 -43 59 -94l86 -219q20 -54 41 -76t70 -22l61 4l-39 -201q-75 -6 -114 -6q-67 0 -115.5 16.5t-79 49t-47 63t-33.5 76.5l-102 280q-15 44 -42 61 t-77 17h-145l-70 -356h166l-39 -201h-610zM584 772h233q118 0 201.5 78t83.5 203q0 99 -66 149q-52 37 -159 37h-203z" />
<glyph unicode="S" horiz-adv-x="1236" d="M53 319l29 152h244l-23 -109q-3 -13 -3 -25q0 -27 13 -47q19 -30 57.5 -46.5t84 -24.5t96.5 -8q129 0 206 63t77 158q0 52 -34.5 91t-90 65.5t-122.5 51t-133.5 56.5t-122 73t-90 108.5t-34.5 156.5q0 87 31 160.5t84.5 125.5t126.5 88t156.5 53.5t174.5 17.5 q56 0 115 -8t121 -28.5t107.5 -50.5t68.5 -79q15 -31 15 -67q0 -20 -5 -42l-33 -172h-245l20 101q2 10 2 18q0 44 -50 66q-60 26 -148 26q-118 0 -193.5 -51t-75.5 -141q0 -52 34.5 -90.5t90 -64t122 -50t133.5 -56t122.5 -73t90 -111t34.5 -160.5q0 -145 -82.5 -254 t-215 -163t-292.5 -54q-63 0 -128.5 10.5t-133 36t-116.5 63.5t-74 99q-16 39 -16 84q0 24 5 51z" />
<glyph unicode="T" horiz-adv-x="1390" d="M133 1020l84 434h1276l-84 -434h-229l43 219h-275l-203 -1038h175l-39 -201h-617l39 201h174l203 1038h-277l-41 -219h-229z" />
<glyph unicode="U" horiz-adv-x="1660" d="M186 1251l39 203h617l-39 -203h-174l-129 -665q-19 -112 -19 -142q0 -110 71.5 -171.5t199.5 -61.5q160 0 260 90q94 82 121 225l141 725h-174l39 203h616l-39 -203h-174l-145 -739q-26 -140 -93.5 -250.5t-168.5 -177.5q-160 -109 -390 -109q-152 0 -272 49.5t-192 150 t-72 237.5q0 62 22 174l129 665h-174z" />
<glyph unicode="V" horiz-adv-x="1474" d="M145 1251l39 203h559l-38 -203h-152l109 -829q4 -26 4.5 -59t-0.5 -53l-2 -19h6q20 72 51 131l434 829h-154l39 203h576l-39 -203h-133l-686 -1251h-281l-196 1251h-136z" />
<glyph unicode="W" horiz-adv-x="2082" d="M154 1251l39 203h559l-39 -203h-170l26 -829l-6 -127h6q20 68 47 127l474 1032h215l71 -1032q2 -31 1.5 -59t-1.5 -48l-2 -20h8q16 68 41 127l351 829h-170l38 203h576l-39 -203h-133l-555 -1251h-299l-68 918q-2 31 -0.5 60.5t4.5 51.5l2 21h-8q-18 -74 -47 -133 l-422 -918h-301l-65 1251h-133z" />
<glyph unicode="X" horiz-adv-x="1419" d="M-51 0l39 201h127l477 549l-252 501h-137l39 203h538l-39 -203h-143l143 -305l31 -61h4q18 26 49 61l250 305h-133l39 203h535l-39 -203h-129l-476 -546l254 -504h138l-39 -201h-539l39 201h143l-145 305l-29 65h-4q-24 -30 -53 -65l-250 -305h137l-39 -201h-536z" />
<glyph unicode="Y" horiz-adv-x="1347" d="M145 1251l39 203h529l-39 -203h-139l145 -381l18 -65h4q19 30 46 65l296 381h-141l39 203h549l-39 -203h-131l-514 -643l-80 -407h176l-39 -201h-618l39 201h174l80 407l-263 643h-131z" />
<glyph unicode="Z" horiz-adv-x="1323" d="M-6 0l33 170l878 1001q16 18 35 35.5t30 25.5l11 9v4q-43 -6 -84 -6h-426l-43 -219h-229l84 434h1075l-33 -168l-881 -1003q-16 -18 -35 -35.5t-29 -25.5l-11 -9v-4q43 6 84 6h456l45 225h230l-86 -440h-1104z" />
<glyph unicode="[" horiz-adv-x="684" d="M33 -195l334 1713h403l-37 -189h-182l-258 -1335h182l-39 -189h-403z" />
<glyph unicode="\" horiz-adv-x="894" d="M258 1528h213l209 -1614h-213z" />
<glyph unicode="]" horiz-adv-x="684" d="M-68 -195l37 189h183l258 1335h-183l39 189h404l-334 -1713h-404z" />
<glyph unicode="^" horiz-adv-x="1267" d="M14 502l412 952h164l411 -952h-225l-268 678l-268 -678h-226z" />
<glyph unicode="_" horiz-adv-x="1165" d="M-147 -201l36 201h1149l-39 -201h-1146z" />
<glyph unicode="`" horiz-adv-x="1009" d="M186 1829h271l168 -279h-219z" />
<glyph unicode="a" d="M-10 244q0 91 46 163t117.5 115.5t166.5 72t183.5 39.5t178.5 11h37q12 57 12 86q0 62 -42.5 95.5t-123.5 33.5q-68 0 -146 -24t-121 -48l-44 -24l-59 192q8 5 22.5 12.5t60 27t92 34.5t114 27t130.5 12q73 0 137 -16.5t119 -51t87 -96.5t32 -145q0 -64 -43 -254.5 t-43 -231.5q0 -84 88 -84l45 5l-37 -195q-32 -6 -108 -6q-225 0 -244 176h-4q2 0 -13.5 -20t-46 -48.5t-71.5 -57.5t-100.5 -49t-122.5 -20q-127 0 -213 70.5t-86 198.5zM248 287q0 -55 32 -87t97 -32q99 0 187.5 91.5t115.5 195.5l8 32h-45q-36 0 -71.5 -2.5t-83.5 -9 t-88 -21t-75.5 -35.5t-56 -55t-20.5 -77z" />
<glyph unicode="b" horiz-adv-x="1280" d="M45 0l244 1260h-162l39 194h420l-86 -442q-4 -23 -10.5 -46.5t-10.5 -35.5l-4 -12h4q54 68 141.5 109.5t178.5 41.5q186 0 290.5 -118.5t104.5 -321.5q0 -141 -48.5 -265t-128.5 -208t-183 -132.5t-211 -48.5q-100 0 -183.5 42.5t-124.5 123.5h-4q-2 -34 -10 -73l-12 -68 h-244zM387 426q0 -101 52.5 -166t154.5 -65q59 0 118.5 28.5t108 80t79 132t30.5 174.5q0 109 -55.5 172.5t-151.5 63.5q-131 0 -233.5 -124t-102.5 -296z" />
<glyph unicode="c" horiz-adv-x="1157" d="M47 438q0 120 50.5 234.5t138 202t213.5 141t268 53.5q52 0 106.5 -7.5t111 -27t97.5 -48t63 -74.5q15 -31 15 -68q0 -18 -4 -37l-27 -131h-223l12 65q1 7 1 13q0 42 -46 66q-53 28 -129 28q-103 0 -192 -55.5t-140 -145.5t-51 -190q0 -117 73 -189.5t208 -72.5 q56 0 112 13.5t96.5 32.5t72.5 38.5t49 32.5l16 14l70 -197q-7 -6 -19 -16.5t-55 -37t-91 -47t-123.5 -37t-154.5 -16.5q-241 0 -379.5 129.5t-138.5 333.5z" />
<glyph unicode="d" horiz-adv-x="1333" d="M51 412q0 143 48 267t127.5 208.5t185 133t219.5 48.5q93 0 171.5 -36t115.5 -113h4q2 32 8 63l53 277h-162l39 194h420l-215 -1116q-8 -40 -8 -64q0 -84 88 -84l45 5l-39 -195q-43 -6 -96 -6q-55 0 -95.5 7.5t-76.5 26t-56 54t-24 88.5h-4q-56 -85 -151.5 -140 t-198.5 -55q-188 0 -293 117.5t-105 319.5zM315 430q0 -109 55 -172t152 -63q86 0 163.5 57.5t124 154.5t46.5 205q0 102 -52.5 168t-154.5 66q-59 0 -117.5 -29t-107 -81t-79 -132t-30.5 -174z" />
<glyph unicode="e" horiz-adv-x="1142" d="M49 424q0 175 78 323t218 235t310 87q203 0 309.5 -107.5t106.5 -287.5q0 -40 -8.5 -87.5t-17.5 -74.5l-9 -27h-719q-6 -24 -6 -53q0 -105 70 -171t192 -66q47 0 97.5 11.5t89.5 28.5t71 34t49 29l17 11l70 -196q-7 -6 -21 -15t-57.5 -33t-88.5 -42t-112 -33t-131 -15 q-237 0 -372.5 126.5t-135.5 322.5zM352 639h459q4 32 4 57q0 81 -45 126.5t-121 45.5q-98 0 -178.5 -62t-118.5 -167z" />
<glyph unicode="f" horiz-adv-x="753" d="M104 0l164 850h-159l36 194h160l10 43q19 97 64 170.5t97 113.5t116.5 64t113 31t97.5 7q27 0 52.5 -2.5t37.5 -4.5l12 -2l-43 -209q-26 7 -67 7q-185 0 -220 -168l-10 -50h238l-37 -194h-238l-163 -850h-261z" />
<glyph unicode="g" horiz-adv-x="1304" d="M-4 -332l104 182q4 -3 12.5 -7.5t36.5 -16t58.5 -20.5t78 -16t95.5 -7q293 0 350 283q6 30 13 55.5t10 36.5l4 10h-2q-120 -148 -297 -148q-191 0 -296.5 119t-105.5 310q0 88 23 176t70 168t112 141.5t155 98t193 36.5q73 0 133.5 -17t96 -43.5t56 -52t26.5 -47.5h4 q-2 12 4 37q7 42 41.5 70t93.5 28h262l-39 -194h-98q-47 0 -53 -41l-148 -756q-21 -104 -65.5 -187.5t-102.5 -137.5t-130 -90.5t-146 -52t-152 -15.5q-217 0 -397 98zM322 469q0 -106 53 -167.5t155 -61.5q75 0 136.5 39t99 100.5t58 132t20.5 139.5q0 197 -211 197 q-141 0 -226 -113t-85 -266z" />
<glyph unicode="h" horiz-adv-x="1339" d="M45 0l244 1260h-156l37 194h418l-99 -512q-4 -22 -10.5 -44.5t-10.5 -33.5l-5 -12h4q9 19 38 50.5t78.5 71t125.5 67.5t159 28q138 0 218.5 -73t80.5 -210q0 -69 -42 -273.5t-42 -238.5q0 -47 22 -65.5t66 -18.5l43 5l-36 -195q-40 -6 -103 -6q-40 0 -70.5 3t-68 16 t-62.5 35t-42 63t-17 98t41 255.5t41 242.5q0 60 -33.5 92t-99.5 32q-135 0 -237 -108t-132 -264l-90 -459h-260z" />
<glyph unicode="i" horiz-adv-x="692" d="M100 850l39 194h420l-137 -706q-8 -40 -8 -64q0 -84 88 -84l45 5l-37 -195q-47 -6 -92 -6t-77.5 3t-72 15.5t-64.5 35t-42 64t-17 99.5q0 39 13 106l104 533h-162zM334 1223l45 231h262l-45 -231h-262z" />
<glyph unicode="j" horiz-adv-x="645" d="M-231 -418l41 203q18 -2 45 -2t51.5 3t57 15t58 31.5t47.5 55.5t31 85l168 877h-162l37 194h422l-205 -1060q-19 -100 -64 -177t-96.5 -119.5t-115 -69t-112.5 -34.5t-97 -8q-28 0 -54.5 1.5t-38.5 2.5zM340 1223l45 231h262l-45 -231h-262z" />
<glyph unicode="k" horiz-adv-x="1191" d="M45 0l246 1260h-162l37 194h422l-158 -807h119l219 203h-121l39 194h494l-39 -194h-113l-301 -285v-4q30 -25 57 -88l90 -199q17 -41 41 -61t70 -20l57 2l-36 -195q-69 -6 -107 -6q-65 0 -109.5 12t-73.5 44t-40 51.5t-33 71.5q-4 9 -6 13l-94 217q-23 54 -78 54h-72 l-90 -457h-258z" />
<glyph unicode="l" horiz-adv-x="634" d="M88 223q0 47 12 109l181 928h-162l39 194h420l-211 -1098q-11 -50 -11 -75q0 -44 22 -61t66 -17l48 2l-41 -207q-44 -6 -91 -6q-43 0 -77 4.5t-72 19t-63.5 38.5t-42.5 67t-17 102z" />
<glyph unicode="m" horiz-adv-x="2017" d="M104 0l158 807q1 5 1 10q0 33 -38 33h-116l36 194h275q117 0 117 -90q0 -49 -25 -118h4q13 24 46.5 60t83.5 76.5t120.5 68.5t140.5 28q110 0 177 -61t77 -177h4q64 105 166.5 171.5t224.5 66.5q131 0 209 -74.5t78 -210.5q0 -66 -42 -269.5t-42 -240.5q0 -47 21.5 -65.5 t64.5 -18.5l45 5l-37 -195q-39 -6 -102 -6q-40 0 -70.5 3t-68 16t-62.5 35t-42 63t-17 98q0 54 41 257t41 245q0 60 -27.5 90t-95.5 30q-81 0 -151 -54t-114 -137t-63 -181l-88 -459h-260l121 623q12 70 12 96q0 54 -27 83t-92 29q-85 0 -157.5 -58.5t-116.5 -144 t-63 -184.5l-86 -444h-261z" />
<glyph unicode="n" horiz-adv-x="1398" d="M104 0l158 805q1 6 1 12q0 33 -38 33h-116l36 194h275q117 0 117 -92q0 -19 -7.5 -56t-17.5 -60h4q7 15 25.5 39.5t56 59t83 64t112.5 50t139 20.5q135 0 214 -73t79 -210q0 -70 -42 -273t-42 -239q0 -47 22.5 -65.5t65.5 -18.5l45 5l-37 -195q-38 -6 -104 -6 q-39 0 -69.5 3t-68 16t-62.5 35t-42 63t-17 98t40 255.5t40 242.5q0 124 -133 124q-131 0 -234 -109t-132 -263l-90 -459h-261z" />
<glyph unicode="o" horiz-adv-x="1288" d="M47 438q0 132 55.5 250.5t147 201t212.5 131t249 48.5q218 0 356.5 -128t138.5 -333q0 -178 -95 -325t-246.5 -227.5t-321.5 -80.5q-217 0 -356.5 128t-139.5 335zM311 451q0 -116 70 -185t182 -69q70 0 138 29.5t121.5 80.5t86.5 126t33 159q0 115 -70.5 185.5 t-181.5 70.5q-93 0 -180 -50.5t-143 -143.5t-56 -203z" />
<glyph unicode="p" horiz-adv-x="1339" d="M25 -410l235 1215q1 6 1 12q0 33 -36 33h-116l36 194h269q112 0 112 -79q0 -30 -18 -78h4q59 83 149.5 132.5t196.5 49.5q186 0 290.5 -118.5t104.5 -321.5q0 -141 -48.5 -265t-128 -208t-182.5 -132.5t-210 -48.5q-97 0 -175.5 39t-121.5 115h-4q-2 -41 -12 -94 l-86 -445h-260zM449 430q0 -103 51.5 -169t152.5 -66q60 0 119.5 28.5t108 80t78.5 132t30 174.5q0 110 -54.5 173t-152.5 63q-84 0 -161 -56t-124.5 -153t-47.5 -207z" />
<glyph unicode="q" horiz-adv-x="1280" d="M51 410q0 143 48 268t128 209.5t185.5 133t218.5 48.5q106 0 184 -41t117 -121h4v11q0 24 6 57l14 69h244l-246 -1265h162l-37 -189h-422l88 451q4 24 10.5 47t10.5 34l4 11h-4q-46 -63 -128.5 -110.5t-188.5 -47.5q-187 0 -292.5 117.5t-105.5 317.5zM315 430 q0 -109 55 -172t152 -63q86 0 163.5 57.5t124 154.5t46.5 205q0 102 -51.5 168t-153.5 66q-59 0 -118.5 -29t-108 -81t-79 -132t-30.5 -174z" />
<glyph unicode="r" horiz-adv-x="882" d="M104 0l156 805q1 7 1 13q0 32 -38 32h-117l39 194h273q61 0 90 -22.5t29 -69.5q0 -22 -11.5 -76t-23.5 -88h4q56 115 156.5 193t214.5 78q17 0 38.5 -2t22.5 -2l-51 -256q-2 0 -10.5 1t-23 2t-28.5 1q-123 0 -239 -119.5t-150 -302.5l-71 -381h-261z" />
<glyph unicode="s" horiz-adv-x="1019" d="M2 246l21 102h221l-11 -53q-7 -35 11 -60t53.5 -36.5t68 -16t66.5 -4.5q90 0 143.5 33.5t53.5 87.5q0 35 -27 61t-70 44.5t-95.5 36.5t-105 42t-95.5 55t-70 82t-27 117q0 82 40 147t106.5 104.5t148.5 60t172 20.5q69 0 133 -14t116.5 -41t78.5 -74q19 -33 19 -72 q0 -16 -3 -34l-22 -115h-223l10 61q4 25 -8.5 43t-36.5 26t-47.5 11.5t-49.5 3.5q-80 0 -130 -28.5t-50 -81.5q0 -32 21 -56.5t55.5 -40t79 -32.5t90.5 -31t90.5 -38t79 -52t55.5 -73.5t21 -102.5q0 -159 -136.5 -256t-351.5 -97q-56 0 -113 8.5t-113.5 29t-97.5 51 t-61 77.5q-13 31 -14 66q0 19 4 39z" />
<glyph unicode="t" horiz-adv-x="778" d="M84 850l39 194h168l55 285h250l-55 -285h239l-37 -194h-239l-84 -438q-6 -37 -6 -70q0 -141 164 -141l57 4l-41 -209q-41 -6 -76 -6q-75 0 -138 16t-117 50.5t-85 98.5t-31 152q0 32 11 96l88 447h-162z" />
<glyph unicode="u" horiz-adv-x="1390" d="M88 850l39 194h422l-121 -618q-12 -70 -12 -96q0 -123 131 -123q87 0 165.5 56t128 138.5t66.5 171.5l54 277h-162l39 194h422l-140 -706q-6 -30 -6 -64q0 -45 22.5 -64.5t65.5 -19.5l43 5l-37 -195q-47 -6 -110 -6q-238 0 -238 215h-4q-67 -99 -170 -166.5t-240 -67.5 q-133 0 -217 70t-84 211q0 41 15 125l90 469h-162z" />
<glyph unicode="v" horiz-adv-x="1226" d="M66 850l38 194h494l-39 -194h-119l82 -516q4 -24 5 -52.5t0 -45.5l-1 -17h6q19 62 48 115l282 516h-119l39 194h510l-39 -194h-127l-483 -850h-299l-151 850h-127z" />
<glyph unicode="w" horiz-adv-x="1771" d="M70 850l39 194h493l-39 -194h-127l39 -510q2 -27 0.5 -52t-3.5 -43l-3 -18h8q17 62 37 113l334 702h229l59 -702q2 -23 0 -51t-6 -45l-2 -17h9q17 62 37 113l237 510h-125l37 194h510l-37 -194h-127l-405 -850h-297l-58 612q-2 28 -1.5 53.5t2.5 43.5l1 18h-6 q-16 -62 -41 -115l-299 -612h-295l-75 850h-125z" />
<glyph unicode="x" horiz-adv-x="1179" d="M-33 0l37 195h133l303 346l-133 272q-9 22 -22 29.5t-41 7.5h-109l39 194h207q51 0 75 -15.5t44 -61.5l80 -193l26 -72h4q23 37 52 72l219 270h299l-37 -194h-131l-293 -332l121 -244q17 -31 26.5 -44.5t32 -25t55.5 -11.5l70 2l-39 -195q-69 -6 -96 -6q-65 0 -109 12 t-74.5 45t-42 52t-34.5 71q-2 2 -2.5 3.5t-1.5 4t-2 4.5l-41 103q-7 15 -14 32.5t-10 28.5l-3 10h-4q-22 -36 -51 -71l-234 -289h-299z" />
<glyph unicode="y" horiz-adv-x="1241" d="M-139 -354l116 182q6 -5 17.5 -12.5t50 -20t82.5 -12.5q62 0 117 32t90 89l41 65l-187 881h-125l37 194h506l-37 -194h-123l89 -528q4 -23 4 -50t-2 -43l-2 -16h6q20 58 49 109l293 528h-121l39 194h499l-36 -194h-121l-576 -985q-173 -295 -446 -295q-47 0 -91 8 t-73.5 19t-52 22t-32.5 19z" />
<glyph unicode="z" horiz-adv-x="1105" d="M-27 0l31 166l629 612q76 72 84 72v4q-48 -4 -99 -4h-245l-29 -152h-221l67 346h883l-33 -167l-622 -611q-19 -19 -39.5 -36.5t-32.5 -26.5t-12 -8v-5q47 5 98 5h281l28 149h224l-70 -344h-922z" />
<glyph unicode="{" horiz-adv-x="735" d="M55 557l43 227q7 0 19 2t44.5 14.5t60 33.5t55 64.5t38.5 102.5l37 195q15 73 44.5 130.5t68 92.5t85.5 59.5t96 33t99.5 13t96.5 -2.5l-37 -193q-22 2 -48.5 2t-56.5 -11.5t-56 -29.5t-47 -52.5t-30 -80.5l-47 -244q-11 -55 -37.5 -100t-57 -70t-59.5 -42.5t-48 -22.5 l-19 -6v-4q5 -2 13.5 -6t30 -21t38 -38.5t30 -61t13.5 -86.5q0 -29 -6 -64l-43 -219q-6 -30 -6 -59q0 -43 19 -70.5t46.5 -36.5t58 -13t52.5 1l-37 -193q-29 -4 -66 -4q-30 0 -62.5 5t-77 22.5t-78 45.5t-57.5 80t-24 120q0 45 11 96l32 178q7 35 7 57q0 41 -14 72.5 t-34.5 46.5t-41 24t-34.5 11z" />
<glyph unicode="|" horiz-adv-x="704" d="M248 -330v1960h221v-1960h-221z" />
<glyph unicode="}" horiz-adv-x="735" d="M-86 -199l37 193q23 -2 49.5 -2t56 11.5t55.5 29.5t46.5 52.5t29.5 80.5l52 260q11 56 37.5 102t57 71.5t59.5 43t48 23.5l19 6v4q-5 2 -13.5 6t-30 20.5t-38 37.5t-30 60.5t-13.5 86.5q0 25 6 63l39 207q6 27 6 53q0 43 -19 70.5t-46.5 36.5t-58 13t-52.5 -1l37 193 q42 3 90 1.5t96.5 -21t88 -49t64.5 -82t25 -120.5q0 -50 -10 -94l-29 -160q-6 -34 -6 -57q0 -42 14 -73.5t34.5 -46.5t41 -24t34.5 -10l14 -2l-43 -227q-7 0 -19.5 -2t-45 -15t-59.5 -34t-55 -65t-39 -103l-41 -213q-14 -73 -43.5 -130t-68 -92t-85.5 -59.5t-96 -33 t-99.5 -12.5t-96.5 3z" />
<glyph unicode="~" horiz-adv-x="1241" d="M106 408q0 186 80.5 279t233.5 93q57 0 104 -19t79 -46.5t60.5 -55t62.5 -46.5t71 -19q63 0 95 51t32 127h204q0 -187 -80 -280t-231 -93q-57 0 -104.5 19t-79.5 46.5t-61 54.5t-63 46t-71 19q-64 0 -95.5 -50.5t-31.5 -125.5h-205z" />
<glyph unicode="&#xa1;" horiz-adv-x="544" d="M-61 -410l223 1035h227l-180 -1035h-270zM180 801l47 243h254l-49 -243h-252z" />
<glyph unicode="&#xa2;" horiz-adv-x="1183" d="M98 621q0 132 46 254t122.5 212t178.5 148t212 70l33 172h176l-35 -183q56 -12 103.5 -36.5t79.5 -53.5t57 -61.5t39 -63t23.5 -55t12.5 -38.5l3 -15l-234 -86q-1 7 -3.5 19.5t-16.5 43.5t-34.5 54.5t-61 43t-92.5 19.5q-139 0 -242 -128.5t-103 -309.5 q0 -111 55.5 -174.5t155.5 -63.5q52 0 100 18.5t80 44.5t57 52t36 44l12 19l221 -94q-6 -12 -17.5 -33t-54.5 -74.5t-92.5 -96t-132.5 -80.5t-174 -46l-33 -168h-176l35 183q-154 38 -245 159.5t-91 303.5z" />
<glyph unicode="&#xa3;" horiz-adv-x="1277" d="M-27 0l39 207h170l86 430h-145l35 178h143l53 266q34 173 176 285.5t334 112.5q65 0 126.5 -16.5t102.5 -39.5t72.5 -46t46.5 -39l15 -17l-166 -162q-3 3 -9.5 9t-27 20.5t-43 25.5t-56 20t-67.5 9q-91 0 -157.5 -53.5t-84.5 -134.5l-47 -240h349l-35 -178h-346l-86 -430 h438l45 233h229l-84 -440h-1106z" />
<glyph unicode="&#xa5;" horiz-adv-x="1318" d="M141 381l29 158h334l14 67l-35 99h-280l30 155h201l-198 594h286l117 -389l51 -234h4q59 121 127 232l264 391h314l-432 -594h202l-30 -155h-283l-70 -99l-14 -67h332l-29 -158h-332l-75 -381h-269l76 381h-334z" />
<glyph unicode="&#xa7;" horiz-adv-x="952" d="M-33 6l135 152q9 -8 26 -20t73 -32t116 -20q128 0 194 81t60 214l-10 688h199l10 -690q6 -138 -43 -251.5t-156.5 -184t-255.5 -70.5q-62 0 -120.5 13.5t-98 33t-70 39.5t-44.5 33zM211 973q-7 138 42 251.5t156 184t255 70.5q62 0 121 -13.5t99 -33t70.5 -39.5t45.5 -33 l14 -14l-135 -152q-9 8 -26 20t-73 32t-116 20q-128 0 -194 -81.5t-60 -213.5l8 -688h-197z" />
<glyph unicode="&#xa8;" horiz-adv-x="1009" d="M45 1591l47 238h213l-49 -238h-211zM489 1591l50 238h213l-50 -238h-213z" />
<glyph unicode="&#xa9;" horiz-adv-x="1656" d="M117 727q0 153 57.5 292t155.5 239.5t232.5 159.5t283.5 59q152 0 289 -59t235.5 -159.5t156.5 -239.5t58 -292t-58 -292.5t-156.5 -240t-235.5 -160t-289 -59.5q-148 0 -283 59.5t-233 160t-155.5 240t-57.5 292.5zM299 727q0 -121 42.5 -229.5t115 -186.5t174 -124 t215.5 -46q155 0 283 77.5t201 212t73 296.5q0 161 -73 295t-201 211.5t-283 77.5q-114 0 -215.5 -45.5t-174 -123.5t-115 -186.5t-42.5 -228.5zM475 723q0 166 108.5 282.5t274.5 116.5q51 0 96.5 -12t78 -31t60 -41.5t45 -45.5t30 -42t17.5 -31l5 -12l-156 -73 q-2 5 -6.5 13t-20 28t-33.5 35.5t-47.5 28.5t-62.5 13q-90 0 -146 -66t-56 -163q0 -101 54 -165t148 -64q33 0 62.5 12t48 29.5t33 35t20.5 29.5l6 12l156 -71q-4 -9 -11 -23.5t-35 -52t-62.5 -66t-94.5 -52t-129 -23.5q-166 0 -274.5 116.5t-108.5 282.5z" />
<glyph unicode="&#xaa;" horiz-adv-x="866" d="M125 545l25 139h587l-26 -139h-586zM203 958q0 246 415 246h29q4 25 4 33q6 46 -19 70t-79 24q-37 0 -82 -13.5t-71 -26.5l-27 -13l-45 127q12 8 35 19.5t95 31t146 19.5q114 0 174 -54t60 -153q0 -13 -9 -74l-77 -397h-172l18 96h-4q-3 -4 -8.5 -11.5t-24.5 -26.5 t-40.5 -33t-56 -26t-71.5 -12q-78 0 -134 46t-56 128zM389 983q0 -61 74 -61q56 0 102 51t58 121h-23q-33 0 -65 -4.5t-67.5 -15.5t-57 -34.5t-21.5 -56.5z" />
<glyph unicode="&#xab;" horiz-adv-x="1234" d="M70 580l391 419h258l-412 -432l264 -409h-237zM526 580l430 419h263l-455 -432l264 -409h-237z" />
<glyph unicode="&#xac;" horiz-adv-x="1300" d="M137 694v201h1000v-602h-209v401h-791z" />
<glyph unicode="&#xad;" horiz-adv-x="954" d="M141 471l43 227h617l-43 -227h-617z" />
<glyph unicode="&#xae;" horiz-adv-x="1656" d="M117 727q0 153 57.5 292t155.5 239.5t232.5 159.5t283.5 59q152 0 289 -59t235.5 -159.5t156.5 -239.5t58 -292t-58 -292.5t-156.5 -240t-235.5 -160t-289 -59.5q-148 0 -283 59.5t-233 160t-155.5 240t-57.5 292.5zM299 727q0 -121 42.5 -229.5t115 -186.5t174 -124 t215.5 -46q155 0 283 77.5t201 212t73 296.5q0 161 -73 295t-201 211.5t-283 77.5q-114 0 -215.5 -45.5t-174 -123.5t-115 -186.5t-42.5 -228.5zM590 356v750h313q110 0 177 -65.5t67 -172.5q0 -79 -42 -130t-89 -64v-4q8 -8 26 -43l140 -271h-191l-127 277h-98v-277h-176z M766 756h96q51 0 79 29.5t28 82.5q0 54 -27.5 82.5t-77.5 28.5h-98v-223z" />
<glyph unicode="&#xaf;" horiz-adv-x="1009" d="M113 1604l34 178h537l-33 -178h-538z" />
<glyph unicode="&#xb0;" horiz-adv-x="825" d="M178 1120q0 92 53 176t139 134.5t177 50.5q133 0 219 -82.5t86 -206.5q0 -92 -54 -175.5t-139.5 -132t-175.5 -48.5q-135 0 -220 80t-85 204zM375 1135q0 -50 32.5 -81.5t86.5 -31.5q62 0 110.5 47t48.5 109q0 51 -32.5 82.5t-85.5 31.5q-63 0 -111.5 -47.5t-48.5 -109.5 z" />
<glyph unicode="&#xb1;" horiz-adv-x="1267" d="M80 483v203h442v485h211v-485h443v-203h-443v-483h-211v483h-442zM106 -174h1043v-201h-1043v201z" />
<glyph unicode="&#xb2;" horiz-adv-x="798" d="M131 866q1 91 31 165.5t78 123.5t105.5 89.5t115 71.5t105 60t77 64t29.5 76t-30.5 65.5t-74.5 24.5q-43 0 -89 -24t-70 -48l-25 -23l-115 123q5 6 15 16.5t42.5 36.5t67 46t87 36.5t104.5 16.5q120 0 204 -67t84 -183q0 -63 -25.5 -116.5t-67.5 -92t-93 -71t-104 -60 t-99 -53.5t-79.5 -57t-43.5 -64h289l19 98h155l-47 -254h-645z" />
<glyph unicode="&#xb3;" horiz-adv-x="786" d="M133 983l121 129q3 -4 8 -9.5t24 -21t39.5 -27t54 -21t69.5 -9.5q68 0 117.5 44t49.5 106q0 45 -40 70.5t-99 25.5h-63l-23 86l217 215q11 11 24.5 22t21.5 16l8 5v8q-33 -8 -66 -8h-156l-20 -105h-156l49 256h596l-24 -125l-252 -241q76 -22 129 -78t53 -145 q0 -127 -105.5 -228.5t-260.5 -101.5q-61 0 -116.5 14t-90 34t-60.5 40.5t-38 34.5z" />
<glyph unicode="&#xb4;" horiz-adv-x="1009" d="M115 1550l274 279h293l-330 -279h-237z" />
<glyph unicode="&#xb6;" horiz-adv-x="1284" d="M131 915q0 143 81 269t209.5 198t266.5 72h651l-43 -227h-434l-260 -1329h-188l116 596q-77 0 -149.5 31.5t-127.5 86t-88.5 134t-33.5 169.5zM729 -102l238 1216h188l-235 -1216h-191z" />
<glyph unicode="&#xb7;" horiz-adv-x="579" d="M133 465l51 264h252l-49 -264h-254z" />
<glyph unicode="&#xb8;" horiz-adv-x="1009" d="M147 -442l25 127q39 -15 92 -15q43 0 79 16t36 54q0 28 -29.5 41.5t-77.5 13.5h-41l125 256l115 -26l-4 -15l-57 -121q64 -5 106.5 -43.5t42.5 -99.5q0 -43 -18 -78.5t-47 -58t-67 -38t-77 -22t-78 -6.5q-31 0 -62.5 3.5t-47.5 7.5z" />
<glyph unicode="&#xb9;" horiz-adv-x="724" d="M131 866l31 156h207l82 424q3 17 8 35t9 27l3 10h-4q-22 -30 -49 -50l-88 -67l-92 125l299 239h170l-144 -743h207l-31 -156h-608z" />
<glyph unicode="&#xba;" horiz-adv-x="958" d="M135 545l29 139h659l-26 -139h-662zM215 1077q0 110 59.5 202.5t154.5 144t200 51.5q139 0 226 -80.5t87 -210.5q0 -111 -60.5 -203.5t-155.5 -143.5t-200 -51q-137 0 -224 80.5t-87 210.5zM401 1092q0 -64 40 -103t102 -39q82 0 147.5 63.5t65.5 157.5q0 63 -40 102.5 t-102 39.5q-81 0 -147 -64.5t-66 -156.5z" />
<glyph unicode="&#xbb;" horiz-adv-x="1234" d="M4 158l453 432l-262 409h237l264 -421l-430 -420h-262zM502 158l411 432l-262 409h238l264 -421l-391 -420h-260z" />
<glyph unicode="&#xbc;" horiz-adv-x="2025" d="M102 555l31 156h207l82 424q3 17 8 35t8 27l4 9h-4q-22 -29 -49 -49l-88 -67l-92 124l299 240h170l-143 -743h206l-30 -156h-609zM444 0l969 1454h201l-969 -1454h-201zM1153 209l23 125l491 565h225l-104 -543h119l-27 -147h-121l-41 -209h-192l43 209h-416zM1368 356 h227l54 267q3 19 9.5 43t11.5 38l5 15h-6q-28 -49 -59 -86l-242 -273v-4z" />
<glyph unicode="&#xbd;" horiz-adv-x="1998" d="M92 555l31 156h207l82 424q3 17 8 35t8 27l4 9h-4q-22 -29 -49 -49l-88 -67l-92 124l299 240h170l-144 -743h207l-31 -156h-608zM438 0l969 1454h201l-969 -1454h-201zM1159 0q1 80 24.5 147.5t61.5 113.5t86.5 86.5t99.5 68t99 56.5t86 53t61 56t23 68q0 41 -30.5 65.5 t-74.5 24.5q-43 0 -89 -23.5t-70 -47.5l-25 -23l-115 123q5 6 15 16.5t42.5 36.5t67 46t87 36.5t104.5 16.5q121 0 205 -67t84 -183q0 -63 -25.5 -116.5t-67.5 -92t-93 -71t-104 -60t-99 -53.5t-79.5 -57t-43.5 -64h288l19 98h155l-47 -254h-645z" />
<glyph unicode="&#xbe;" horiz-adv-x="2041" d="M100 672l121 129q3 -4 8 -9.5t24 -21t39.5 -27t54 -21t69.5 -9.5q68 0 118 43.5t50 105.5q0 45 -40.5 70.5t-99.5 25.5h-63l-23 86l217 216q11 11 24.5 22t21.5 16l8 5v8q-33 -8 -66 -8h-155l-21 -105h-156l50 256h596l-25 -125l-252 -242q76 -22 129 -78t53 -145 q0 -127 -105.5 -228t-260.5 -101q-61 0 -116.5 14t-90 34.5t-60.5 40.5t-37 34zM455 0l968 1454h201l-969 -1454h-200zM1163 209l23 125l491 565h226l-105 -543h119l-27 -147h-121l-40 -209h-193l43 209h-416zM1378 356h228l53 267q3 19 9.5 43t11.5 38l6 15h-7 q-28 -49 -59 -86l-242 -273v-4z" />
<glyph unicode="&#xbf;" horiz-adv-x="1001" d="M-31 -86q0 74 23.5 138t62.5 110.5t86 87.5t96 76.5t91.5 69.5t73.5 74t40 83l15 72h250l-17 -90q-14 -73 -54 -137t-89 -106.5t-103 -85.5t-98 -78t-73 -81.5t-29 -97.5q0 -62 46 -102t120 -40q56 0 114.5 22.5t89.5 44.5l31 22l117 -195q-7 -5 -19.5 -14t-54 -31.5 t-84.5 -40t-106.5 -31.5t-124.5 -14q-172 0 -288 92.5t-116 251.5zM487 801l48 243h251l-47 -243h-252z" />
<glyph unicode="&#xc0;" horiz-adv-x="1486" d="M-94 0l39 201h131l680 1253h303l194 -1253h131l-38 -201h-537l39 201h143l-37 272h-458l-144 -272h144l-41 -201h-549zM598 682h334l-55 412q-4 32 -5 64t0 48v15h-6q-16 -55 -49 -127zM627 1829h270l168 -279h-219z" />
<glyph unicode="&#xc1;" horiz-adv-x="1490" d="M-92 0l39 201h131l680 1253h303l194 -1253h131l-38 -201h-537l39 201h143l-37 272h-458l-144 -272h144l-41 -201h-549zM600 682h334l-55 412q-4 32 -5 64t0 48v15h-6q-16 -55 -49 -127zM774 1550l275 279h292l-329 -279h-238z" />
<glyph unicode="&#xc2;" horiz-adv-x="1490" d="M-92 0l39 201h131l680 1253h303l194 -1253h131l-38 -201h-537l39 201h143l-37 272h-458l-144 -272h144l-41 -201h-549zM594 1550l246 279h266l133 -279h-209l-69 166h-5l-135 -166h-227zM600 682h334l-55 412q-4 32 -5 64t0 48v15h-6q-16 -55 -49 -127z" />
<glyph unicode="&#xc3;" horiz-adv-x="1490" d="M-92 0l39 201h131l680 1253h303l194 -1253h131l-38 -201h-537l39 201h143l-37 272h-458l-144 -272h144l-41 -201h-549zM567 1552q26 134 94 207.5t166 73.5q49 0 85.5 -20.5t54 -45t41 -45t49.5 -20.5q38 0 62 35.5t34 89.5h182q-25 -132 -94 -206.5t-166 -74.5 q-39 0 -70 13.5t-50 33t-35 38.5t-34.5 32.5t-39.5 13.5q-70 0 -96 -125h-183zM600 682h334l-55 412q-4 32 -5 64t0 48v15h-6q-16 -55 -49 -127z" />
<glyph unicode="&#xc4;" horiz-adv-x="1490" d="M-92 0l39 201h131l680 1253h303l194 -1253h131l-38 -201h-537l39 201h143l-37 272h-458l-144 -272h144l-41 -201h-549zM600 682h334l-55 412q-4 32 -5 64t0 48v15h-6q-16 -55 -49 -127zM604 1591l47 238h213l-49 -238h-211zM1049 1591l49 238h213l-49 -238h-213z" />
<glyph unicode="&#xc5;" horiz-adv-x="1490" d="M-92 0l39 201h131l680 1253h303l194 -1253h131l-38 -201h-537l39 201h143l-37 272h-458l-144 -272h144l-41 -201h-549zM600 682h334l-55 412q-4 32 -5 64t0 48v15h-6q-16 -55 -49 -127zM750 1663q0 87 69 138.5t154 51.5q76 0 129 -39t53 -108q0 -84 -70.5 -135 t-156.5 -51q-75 0 -126.5 38t-51.5 105zM879 1667q0 -25 15 -40t42 -15q38 0 64 26t26 66q0 26 -15.5 41.5t-43.5 15.5q-35 0 -61.5 -26.5t-26.5 -67.5z" />
<glyph unicode="&#xc6;" horiz-adv-x="1986" d="M-86 0l39 201h121l635 1050h-148l39 203h1421l-71 -375h-217l32 160h-413l-78 -399h473l-43 -215h-473l-80 -410h444l31 160h215l-72 -375h-1099l39 201h172l84 428h-361l-252 -428h148l-39 -201h-547zM723 831h281l79 408h-116z" />
<glyph unicode="&#xc7;" horiz-adv-x="1513" d="M104 614q0 174 71 334t189.5 276.5t280.5 185.5t338 69q61 0 129.5 -7.5t146.5 -28t137 -51t92.5 -83t20.5 -117.5l-41 -201h-239l20 113q8 41 -17 71.5t-71 45.5t-91.5 21.5t-90.5 6.5q-128 0 -241.5 -54t-190.5 -141t-121.5 -198.5t-44.5 -226.5q0 -188 105 -306 t294 -118q52 0 104.5 8t101.5 24.5t83.5 46t42.5 68.5l21 109h243l-37 -187q-12 -65 -56.5 -118t-104.5 -86t-134.5 -55t-143 -31t-134.5 -9h-14l-41 -86q64 -5 105.5 -43.5t41.5 -99.5q0 -43 -18 -78.5t-47 -58t-67 -38t-76 -22t-77 -6.5q-31 0 -62 3.5t-47 7.5l-15 4 l24 127q39 -15 92 -15q43 0 79 16t36 54q0 28 -29.5 41.5t-77.5 13.5h-41l95 195q-239 38 -381 207.5t-142 416.5z" />
<glyph unicode="&#xc8;" horiz-adv-x="1314" d="M-12 0l39 201h172l207 1050h-177l39 203h1080l-72 -375h-229l30 160h-407l-78 -399h479l-43 -215h-477l-80 -410h436l33 164h229l-73 -379h-1108zM569 1829h271l168 -279h-220z" />
<glyph unicode="&#xc9;" horiz-adv-x="1314" d="M-12 0l39 201h172l207 1050h-177l39 203h1080l-72 -375h-229l30 160h-407l-78 -399h479l-43 -215h-477l-80 -410h436l33 164h229l-73 -379h-1108zM713 1550l274 279h293l-330 -279h-237z" />
<glyph unicode="&#xca;" horiz-adv-x="1314" d="M-12 0l39 201h172l207 1050h-177l39 203h1080l-72 -375h-229l30 160h-407l-78 -399h479l-43 -215h-477l-80 -410h436l33 164h229l-73 -379h-1108zM532 1550l246 279h266l134 -279h-209l-70 166h-4l-135 -166h-228z" />
<glyph unicode="&#xcb;" horiz-adv-x="1314" d="M-12 0l39 201h172l207 1050h-177l39 203h1080l-72 -375h-229l30 160h-407l-78 -399h479l-43 -215h-477l-80 -410h436l33 164h229l-73 -379h-1108zM545 1591l47 238h213l-49 -238h-211zM989 1591l49 238h213l-49 -238h-213z" />
<glyph unicode="&#xcc;" horiz-adv-x="829" d="M-12 0l39 201h172l204 1050h-174l39 203h619l-39 -203h-176l-205 -1050h174l-39 -201h-614zM297 1829h270l168 -279h-219z" />
<glyph unicode="&#xcd;" horiz-adv-x="829" d="M-12 0l39 201h172l204 1050h-174l39 203h619l-39 -203h-176l-205 -1050h174l-39 -201h-614zM440 1550l275 279h293l-330 -279h-238z" />
<glyph unicode="&#xce;" horiz-adv-x="829" d="M-12 0l39 201h172l204 1050h-174l39 203h619l-39 -203h-176l-205 -1050h174l-39 -201h-614zM260 1550l246 279h266l133 -279h-209l-69 166h-4l-136 -166h-227z" />
<glyph unicode="&#xcf;" horiz-adv-x="829" d="M-12 0l39 201h172l204 1050h-174l39 203h619l-39 -203h-176l-205 -1050h174l-39 -201h-614zM272 1591l47 238h213l-49 -238h-211zM717 1591l49 238h213l-49 -238h-213z" />
<glyph unicode="&#xd0;" horiz-adv-x="1607" d="M-12 0l39 201h172l82 415h-152l41 215h152l81 420h-174l39 203h627q307 0 480 -150t173 -421q0 -181 -63.5 -343t-174.5 -281.5t-271.5 -189t-346.5 -69.5h-704zM469 215h213q172 0 309 86t212 233t75 326q0 183 -104.5 281t-292.5 98h-211l-80 -408h282l-41 -215h-282z " />
<glyph unicode="&#xd1;" horiz-adv-x="1736" d="M-12 0l39 201h172l207 1050h-177l39 203h437l432 -946q9 -22 16.5 -51t10.5 -47l3 -19h7q6 76 18 129l143 731h-180l39 203h623l-39 -203h-174l-244 -1251h-262l-436 946q-9 21 -16.5 49.5t-11.5 46.5l-3 19h-6q-5 -76 -15 -129l-143 -731h180l-39 -201h-620zM698 1552 q26 134 94 207.5t166 73.5q49 0 85.5 -20.5t54 -45t41 -45t49.5 -20.5q38 0 62 35.5t34 89.5h182q-25 -132 -94 -206.5t-166 -74.5q-39 0 -70 13.5t-50 33t-35 38.5t-34.5 32.5t-39.5 13.5q-70 0 -96 -125h-183z" />
<glyph unicode="&#xd2;" horiz-adv-x="1681" d="M102 614q0 115 33 226t91.5 206t141 175.5t179 137t208 88.5t224.5 32q141 0 262 -47t204.5 -129.5t131 -198.5t47.5 -250q0 -139 -47 -273t-131 -242t-193.5 -190.5t-241 -128t-266.5 -45.5q-141 0 -261.5 48t-204 132t-130.5 202.5t-47 256.5zM373 629q0 -186 109 -302 t282 -116q86 0 172.5 31.5t160.5 89.5t131.5 134.5t90.5 173t33 198.5q0 181 -108.5 293t-282.5 112q-110 0 -217 -48.5t-188.5 -130t-132 -196.5t-50.5 -239zM725 1829h270l168 -279h-219z" />
<glyph unicode="&#xd3;" horiz-adv-x="1681" d="M102 614q0 115 33 226t91.5 206t141 175.5t179 137t208 88.5t224.5 32q141 0 262 -47t204.5 -129.5t131 -198.5t47.5 -250q0 -139 -47 -273t-131 -242t-193.5 -190.5t-241 -128t-266.5 -45.5q-141 0 -261.5 48t-204 132t-130.5 202.5t-47 256.5zM373 629q0 -186 109 -302 t282 -116q86 0 172.5 31.5t160.5 89.5t131.5 134.5t90.5 173t33 198.5q0 181 -108.5 293t-282.5 112q-110 0 -217 -48.5t-188.5 -130t-132 -196.5t-50.5 -239zM870 1550l275 279h293l-330 -279h-238z" />
<glyph unicode="&#xd4;" horiz-adv-x="1681" d="M102 614q0 115 33 226t91.5 206t141 175.5t179 137t208 88.5t224.5 32q141 0 262 -47t204.5 -129.5t131 -198.5t47.5 -250q0 -139 -47 -273t-131 -242t-193.5 -190.5t-241 -128t-266.5 -45.5q-141 0 -261.5 48t-204 132t-130.5 202.5t-47 256.5zM373 629q0 -186 109 -302 t282 -116q86 0 172.5 31.5t160.5 89.5t131.5 134.5t90.5 173t33 198.5q0 181 -108.5 293t-282.5 112q-110 0 -217 -48.5t-188.5 -130t-132 -196.5t-50.5 -239zM690 1550l246 279h266l133 -279h-209l-69 166h-4l-135 -166h-228z" />
<glyph unicode="&#xd5;" horiz-adv-x="1681" d="M102 614q0 115 33 226t91.5 206t141 175.5t179 137t208 88.5t224.5 32q141 0 262 -47t204.5 -129.5t131 -198.5t47.5 -250q0 -139 -47 -273t-131 -242t-193.5 -190.5t-241 -128t-266.5 -45.5q-141 0 -261.5 48t-204 132t-130.5 202.5t-47 256.5zM373 629q0 -186 109 -302 t282 -116q86 0 172.5 31.5t160.5 89.5t131.5 134.5t90.5 173t33 198.5q0 181 -108.5 293t-282.5 112q-110 0 -217 -48.5t-188.5 -130t-132 -196.5t-50.5 -239zM664 1552q26 134 94 207.5t166 73.5q40 0 71 -13.5t49.5 -32.5t34.5 -38.5t34 -33t40 -13.5q38 0 62 35.5 t34 89.5h183q-25 -132 -94.5 -206.5t-166.5 -74.5q-39 0 -70 13.5t-50 33t-35 38.5t-34.5 32.5t-39.5 13.5q-70 0 -96 -125h-182z" />
<glyph unicode="&#xd6;" horiz-adv-x="1681" d="M102 614q0 115 33 226t91.5 206t141 175.5t179 137t208 88.5t224.5 32q141 0 262 -47t204.5 -129.5t131 -198.5t47.5 -250q0 -139 -47 -273t-131 -242t-193.5 -190.5t-241 -128t-266.5 -45.5q-141 0 -261.5 48t-204 132t-130.5 202.5t-47 256.5zM373 629q0 -186 109 -302 t282 -116q86 0 172.5 31.5t160.5 89.5t131.5 134.5t90.5 173t33 198.5q0 181 -108.5 293t-282.5 112q-110 0 -217 -48.5t-188.5 -130t-132 -196.5t-50.5 -239zM700 1591l48 238h213l-50 -238h-211zM1145 1591l49 238h213l-49 -238h-213z" />
<glyph unicode="&#xd7;" horiz-adv-x="1267" d="M88 141l404 445l-404 442l141 143l400 -438l399 438l141 -143l-405 -442l405 -445l-141 -141l-399 438l-400 -438z" />
<glyph unicode="&#xd8;" horiz-adv-x="1683" d="M104 614q0 171 73 331.5t191.5 277t276.5 186.5t322 70q220 0 387 -107l125 135l108 -88l-125 -135q166 -171 166 -430q0 -174 -73.5 -337t-192.5 -281t-276.5 -189.5t-319.5 -71.5q-241 0 -404 117l-135 -145l-108 88l139 151q-154 174 -154 428zM377 629 q0 -143 69 -240l728 791q-93 57 -209 57q-148 0 -283.5 -81t-220 -222.5t-84.5 -304.5zM541 285q96 -68 227 -68q108 0 214.5 49.5t189 131.5t133.5 198.5t51 241.5q0 145 -78 245z" />
<glyph unicode="&#xd9;" horiz-adv-x="1660" d="M186 1251l39 203h617l-39 -203h-174l-129 -665q-19 -112 -19 -142q0 -110 71.5 -171.5t199.5 -61.5q160 0 260 90q94 82 121 225l141 725h-174l39 203h616l-39 -203h-174l-145 -739q-26 -140 -93.5 -250.5t-168.5 -177.5q-160 -109 -390 -109q-152 0 -272 49.5t-192 150 t-72 237.5q0 62 22 174l129 665h-174zM713 1829h270l168 -279h-219z" />
<glyph unicode="&#xda;" horiz-adv-x="1660" d="M186 1251l39 203h617l-39 -203h-174l-129 -665q-19 -112 -19 -142q0 -110 71.5 -171.5t199.5 -61.5q160 0 260 90q94 82 121 225l141 725h-174l39 203h616l-39 -203h-174l-145 -739q-26 -140 -93.5 -250.5t-168.5 -177.5q-160 -109 -390 -109q-152 0 -272 49.5t-192 150 t-72 237.5q0 62 22 174l129 665h-174zM858 1550l275 279h292l-329 -279h-238z" />
<glyph unicode="&#xdb;" horiz-adv-x="1660" d="M186 1251l39 203h617l-39 -203h-174l-129 -665q-19 -112 -19 -142q0 -110 71.5 -171.5t199.5 -61.5q160 0 260 90q94 82 121 225l141 725h-174l39 203h616l-39 -203h-174l-145 -739q-26 -140 -93.5 -250.5t-168.5 -177.5q-160 -109 -390 -109q-152 0 -272 49.5t-192 150 t-72 237.5q0 62 22 174l129 665h-174zM678 1550l246 279h266l133 -279h-209l-70 166h-4l-135 -166h-227z" />
<glyph unicode="&#xdc;" horiz-adv-x="1660" d="M186 1251l39 203h617l-39 -203h-174l-129 -665q-19 -112 -19 -142q0 -110 71.5 -171.5t199.5 -61.5q160 0 260 90q94 82 121 225l141 725h-174l39 203h616l-39 -203h-174l-145 -739q-26 -140 -93.5 -250.5t-168.5 -177.5q-160 -109 -390 -109q-152 0 -272 49.5t-192 150 t-72 237.5q0 62 22 174l129 665h-174zM690 1591l47 238h213l-49 -238h-211zM1135 1591l49 238h213l-49 -238h-213z" />
<glyph unicode="&#xdd;" horiz-adv-x="1347" d="M145 1251l39 203h529l-39 -203h-139l145 -381l18 -65h4q19 30 46 65l296 381h-141l39 203h549l-39 -203h-131l-514 -643l-80 -407h176l-39 -201h-618l39 201h174l80 407l-263 643h-131zM709 1550l274 279h293l-330 -279h-237z" />
<glyph unicode="&#xde;" horiz-adv-x="1355" d="M-12 0l39 201h172l207 1050h-177l39 203h619l-39 -203h-180l-25 -125h309q182 0 283.5 -87.5t101.5 -237.5q0 -134 -69 -236.5t-186.5 -156.5t-264.5 -54h-323l-31 -153h180l-39 -201h-616zM530 555h258q126 0 201.5 60.5t75.5 172.5q0 138 -201 138h-260z" />
<glyph unicode="&#xdf;" horiz-adv-x="1263" d="M45 0l213 1102q18 90 68.5 163t120.5 119t152 70.5t167 24.5q173 0 284 -88t111 -226q0 -67 -26.5 -122.5t-64 -92.5t-75 -69t-64 -65t-26.5 -66t25.5 -68t62 -68t73 -69.5t62 -88t25.5 -108.5q0 -100 -58 -184t-151.5 -131t-198.5 -47q-84 0 -157.5 13t-105.5 27l-31 13 l45 215q10 -5 29 -13t78 -21t120 -13q64 0 117 34.5t53 104.5q0 38 -26 76t-63.5 70.5t-75 67t-63.5 79t-26 92.5q0 57 27 108t65 88t76 70.5t65 71t27 74.5q0 49 -37 81.5t-106 32.5q-87 0 -156 -48.5t-88 -143.5l-207 -1065h-260z" />
<glyph unicode="&#xe0;" d="M-10 244q0 91 46 163t117.5 115.5t166.5 72t183.5 39.5t178.5 11h37q12 57 12 86q0 62 -42.5 95.5t-123.5 33.5q-68 0 -146 -24t-121 -48l-44 -24l-59 192q8 5 22.5 12.5t60 27t92 34.5t114 27t130.5 12q73 0 137 -16.5t119 -51t87 -96.5t32 -145q0 -64 -43 -254.5 t-43 -231.5q0 -84 88 -84l45 5l-37 -195q-32 -6 -108 -6q-225 0 -244 176h-4q2 0 -13.5 -20t-46 -48.5t-71.5 -57.5t-100.5 -49t-122.5 -20q-127 0 -213 70.5t-86 198.5zM248 287q0 -55 32 -87t97 -32q99 0 187.5 91.5t115.5 195.5l8 32h-45q-36 0 -71.5 -2.5t-83.5 -9 t-88 -21t-75.5 -35.5t-56 -55t-20.5 -77zM358 1452h271l168 -278h-219z" />
<glyph unicode="&#xe1;" d="M-10 244q0 91 46 163t117.5 115.5t166.5 72t183.5 39.5t178.5 11h37q12 57 12 86q0 62 -42.5 95.5t-123.5 33.5q-68 0 -146 -24t-121 -48l-44 -24l-59 192q8 5 22.5 12.5t60 27t92 34.5t114 27t130.5 12q73 0 137 -16.5t119 -51t87 -96.5t32 -145q0 -64 -43 -254.5 t-43 -231.5q0 -84 88 -84l45 5l-37 -195q-32 -6 -108 -6q-225 0 -244 176h-4q2 0 -13.5 -20t-46 -48.5t-71.5 -57.5t-100.5 -49t-122.5 -20q-127 0 -213 70.5t-86 198.5zM248 287q0 -55 32 -87t97 -32q99 0 187.5 91.5t115.5 195.5l8 32h-45q-36 0 -71.5 -2.5t-83.5 -9 t-88 -21t-75.5 -35.5t-56 -55t-20.5 -77zM504 1174l274 278h293l-330 -278h-237z" />
<glyph unicode="&#xe2;" d="M-10 244q0 91 46 163t117.5 115.5t166.5 72t183.5 39.5t178.5 11h37q12 57 12 86q0 62 -42.5 95.5t-123.5 33.5q-68 0 -146 -24t-121 -48l-44 -24l-59 192q8 5 22.5 12.5t60 27t92 34.5t114 27t130.5 12q73 0 137 -16.5t119 -51t87 -96.5t32 -145q0 -64 -43 -254.5 t-43 -231.5q0 -84 88 -84l45 5l-37 -195q-32 -6 -108 -6q-225 0 -244 176h-4q2 0 -13.5 -20t-46 -48.5t-71.5 -57.5t-100.5 -49t-122.5 -20q-127 0 -213 70.5t-86 198.5zM248 287q0 -55 32 -87t97 -32q99 0 187.5 91.5t115.5 195.5l8 32h-45q-36 0 -71.5 -2.5t-83.5 -9 t-88 -21t-75.5 -35.5t-56 -55t-20.5 -77zM324 1174l245 278h267l133 -278h-209l-70 165h-4l-135 -165h-227z" />
<glyph unicode="&#xe3;" d="M-10 244q0 91 46 163t117.5 115.5t166.5 72t183.5 39.5t178.5 11h37q12 57 12 86q0 62 -42.5 95.5t-123.5 33.5q-68 0 -146 -24t-121 -48l-44 -24l-59 192q8 5 22.5 12.5t60 27t92 34.5t114 27t130.5 12q73 0 137 -16.5t119 -51t87 -96.5t32 -145q0 -64 -43 -254.5 t-43 -231.5q0 -84 88 -84l45 5l-37 -195q-32 -6 -108 -6q-225 0 -244 176h-4q2 0 -13.5 -20t-46 -48.5t-71.5 -57.5t-100.5 -49t-122.5 -20q-127 0 -213 70.5t-86 198.5zM248 287q0 -55 32 -87t97 -32q99 0 187.5 91.5t115.5 195.5l8 32h-45q-36 0 -71.5 -2.5t-83.5 -9 t-88 -21t-75.5 -35.5t-56 -55t-20.5 -77zM299 1176q26 134 94 207t166 73q40 0 71 -13.5t49.5 -33t34.5 -38.5t34 -32.5t40 -13.5q38 0 62.5 36t34.5 89h182q-25 -132 -94 -206.5t-166 -74.5q-39 0 -70 13.5t-50 32.5t-35 38.5t-34.5 33t-39.5 13.5q-71 0 -97 -124h-182z " />
<glyph unicode="&#xe4;" d="M-10 244q0 91 46 163t117.5 115.5t166.5 72t183.5 39.5t178.5 11h37q12 57 12 86q0 62 -42.5 95.5t-123.5 33.5q-68 0 -146 -24t-121 -48l-44 -24l-59 192q8 5 22.5 12.5t60 27t92 34.5t114 27t130.5 12q73 0 137 -16.5t119 -51t87 -96.5t32 -145q0 -64 -43 -254.5 t-43 -231.5q0 -84 88 -84l45 5l-37 -195q-32 -6 -108 -6q-225 0 -244 176h-4q2 0 -13.5 -20t-46 -48.5t-71.5 -57.5t-100.5 -49t-122.5 -20q-127 0 -213 70.5t-86 198.5zM248 287q0 -55 32 -87t97 -32q99 0 187.5 91.5t115.5 195.5l8 32h-45q-36 0 -71.5 -2.5t-83.5 -9 t-88 -21t-75.5 -35.5t-56 -55t-20.5 -77zM336 1214l47 238h213l-49 -238h-211zM780 1214l49 238h213l-49 -238h-213z" />
<glyph unicode="&#xe5;" d="M-10 244q0 91 46 163t117.5 115.5t166.5 72t183.5 39.5t178.5 11h37q12 57 12 86q0 62 -42.5 95.5t-123.5 33.5q-68 0 -146 -24t-121 -48l-44 -24l-59 192q8 5 22.5 12.5t60 27t92 34.5t114 27t130.5 12q73 0 137 -16.5t119 -51t87 -96.5t32 -145q0 -64 -43 -254.5 t-43 -231.5q0 -84 88 -84l45 5l-37 -195q-32 -6 -108 -6q-225 0 -244 176h-4q2 0 -13.5 -20t-46 -48.5t-71.5 -57.5t-100.5 -49t-122.5 -20q-127 0 -213 70.5t-86 198.5zM248 287q0 -55 32 -87t97 -32q99 0 187.5 91.5t115.5 195.5l8 32h-45q-36 0 -71.5 -2.5t-83.5 -9 t-88 -21t-75.5 -35.5t-56 -55t-20.5 -77zM481 1286q0 87 69.5 139t154.5 52q76 0 129 -39.5t53 -108.5q0 -84 -71 -135t-157 -51q-75 0 -126.5 38t-51.5 105zM610 1290q0 -25 15.5 -40t42.5 -15q38 0 64 26t26 66q0 26 -16 41.5t-44 15.5q-35 0 -61.5 -26.5t-26.5 -67.5z " />
<glyph unicode="&#xe6;" horiz-adv-x="1757" d="M-4 256q0 67 23.5 123t62 95t93 69.5t112 48.5t123 29.5t121.5 15.5t112 4h74q8 41 8 78q0 141 -170 141q-75 0 -150.5 -24t-114.5 -48l-38 -24l-64 192q8 5 22 12.5t59.5 27t91.5 34.5t112 27t127 12q216 0 307 -149h4q152 149 357 149q204 0 311 -107.5t107 -289.5 q0 -38 -8 -85t-16 -75l-9 -27h-713q-6 -24 -6 -53q0 -110 69 -177t189 -67q75 0 154.5 29t121.5 57l43 29l70 -190q-7 -6 -20.5 -15t-56.5 -33t-88 -42t-111.5 -33t-130.5 -15q-155 0 -266 61t-167 167h-4q-10 -19 -25.5 -41t-51.5 -57.5t-79 -62.5t-109.5 -47t-141.5 -20 q-139 0 -236.5 76.5t-97.5 204.5zM258 287q0 -47 34.5 -78t100.5 -31q99 0 183 86.5t106 188.5l6 30h-72q-35 0 -68 -2.5t-76.5 -9t-79 -20.5t-67 -34.5t-49.5 -54t-18 -75.5zM977 641h450q3 30 3 57q0 81 -46 125.5t-120 44.5q-99 0 -174.5 -60.5t-112.5 -166.5z" />
<glyph unicode="&#xe7;" horiz-adv-x="1157" d="M47 438q0 120 50.5 234.5t138 202t213.5 141t268 53.5q43 0 88 -5.5t93 -17.5t88 -33t70.5 -48.5t43.5 -68.5t4 -89l-25 -131h-225l14 65q8 50 -45 78.5t-129 28.5q-104 0 -193 -55.5t-139.5 -145.5t-50.5 -190q0 -117 72.5 -189.5t206.5 -72.5q56 0 112 13.5t97 32.5 t73.5 38.5t49.5 32.5l16 14l70 -197q-7 -6 -19 -16.5t-55 -37t-91 -47t-123.5 -37t-154.5 -16.5h-22l-39 -86q64 -5 105.5 -43.5t41.5 -99.5q0 -54 -26.5 -95t-70 -63.5t-91.5 -33.5t-98 -11q-30 0 -61 3.5t-46 7.5l-16 4l24 127q39 -15 92 -15q43 0 79 16t36 54 q0 55 -106 55h-41l94 197q-177 35 -275 154.5t-98 291.5z" />
<glyph unicode="&#xe8;" horiz-adv-x="1142" d="M49 424q0 175 78 323t218 235t310 87q203 0 309.5 -107.5t106.5 -287.5q0 -40 -8.5 -87.5t-17.5 -74.5l-9 -27h-719q-6 -24 -6 -53q0 -105 70 -171t192 -66q47 0 97.5 11.5t89.5 28.5t71 34t49 29l17 11l70 -196q-7 -6 -21 -15t-57.5 -33t-88.5 -42t-112 -33t-131 -15 q-237 0 -372.5 126.5t-135.5 322.5zM352 639h459q4 32 4 57q0 81 -45 126.5t-121 45.5q-98 0 -178.5 -62t-118.5 -167zM412 1452h270l168 -278h-219z" />
<glyph unicode="&#xe9;" horiz-adv-x="1142" d="M49 424q0 175 78 323t218 235t310 87q203 0 309.5 -107.5t106.5 -287.5q0 -40 -8.5 -87.5t-17.5 -74.5l-9 -27h-719q-6 -24 -6 -53q0 -105 70 -171t192 -66q47 0 97.5 11.5t89.5 28.5t71 34t49 29l17 11l70 -196q-7 -6 -21 -15t-57.5 -33t-88.5 -42t-112 -33t-131 -15 q-237 0 -372.5 126.5t-135.5 322.5zM352 639h459q4 32 4 57q0 81 -45 126.5t-121 45.5q-98 0 -178.5 -62t-118.5 -167zM557 1174l274 278h293l-329 -278h-238z" />
<glyph unicode="&#xea;" horiz-adv-x="1142" d="M49 424q0 175 78 323t218 235t310 87q203 0 309.5 -107.5t106.5 -287.5q0 -40 -8.5 -87.5t-17.5 -74.5l-9 -27h-719q-6 -24 -6 -53q0 -105 70 -171t192 -66q47 0 97.5 11.5t89.5 28.5t71 34t49 29l17 11l70 -196q-7 -6 -21 -15t-57.5 -33t-88.5 -42t-112 -33t-131 -15 q-237 0 -372.5 126.5t-135.5 322.5zM352 639h459q4 32 4 57q0 81 -45 126.5t-121 45.5q-98 0 -178.5 -62t-118.5 -167zM377 1174l246 278h266l133 -278h-209l-70 165h-4l-135 -165h-227z" />
<glyph unicode="&#xeb;" horiz-adv-x="1142" d="M49 424q0 175 78 323t218 235t310 87q203 0 309.5 -107.5t106.5 -287.5q0 -40 -8.5 -87.5t-17.5 -74.5l-9 -27h-719q-6 -24 -6 -53q0 -105 70 -171t192 -66q47 0 97.5 11.5t89.5 28.5t71 34t49 29l17 11l70 -196q-7 -6 -21 -15t-57.5 -33t-88.5 -42t-112 -33t-131 -15 q-237 0 -372.5 126.5t-135.5 322.5zM352 639h459q4 32 4 57q0 81 -45 126.5t-121 45.5q-98 0 -178.5 -62t-118.5 -167zM389 1214l47 238h213l-49 -238h-211zM834 1214l49 238h213l-49 -238h-213z" />
<glyph unicode="&#xec;" horiz-adv-x="692" d="M100 850l39 194h420l-137 -706q-8 -40 -8 -64q0 -84 88 -84l45 5l-37 -195q-47 -6 -92 -6t-77.5 3t-72 15.5t-64.5 35t-42 64t-17 99.5q0 39 13 106l104 533h-162zM158 1452h270l168 -278h-219z" />
<glyph unicode="&#xed;" horiz-adv-x="692" d="M100 850l39 194h420l-137 -706q-8 -40 -8 -64q0 -84 88 -84l45 5l-37 -195q-47 -6 -92 -6t-77.5 3t-72 15.5t-64.5 35t-42 64t-17 99.5q0 39 13 106l104 533h-162zM303 1174l275 278h292l-329 -278h-238z" />
<glyph unicode="&#xee;" horiz-adv-x="692" d="M100 850l39 194h420l-137 -706q-8 -40 -8 -64q0 -84 88 -84l45 5l-37 -195q-47 -6 -92 -6t-77.5 3t-72 15.5t-64.5 35t-42 64t-17 99.5q0 39 13 106l104 533h-162zM123 1174l246 278h266l133 -278h-209l-70 165h-4l-135 -165h-227z" />
<glyph unicode="&#xef;" horiz-adv-x="692" d="M100 850l39 194h420l-137 -706q-8 -40 -8 -64q0 -84 88 -84l45 5l-37 -195q-47 -6 -92 -6t-77.5 3t-72 15.5t-64.5 35t-42 64t-17 99.5q0 39 13 106l104 533h-162zM162 1214l49 240h213l-49 -240h-213zM551 1214l47 240h213l-47 -240h-213z" />
<glyph unicode="&#xf0;" horiz-adv-x="1220" d="M45 399q0 102 41 200.5t113.5 177t183 127t238.5 48.5q38 0 73.5 -7t60 -17t43 -20.5t27.5 -17.5l9 -7h4q-14 66 -58.5 130t-105.5 113l-406 -159l15 131l270 106q-123 67 -238 94l107 189q236 -61 401 -180l334 131l-12 -131l-225 -88q93 -96 145.5 -225t52.5 -279 q0 -89 -21 -185.5t-69 -197t-117 -179t-175.5 -128.5t-233.5 -50q-111 0 -199.5 34t-144 92.5t-84.5 134.5t-29 163zM309 403q0 -91 49 -149.5t146 -58.5q96 0 174.5 61t118 146t39.5 169q0 81 -54 130t-149 49q-143 0 -233.5 -103t-90.5 -244z" />
<glyph unicode="&#xf1;" horiz-adv-x="1398" d="M104 0l158 805q7 45 -37 45h-116l36 194h275q117 0 117 -92q0 -19 -7.5 -56t-17.5 -60h4q7 15 25.5 39.5t56 59t83 64t112.5 50t139 20.5q135 0 214 -73t79 -210q0 -70 -42 -273t-42 -239q0 -47 22.5 -65.5t65.5 -18.5l45 5l-37 -195q-38 -6 -104 -6q-39 0 -69.5 3 t-68 16t-62.5 35t-42 63t-17 98t40 255.5t40 242.5q0 124 -133 124q-131 0 -234 -109t-132 -263l-90 -459h-261zM479 1176q26 134 94 207t166 73q49 0 85.5 -20.5t54 -45t41 -45t49.5 -20.5q38 0 62 35.5t34 89.5h182q-25 -132 -94 -206.5t-166 -74.5q-39 0 -70 13.5 t-50 32.5t-35 38.5t-34.5 33t-39.5 13.5q-70 0 -96 -124h-183z" />
<glyph unicode="&#xf2;" horiz-adv-x="1288" d="M47 438q0 132 55.5 250.5t147 201t212.5 131t249 48.5q218 0 356.5 -128t138.5 -333q0 -178 -95 -325t-246.5 -227.5t-321.5 -80.5q-217 0 -356.5 128t-139.5 335zM311 451q0 -116 70 -185t182 -69q70 0 138 29.5t121.5 80.5t86.5 126t33 159q0 115 -70.5 185.5 t-181.5 70.5q-93 0 -180 -50.5t-143 -143.5t-56 -203zM459 1452h270l168 -278h-219z" />
<glyph unicode="&#xf3;" horiz-adv-x="1288" d="M47 438q0 132 55.5 250.5t147 201t212.5 131t249 48.5q218 0 356.5 -128t138.5 -333q0 -178 -95 -325t-246.5 -227.5t-321.5 -80.5q-217 0 -356.5 128t-139.5 335zM311 451q0 -116 70 -185t182 -69q70 0 138 29.5t121.5 80.5t86.5 126t33 159q0 115 -70.5 185.5 t-181.5 70.5q-93 0 -180 -50.5t-143 -143.5t-56 -203zM602 1174l275 278h292l-329 -278h-238z" />
<glyph unicode="&#xf4;" horiz-adv-x="1288" d="M47 438q0 132 55.5 250.5t147 201t212.5 131t249 48.5q218 0 356.5 -128t138.5 -333q0 -178 -95 -325t-246.5 -227.5t-321.5 -80.5q-217 0 -356.5 128t-139.5 335zM311 451q0 -116 70 -185t182 -69q70 0 138 29.5t121.5 80.5t86.5 126t33 159q0 115 -70.5 185.5 t-181.5 70.5q-93 0 -180 -50.5t-143 -143.5t-56 -203zM422 1174l246 278h266l133 -278h-209l-70 165h-4l-135 -165h-227z" />
<glyph unicode="&#xf5;" horiz-adv-x="1288" d="M47 438q0 132 55.5 250.5t147 201t212.5 131t249 48.5q218 0 356.5 -128t138.5 -333q0 -178 -95 -325t-246.5 -227.5t-321.5 -80.5q-217 0 -356.5 128t-139.5 335zM311 451q0 -116 70 -185t182 -69q70 0 138 29.5t121.5 80.5t86.5 126t33 159q0 115 -70.5 185.5 t-181.5 70.5q-93 0 -180 -50.5t-143 -143.5t-56 -203zM397 1176q26 134 94 207t166 73q49 0 85.5 -20.5t54 -45t41 -45t49.5 -20.5q38 0 62 35.5t34 89.5h182q-25 -132 -94 -206.5t-166 -74.5q-39 0 -70 13.5t-50 32.5t-35 38.5t-34.5 33t-39.5 13.5q-70 0 -96 -124h-183z " />
<glyph unicode="&#xf6;" horiz-adv-x="1288" d="M47 438q0 132 55.5 250.5t147 201t212.5 131t249 48.5q218 0 356.5 -128t138.5 -333q0 -178 -95 -325t-246.5 -227.5t-321.5 -80.5q-217 0 -356.5 128t-139.5 335zM311 451q0 -116 70 -185t182 -69q70 0 138 29.5t121.5 80.5t86.5 126t33 159q0 115 -70.5 185.5 t-181.5 70.5q-93 0 -180 -50.5t-143 -143.5t-56 -203zM434 1214l47 238h213l-49 -238h-211zM879 1214l49 238h213l-49 -238h-213z" />
<glyph unicode="&#xf7;" horiz-adv-x="1267" d="M92 483v203h1069v-203h-1069zM510 55v221h233v-221h-233zM510 895v221h233v-221h-233z" />
<glyph unicode="&#xf8;" horiz-adv-x="1288" d="M47 438q0 175 93.5 322t241 228t310.5 81q168 0 297 -76l117 125l94 -80l-115 -123q121 -131 121 -307q0 -107 -36 -206t-98.5 -175.5t-144 -134t-176 -87.5t-190.5 -30q-153 0 -282 66l-119 -125l-92 82l108 117q-129 136 -129 323zM311 451q0 -82 45 -144l467 506 q-65 35 -133 35q-93 0 -180 -50.5t-143 -143.5t-56 -203zM446 223q50 -26 117 -26q70 0 138 29.5t121.5 80.5t86.5 126t33 159q0 59 -39 127z" />
<glyph unicode="&#xf9;" horiz-adv-x="1390" d="M88 850l39 194h422l-121 -618q-12 -70 -12 -96q0 -123 131 -123q87 0 165.5 56t128 138.5t66.5 171.5l54 277h-162l39 194h422l-140 -706q-6 -30 -6 -64q0 -45 22.5 -64.5t65.5 -19.5l43 5l-37 -195q-47 -6 -110 -6q-238 0 -238 215h-4q-67 -99 -170 -166.5t-240 -67.5 q-133 0 -217 70t-84 211q0 41 15 125l90 469h-162zM467 1452h270l168 -278h-219z" />
<glyph unicode="&#xfa;" horiz-adv-x="1390" d="M88 850l39 194h422l-121 -618q-12 -70 -12 -96q0 -123 131 -123q87 0 165.5 56t128 138.5t66.5 171.5l54 277h-162l39 194h422l-140 -706q-6 -30 -6 -64q0 -45 22.5 -64.5t65.5 -19.5l43 5l-37 -195q-47 -6 -110 -6q-238 0 -238 215h-4q-67 -99 -170 -166.5t-240 -67.5 q-133 0 -217 70t-84 211q0 41 15 125l90 469h-162zM612 1174l275 278h293l-330 -278h-238z" />
<glyph unicode="&#xfb;" horiz-adv-x="1390" d="M88 850l39 194h422l-121 -618q-12 -70 -12 -96q0 -123 131 -123q87 0 165.5 56t128 138.5t66.5 171.5l54 277h-162l39 194h422l-140 -706q-6 -30 -6 -64q0 -45 22.5 -64.5t65.5 -19.5l43 5l-37 -195q-47 -6 -110 -6q-238 0 -238 215h-4q-67 -99 -170 -166.5t-240 -67.5 q-133 0 -217 70t-84 211q0 41 15 125l90 469h-162zM432 1174l246 278h266l133 -278h-209l-69 165h-4l-136 -165h-227z" />
<glyph unicode="&#xfc;" horiz-adv-x="1390" d="M88 850l39 194h422l-121 -618q-12 -70 -12 -96q0 -123 131 -123q87 0 165.5 56t128 138.5t66.5 171.5l54 277h-162l39 194h422l-140 -706q-6 -30 -6 -64q0 -45 22.5 -64.5t65.5 -19.5l43 5l-37 -195q-47 -6 -110 -6q-238 0 -238 215h-4q-67 -99 -170 -166.5t-240 -67.5 q-133 0 -217 70t-84 211q0 41 15 125l90 469h-162zM442 1214l47 238h213l-49 -238h-211zM887 1214l49 238h213l-49 -238h-213z" />
<glyph unicode="&#xfd;" horiz-adv-x="1241" d="M-139 -354l116 182q6 -5 17.5 -12.5t50 -20t82.5 -12.5q62 0 117 32t90 89l41 65l-187 881h-125l37 194h506l-37 -194h-123l89 -528q4 -23 4 -50t-2 -43l-2 -16h6q20 58 49 109l293 528h-121l39 194h499l-36 -194h-121l-576 -985q-173 -295 -446 -295q-47 0 -91 8 t-73.5 19t-52 22t-32.5 19zM575 1174l275 278h293l-330 -278h-238z" />
<glyph unicode="&#xfe;" horiz-adv-x="1280" d="M-35 -410l324 1670h-160l37 194h418l-90 -461q-3 -17 -8 -36t-9 -29l-4 -10h4q55 67 139.5 109t180.5 42q186 0 291.5 -118.5t105.5 -321.5q0 -141 -48.5 -265t-128 -208t-182.5 -132.5t-210 -48.5q-93 0 -174.5 39.5t-122.5 114.5h-4q-5 -41 -15 -94l-88 -445h-256z M389 430q0 -103 52 -169t153 -66q59 0 118 28.5t107.5 80t78.5 132t30 174.5q0 109 -54.5 172.5t-150.5 63.5q-131 0 -232.5 -124t-101.5 -292z" />
<glyph unicode="&#xff;" horiz-adv-x="1241" d="M-139 -354l116 182q6 -5 17.5 -12.5t50 -20t82.5 -12.5q62 0 117 32t90 89l41 65l-187 881h-125l37 194h506l-37 -194h-123l89 -528q4 -23 4 -50t-2 -43l-2 -16h6q20 58 49 109l293 528h-121l39 194h499l-36 -194h-121l-576 -985q-173 -295 -446 -295q-47 0 -91 8 t-73.5 19t-52 22t-32.5 19zM408 1214l47 238h213l-50 -238h-210zM852 1214l49 238h213l-49 -238h-213z" />
<glyph unicode="&#x152;" horiz-adv-x="2029" d="M102 610q0 115 33.5 226.5t92 205.5t141 174t177.5 135.5t204 87t219 31.5q78 0 172 -8t137 -8h786l-73 -375h-217l32 160h-413l-80 -401h473l-43 -213h-471l-80 -410h444l31 160h217l-74 -375h-788q-34 0 -117 -9t-145 -9q-193 0 -343.5 80.5t-232.5 223.5t-82 324z M375 614q0 -182 109.5 -296.5t291.5 -114.5q38 0 75.5 3.5t56.5 7.5l18 3l196 1018q-57 16 -141 16q-157 0 -297 -86t-224.5 -233.5t-84.5 -317.5z" />
<glyph unicode="&#x153;" horiz-adv-x="2025" d="M49 438q0 132 54 250.5t143 201t207.5 131t244.5 48.5q134 0 238.5 -57t167.5 -158h4q78 101 189.5 158t240.5 57q203 0 309.5 -107.5t106.5 -287.5q0 -40 -9 -88t-17 -76l-9 -27h-719q-4 -24 -4 -53q0 -104 69 -168.5t191 -64.5q47 0 97.5 11.5t89.5 28.5t71 34t49 29 l17 11l69 -198q-7 -6 -20.5 -15t-56.5 -33t-88 -42t-111.5 -33t-130.5 -15q-147 0 -253.5 57.5t-164.5 162.5h-4q-89 -103 -211.5 -161.5t-249.5 -58.5q-226 0 -368 127.5t-142 335.5zM313 451q0 -116 70 -185t182 -69q70 0 138 29.5t121.5 80.5t86.5 126t33 159 q0 115 -70.5 185.5t-181.5 70.5q-153 0 -266 -114.5t-113 -282.5zM1237 641h459q4 30 4 55q0 80 -45.5 126t-120.5 46q-99 0 -179 -61t-118 -166z" />
<glyph unicode="&#x178;" horiz-adv-x="1347" d="M145 1251l39 203h529l-39 -203h-139l145 -381l18 -65h4q19 30 46 65l296 381h-141l39 203h549l-39 -203h-131l-514 -643l-80 -407h176l-39 -201h-618l39 201h174l80 407l-263 643h-131zM541 1591l47 238h213l-49 -238h-211zM985 1591l49 238h213l-49 -238h-213z" />
<glyph unicode="&#x2c6;" horiz-adv-x="1011" d="M35 1550l246 279h266l133 -279h-209l-70 166h-4l-135 -166h-227z" />
<glyph unicode="&#x2dc;" horiz-adv-x="1009" d="M4 1552q26 134 94 207.5t166 73.5q49 0 85.5 -20.5t54 -45t41 -45t49.5 -20.5q38 0 62 35.5t34 89.5h182q-25 -132 -94 -206.5t-166 -74.5q-39 0 -70 13.5t-50 33t-35 38.5t-34.5 32.5t-39.5 13.5q-71 0 -97 -125h-182z" />
<glyph unicode="&#x2000;" horiz-adv-x="926" />
<glyph unicode="&#x2001;" horiz-adv-x="1853" />
<glyph unicode="&#x2002;" horiz-adv-x="926" />
<glyph unicode="&#x2003;" horiz-adv-x="1853" />
<glyph unicode="&#x2004;" horiz-adv-x="617" />
<glyph unicode="&#x2005;" horiz-adv-x="463" />
<glyph unicode="&#x2006;" horiz-adv-x="308" />
<glyph unicode="&#x2007;" horiz-adv-x="308" />
<glyph unicode="&#x2008;" horiz-adv-x="231" />
<glyph unicode="&#x2009;" horiz-adv-x="370" />
<glyph unicode="&#x200a;" horiz-adv-x="102" />
<glyph unicode="&#x2010;" horiz-adv-x="954" d="M141 471l43 227h617l-43 -227h-617z" />
<glyph unicode="&#x2011;" horiz-adv-x="954" d="M141 471l43 227h617l-43 -227h-617z" />
<glyph unicode="&#x2012;" horiz-adv-x="954" d="M141 471l43 227h617l-43 -227h-617z" />
<glyph unicode="&#x2013;" horiz-adv-x="1472" d="M143 483l39 203h1133l-37 -203h-1135z" />
<glyph unicode="&#x2014;" horiz-adv-x="1882" d="M143 483l39 203h1542l-36 -203h-1545z" />
<glyph unicode="&#x2018;" horiz-adv-x="507" d="M160 1004l250 475h192l-192 -475h-250z" />
<glyph unicode="&#x2019;" horiz-adv-x="497" d="M170 1004l192 475h250l-250 -475h-192z" />
<glyph unicode="&#x201a;" horiz-adv-x="555" d="M-84 -211l195 475h249l-249 -475h-195z" />
<glyph unicode="&#x201c;" horiz-adv-x="849" d="M160 1004l250 475h192l-192 -475h-250zM502 1004l250 475h192l-192 -475h-250z" />
<glyph unicode="&#x201d;" horiz-adv-x="839" d="M170 1004l192 475h250l-250 -475h-192zM510 1004l195 475h249l-249 -475h-195z" />
<glyph unicode="&#x201e;" horiz-adv-x="897" d="M-84 -211l195 475h249l-249 -475h-195zM258 -211l195 475h249l-251 -475h-193z" />
<glyph unicode="&#x2022;" horiz-adv-x="876" d="M92 596q0 141 100 241.5t242 100.5q141 0 241.5 -100.5t100.5 -241.5t-100.5 -241.5t-241.5 -100.5q-142 0 -242 100.5t-100 241.5z" />
<glyph unicode="&#x2026;" horiz-adv-x="1712" d="M31 0l49 262h254l-51 -262h-252zM612 0l52 262h254l-52 -262h-254zM1196 0l51 262h254l-51 -262h-254z" />
<glyph unicode="&#x202f;" horiz-adv-x="370" />
<glyph unicode="&#x2039;" horiz-adv-x="751" d="M70 580l391 419h258l-412 -432l264 -409h-237z" />
<glyph unicode="&#x203a;" horiz-adv-x="757" d="M25 158l411 432l-262 409h238l264 -421l-391 -420h-260z" />
<glyph unicode="&#x205f;" horiz-adv-x="463" />
<glyph unicode="&#x20ac;" horiz-adv-x="1243" d="M61 498l31 149h113q6 74 26 168h-108l31 150h127q105 230 311.5 372t454.5 142q64 0 128 -9.5t96 -19.5l32 -10l-103 -213q-80 20 -160 20q-146 0 -268.5 -75t-198.5 -207h527l-64 -150h-530q-24 -94 -27 -168h496l-62 -149h-413q23 -131 113.5 -209t240.5 -78 q44 0 93 7.5t75 14.5l27 7l2 -232q-91 -33 -220 -33q-249 0 -419 143.5t-199 379.5h-152z" />
<glyph unicode="&#x2122;" horiz-adv-x="2142" d="M205 1282v172h801v-172h-301v-735h-197v735h-303zM1061 547l72 907h180l188 -428l27 -86h4q15 51 29 86l188 428h180l70 -907h-197l-33 467q-1 16 0 30t2 24l1 9h-5l-159 -364h-154l-160 364h-4l2 -63l-37 -467h-194z" />
<glyph unicode="&#x25fc;" horiz-adv-x="1044" d="M0 0v1044h1044v-1044h-1044z" />
</font>
</defs>
</svg>
