<?xml version="1.0" standalone="no"?>
<!DOCTYPE svg PUBLIC "-//W3C//DTD SVG 1.1//EN" "http://www.w3.org/Graphics/SVG/1.1/DTD/svg11.dtd" >
<svg xmlns="http://www.w3.org/2000/svg">
<metadata></metadata>
<defs>
<font id="museo_slab700" horiz-adv-x="1157" >
<font-face units-per-em="2048" ascent="1536" descent="-512" />
<missing-glyph horiz-adv-x="512" />
<glyph unicode="&#xfb01;" horiz-adv-x="1449" d="M84 850v194h162v48q0 96 30 168.5t73 112t102.5 63.5t106.5 30.5t97 6.5q27 0 54 -2.5t40 -4.5l13 -2v-209q-27 7 -80 7q-176 0 -176 -164v-54h733v-849h152v-195h-562v195h152v655h-475v-655h176v-195h-588v195h152v655h-162zM979 1223v231h262v-231h-262z" />
<glyph unicode="&#xfb02;" horiz-adv-x="1423" d="M84 850v194h162v27q0 116 44 200.5t121 131t166.5 67.5t196.5 21q106 0 213.5 -14.5t162.5 -28.5l54 -14v-1086q0 -76 23 -109.5t88 -33.5l45 2v-209q-43 -6 -96 -6q-54 0 -97 7.5t-86 29.5t-72 59t-47 99t-18 145v938q-67 20 -182 20q-117 0 -186.5 -50.5t-69.5 -162.5 v-33h235v-194h-235v-655h176v-195h-588v195h152v655h-162z" />
<glyph unicode="&#xfb03;" horiz-adv-x="2185" d="M84 850v194h162v48q0 96 30 168.5t73 112t102.5 63.5t106.5 30.5t97 6.5q27 0 54 -2.5t40 -4.5l13 -2v-209q-27 7 -80 7q-176 0 -176 -164v-54h475v48q0 96 30 168.5t73 112t102.5 63.5t106 30.5t96.5 6.5q28 0 55 -2.5t40 -4.5l13 -2v-209q-27 7 -80 7q-178 0 -178 -164 v-54h735v-849h152v-195h-563v195h151v655h-475v-655h178v-195h-588v195h152v655h-475v-655h176v-195h-588v195h152v655h-162zM1712 1223v231h264v-231h-264z" />
<glyph unicode="&#xfb04;" horiz-adv-x="2158" d="M84 850v194h162v48q0 70 15.5 127.5t40.5 96t61 68t71.5 46t78 27t75.5 13.5t67 3q27 0 54 -2.5t40 -4.5l13 -2v-209q-29 7 -78 7q-178 0 -178 -164v-54h475v27q0 116 44 200.5t121 131t166.5 67.5t196.5 21q106 0 213.5 -14.5t161.5 -28.5l55 -14v-1086q0 -76 23 -109.5 t88 -33.5l45 2v-209q-43 -6 -98 -6q-53 0 -95.5 7.5t-85.5 29.5t-72 59t-47 99t-18 145v938q-69 20 -182 20q-117 0 -187.5 -50.5t-70.5 -162.5v-33h238v-194h-238v-655h178v-195h-588v195h152v655h-475v-655h176v-195h-588v195h152v655h-162z" />
<glyph horiz-adv-x="0" />
<glyph horiz-adv-x="682" />
<glyph unicode=" "  horiz-adv-x="512" />
<glyph unicode="&#x09;" horiz-adv-x="512" />
<glyph unicode="&#xa0;" horiz-adv-x="512" />
<glyph unicode="!" horiz-adv-x="544" d="M137 1454h271l-23 -1034h-227zM147 0v244h252v-244h-252z" />
<glyph unicode="&#x22;" horiz-adv-x="757" d="M119 1024v457h192v-457h-192zM446 1024v457h193v-457h-193z" />
<glyph unicode="#" horiz-adv-x="1456" d="M78 383l31 186h243l51 287h-241l33 188h241l72 410h207l-72 -410h281l71 410h209l-71 -410h245l-30 -188h-246l-51 -287h243l-30 -186h-246l-66 -383h-209l66 383h-279l-67 -383h-207l66 383h-244zM561 569h281l51 287h-281z" />
<glyph unicode="$" horiz-adv-x="1138" d="M78 205l139 186q7 -6 19.5 -16.5t52 -37t79.5 -46.5t98 -36.5t112 -16.5q91 0 154 48t63 128q0 39 -23.5 71.5t-63.5 56t-92 45.5t-109.5 44.5t-114.5 47.5t-109 59.5t-92 76t-63.5 101t-23.5 131.5q0 148 106 255.5t277 135.5v223h177v-219q67 -6 128.5 -23.5 t101.5 -38.5t71 -41t45 -33l14 -14l-109 -200q-6 5 -17 13.5t-46 30t-70.5 38t-86.5 30t-99 13.5q-101 0 -164 -45t-63 -121q0 -47 29.5 -84.5t78 -62.5t110.5 -51t127 -49t127 -57.5t110.5 -75t78 -103t29.5 -140.5q0 -158 -106 -275.5t-289 -140.5v-219h-177v219 q-74 9 -143.5 32t-115.5 49.5t-81.5 52t-52.5 42.5z" />
<glyph unicode="%" horiz-adv-x="1619" d="M80 1155q0 133 97.5 228.5t236.5 95.5q138 0 236 -96t98 -228q0 -135 -98 -229.5t-236 -94.5q-139 0 -236.5 94.5t-97.5 229.5zM131 0l1116 1454h240l-1116 -1454h-240zM279 1155q0 -57 39 -96t96 -39t97 39t40 96q0 56 -40 95.5t-97 39.5t-96 -39.5t-39 -95.5zM874 297 q0 133 97.5 228.5t236.5 95.5q138 0 236 -96t98 -228q0 -133 -98 -227.5t-236 -94.5q-139 0 -236.5 94t-97.5 228zM1073 299q0 -57 39 -96t96 -39t97.5 39t40.5 96q0 56 -40.5 95.5t-97.5 39.5t-96 -39.5t-39 -95.5z" />
<glyph unicode="&#x26;" horiz-adv-x="1400" d="M88 410q0 123 70 224t188 140v4q-4 2 -11 5t-27.5 15t-39 27.5t-41 42t-39 57.5t-27.5 76t-11 95q0 94 37.5 168t103.5 120.5t151.5 70.5t184.5 24q43 0 91 -6.5t74 -12.5l27 -6l-61 -209q-52 12 -99 12q-105 0 -174 -51.5t-69 -140.5q0 -38 10.5 -71t34.5 -64 t69.5 -49.5t108.5 -18.5h272v197h258v-197h189v-213h-189v-180q0 -225 -145 -359.5t-395 -134.5q-242 0 -391.5 124t-149.5 311zM356 432q0 -98 75 -159.5t200 -61.5q131 0 205.5 69.5t74.5 202.5v166h-288q-124 0 -195.5 -56.5t-71.5 -160.5z" />
<glyph unicode="'" horiz-adv-x="434" d="M119 1024v457h196v-457h-196z" />
<glyph unicode="(" horiz-adv-x="671" d="M127 702q0 431 244 816h219q-232 -390 -232 -818q0 -469 232 -895h-219q-116 190 -180 420t-64 477z" />
<glyph unicode=")" horiz-adv-x="673" d="M82 -195q231 425 231 895q0 435 -231 818h221q244 -385 244 -816q0 -247 -64 -477t-180 -420h-221z" />
<glyph unicode="*" horiz-adv-x="989" d="M78 1065l69 221l248 -100l-18 268h235l-20 -268l250 100l71 -219l-260 -66v-4l172 -202l-186 -138l-141 226h-4l-142 -226l-188 136l172 204v4z" />
<glyph unicode="+" horiz-adv-x="1267" d="M86 483v203h442v485h211v-485h443v-203h-443v-483h-211v483h-442z" />
<glyph unicode="," horiz-adv-x="559" d="M31 -244l147 508h258l-207 -508h-198z" />
<glyph unicode="-" horiz-adv-x="952" d="M168 471v227h616v-227h-616z" />
<glyph unicode="." horiz-adv-x="546" d="M143 0v262h260v-262h-260z" />
<glyph unicode="/" horiz-adv-x="897" d="M76 -86l522 1614h223l-522 -1614h-223z" />
<glyph unicode="0" horiz-adv-x="1275" d="M111 729q0 130 16.5 239t55 205t98 162.5t150.5 105t208 38.5q116 0 207 -38.5t150 -105t97.5 -162.5t55 -205t16.5 -239t-16.5 -239.5t-55 -206t-97.5 -164t-150 -106t-207 -38.5q-117 0 -208 38.5t-150.5 106t-98 164t-55 206t-16.5 239.5zM383 729q0 -116 12 -205 t40 -162t79.5 -112t124.5 -39q72 0 123.5 39t79.5 112t40.5 162.5t12.5 204.5q0 514 -256 514q-73 0 -124.5 -39t-79.5 -111.5t-40 -161t-12 -202.5z" />
<glyph unicode="1" horiz-adv-x="1034" d="M82 1104l364 350h232v-1239h313v-215h-889v215h318v819l2 99h-4q-17 -35 -64 -82l-116 -111z" />
<glyph unicode="2" horiz-adv-x="1216" d="M90 129q0 84 24 158.5t64 131.5t92.5 108t110 93t115 81t110 77.5t92.5 77t64 84.5t24 96q0 99 -62 153t-159 54q-48 0 -93.5 -18.5t-77 -45.5t-56 -54t-36.5 -45l-11 -19l-185 127q3 6 8.5 16.5t26.5 40.5t45.5 57.5t66 61.5t88 58t111.5 40.5t136 16.5 q130 0 236.5 -49.5t172.5 -148.5t66 -232q0 -92 -37.5 -172t-97 -139t-132 -112t-145 -100t-132.5 -93t-98.5 -102t-39.5 -116h502v184h229v-399h-1008q-14 82 -14 129z" />
<glyph unicode="3" horiz-adv-x="1187" d="M80 170l131 188q6 -6 16.5 -16t45.5 -35t71.5 -44.5t91.5 -35.5t109 -16q114 0 188 65.5t74 165.5q0 106 -79 168t-206 62q-19 0 -46.5 -2t-33.5 -2l-59 129l315 385q12 14 27.5 28.5t24.5 22.5l10 8v4q-47 -6 -82 -6h-320v-172h-229v387h918v-186l-342 -406 q72 -11 137 -41.5t119 -79.5t86 -123.5t32 -164.5q0 -94 -35 -179.5t-99 -152.5t-163.5 -106.5t-220.5 -39.5q-86 0 -167 20t-135.5 48.5t-96.5 57.5t-62 49z" />
<glyph unicode="4" horiz-adv-x="1257" d="M49 375v162l629 917h313v-872h187v-207h-187v-375h-262v375h-680zM324 582h405v485q0 24 3 55t6 50l3 20h-6q-24 -60 -57 -111l-354 -495v-4z" />
<glyph unicode="5" horiz-adv-x="1175" d="M78 162l127 190q5 -6 15 -15.5t42.5 -33.5t67.5 -43t89 -34t109 -15q121 0 204 71.5t83 180.5q0 112 -79 182t-216 70q-64 0 -123 -16.5t-85 -32.5l-27 -17l-148 56l68 749h790v-387h-229v172h-332l-28 -285l-9 -57h4q64 33 177 33q230 0 368.5 -131.5t138.5 -329.5 q0 -211 -152 -352.5t-388 -141.5q-62 0 -121 10.5t-104.5 27t-85.5 36t-68 39.5t-48.5 36.5t-29.5 27.5z" />
<glyph unicode="6" horiz-adv-x="1239" d="M102 655q0 122 26 239.5t81 223.5t134 186t192 127.5t247 47.5q77 0 150 -15.5t107 -31.5l34 -15l-76 -221q-10 5 -28.5 13t-72.5 21t-105 13q-83 0 -152 -33t-116.5 -90t-78.5 -126t-45 -148h4q41 46 120 74t167 28q137 0 245.5 -66.5t166 -176t57.5 -238.5 q0 -207 -140 -349.5t-355 -142.5q-118 0 -220 46.5t-178 132t-120 215t-44 286.5zM377 549q0 -77 35.5 -154.5t103 -130.5t146.5 -53q103 0 164 71.5t61 186.5t-72.5 189.5t-212.5 74.5q-98 0 -161.5 -51.5t-63.5 -132.5z" />
<glyph unicode="7" horiz-adv-x="1128" d="M76 1067v387h1018v-184l-637 -1270h-275l580 1161q11 24 23.5 44t18.5 28l7 8v4q-41 -6 -94 -6h-414v-172h-227z" />
<glyph unicode="8" horiz-adv-x="1241" d="M100 412q0 61 20 119.5t45.5 98t61.5 77.5t56.5 54.5t42.5 31.5q-168 120 -168 290q0 76 29 145.5t84.5 126t146.5 90.5t205 34q210 0 344.5 -108t134.5 -286q0 -189 -164 -364q199 -121 199 -315q0 -83 -35 -160t-99 -137.5t-163 -97t-217 -36.5q-231 0 -377 127 t-146 310zM365 440q0 -104 75 -169.5t183 -65.5q101 0 173 58t72 147q0 26 -8 48.5t-19 40t-34 35.5t-42 30.5t-54.5 29.5t-60.5 28t-71 31t-75 33q-59 -53 -84 -87q-55 -75 -55 -159zM418 1079q0 -21 5 -40t12 -34.5t22 -31.5t26.5 -27t35 -25.5t37.5 -22.5t44.5 -22 t46 -20.5t51 -21t50.5 -21.5q65 86 85 155q13 44 13 87q0 92 -60 143t-161 51q-99 0 -153 -48t-54 -122z" />
<glyph unicode="9" horiz-adv-x="1239" d="M80 987q0 207 140 349.5t355 142.5q117 0 219.5 -47t178.5 -132.5t120 -215t44 -285.5q0 -121 -25.5 -237.5t-80.5 -223t-133.5 -187t-192.5 -128.5t-250 -48q-77 0 -150.5 15.5t-108.5 31.5l-34 15l76 221q10 -5 29 -13t73.5 -21t105.5 -13q84 0 154 32.5t117 89.5 t78 126.5t45 150.5h-4q-41 -44 -120.5 -72t-166.5 -28q-137 0 -246 66.5t-166 175t-57 235.5zM352 987q0 -113 71.5 -186.5t205.5 -73.5q97 0 165 52t68 134q0 123 -86.5 226.5t-200.5 103.5q-99 0 -161 -73.5t-62 -182.5z" />
<glyph unicode=":" horiz-adv-x="612" d="M176 0v262h260v-262h-260zM176 780v264h260v-264h-260z" />
<glyph unicode=";" horiz-adv-x="616" d="M63 -244l127 508h261l-189 -508h-199zM193 780v264h253v-264h-253z" />
<glyph unicode="&#x3c;" horiz-adv-x="1267" d="M109 502v168l985 438v-227l-711 -293v-4l711 -293v-228z" />
<glyph unicode="=" horiz-adv-x="1267" d="M133 274v201h1000v-201h-1000zM133 694v201h1000v-201h-1000z" />
<glyph unicode="&#x3e;" horiz-adv-x="1267" d="M172 63v228l711 293v4l-711 293v227l985 -438v-168z" />
<glyph unicode="?" horiz-adv-x="989" d="M63 1335q6 6 17 16t49 35.5t79.5 45t107 35.5t133.5 16q117 0 218 -44.5t165.5 -134t64.5 -206.5q0 -69 -19.5 -127.5t-51.5 -100.5t-70 -79t-76 -69.5t-70 -65t-51.5 -72t-19.5 -84.5v-80h-250v98q0 60 18.5 112.5t48 91t65.5 73t72 65.5t65.5 62t48 69.5t18.5 81.5 q0 72 -57 121t-142 49q-52 0 -106 -21.5t-82 -43.5l-29 -21zM287 0v244h252v-244h-252z" />
<glyph unicode="@" horiz-adv-x="1648" d="M76 494q0 158 58.5 297.5t162 242t253.5 162t324 59.5q136 0 241.5 -36t168.5 -99t95 -141.5t32 -169.5v-512h148v-186h-566q-100 0 -184.5 32t-139.5 85t-85.5 121.5t-30.5 142.5q0 154 119 264t321 110h172q-1 77 -88.5 129t-212.5 52q-114 0 -213.5 -45.5t-168.5 -122 t-108.5 -179t-39.5 -213.5q0 -109 39 -207.5t109.5 -173.5t176 -119t230.5 -44v-203q-179 0 -332 58.5t-258 159.5t-164 239.5t-59 296.5zM811 494q0 -81 55.5 -139t143.5 -58h155v401h-151q-92 0 -147.5 -58t-55.5 -146z" />
<glyph unicode="A" horiz-adv-x="1492" d="M25 0v201h133l436 1253h305l436 -1253h133v-201h-546v201h143l-90 272h-459l-90 -272h143v-201h-544zM578 682h335l-137 412q-10 32 -16.5 64t-7.5 48l-2 15h-7q-6 -55 -26 -127z" />
<glyph unicode="B" horiz-adv-x="1411" d="M102 0v201h174v1050h-174v203h668q164 0 260 -39q101 -39 161 -128t60 -208q0 -102 -47 -184.5t-131 -126.5v-4q117 -35 176.5 -128.5t59.5 -215.5q0 -146 -82.5 -252t-206.5 -143q-90 -25 -217 -25h-701zM545 215h270q64 0 105 16q54 23 85 79t31 126q0 95 -56.5 153 t-154.5 58h-280v-432zM545 860h256q84 0 131 52.5t47 138.5q0 120 -84 166q-48 22 -125 22h-225v-379z" />
<glyph unicode="C" horiz-adv-x="1525" d="M88 733q0 211 99 382.5t270.5 267.5t380.5 96q59 0 127 -8t148 -29t143.5 -52.5t106 -84t42.5 -117.5v-197h-244v113q0 39 -31 68.5t-80.5 45.5t-100 23.5t-99.5 7.5q-213 0 -349 -138t-136 -366q0 -243 140.5 -391.5t358.5 -148.5q39 0 87.5 6.5t102.5 21.5t90 45t36 70 v113h243v-199q0 -62 -41 -113t-103.5 -82.5t-141.5 -53t-151.5 -30t-137.5 -8.5q-216 0 -390.5 100.5t-272 274t-97.5 383.5z" />
<glyph unicode="D" horiz-adv-x="1599" d="M102 0v201h174v1050h-174v203h629q190 0 303 -35q216 -64 343.5 -246t127.5 -446q0 -255 -120 -434.5t-330 -249.5q-120 -43 -322 -43h-631zM545 215h176q145 0 237 37q127 52 199 175.5t72 299.5q0 181 -75 304.5t-206 174.5q-84 33 -227 33h-176v-1024z" />
<glyph unicode="E" horiz-adv-x="1310" d="M102 0v201h174v1050h-174v203h1080v-375h-230v160h-407v-399h479v-215h-479v-410h438v164h229v-379h-1110z" />
<glyph unicode="F" horiz-adv-x="1204" d="M102 0v201h174v1050h-174v203h1039v-377h-230v150h-366v-418h473v-215h-473v-393h192v-201h-635z" />
<glyph unicode="G" horiz-adv-x="1572" d="M88 733q0 214 97 384t272.5 266t398.5 96q99 0 198.5 -19.5t183 -54.5t135.5 -91t52 -122v-201h-243v107q0 48 -46.5 83t-116.5 51.5t-151 16.5q-231 0 -366 -137t-135 -369q0 -238 138.5 -388t375.5 -150q50 0 102.5 7t107 22.5t89 47t34.5 74.5v156h-264v201h508v-439 q0 -78 -63 -139t-159.5 -94t-195 -49.5t-186.5 -16.5q-165 0 -307.5 58t-243 158t-158 240.5t-57.5 301.5z" />
<glyph unicode="H" horiz-adv-x="1751" d="M102 0v201h174v1050h-174v203h619v-203h-176v-420h661v420h-176v203h619v-203h-174v-1050h174v-201h-619v201h176v415h-661v-415h176v-201h-619z" />
<glyph unicode="I" horiz-adv-x="825" d="M102 0v201h174v1050h-174v203h619v-203h-176v-1050h176v-201h-619z" />
<glyph unicode="J" horiz-adv-x="1159" d="M41 414v100h258v-78q0 -99 43 -162t141 -63q81 0 130 55t49 170v815h-201v203h622v-203h-153v-825q0 -91 -25.5 -167t-69 -127.5t-101.5 -87.5t-121.5 -52.5t-131.5 -16.5q-67 0 -129.5 15.5t-119.5 50t-99 84.5t-67 124.5t-25 164.5z" />
<glyph unicode="K" horiz-adv-x="1462" d="M102 0v201h174v1050h-174v203h582v-203h-139v-395h162l276 395h-125v203h533v-203h-131l-351 -481v-4q6 -3 15.5 -9t34.5 -34t45 -66l223 -405q26 -51 96 -51h68v-201h-187q-88 0 -129.5 23.5t-75.5 85.5l-254 479q-17 29 -41 41t-67 12h-92v-440h168v-201h-611z" />
<glyph unicode="L" horiz-adv-x="1257" d="M104 0v201h175v1038h-175v215h619v-215h-176v-1024h430v225h229v-440h-1102z" />
<glyph unicode="M" horiz-adv-x="1986" d="M78 0v201h172l86 1050h-176v203h473l323 -821q11 -32 20 -62t12 -45l3 -14h4q10 49 37 121l322 821h473v-203h-174l84 -1050h172v-201h-596v201h162l-54 733q-2 28 -0.5 58t3.5 54l3 23h-6q-17 -80 -35 -129l-278 -670h-229l-279 670q-8 22 -16 54t-12 54l-5 21h-8 q1 -9 2.5 -23.5t4 -54t-0.5 -57.5l-53 -733h164v-201h-598z" />
<glyph unicode="N" horiz-adv-x="1734" d="M102 0v201h174v1050h-174v203h443l612 -936q13 -21 26 -51.5t20 -50.5l7 -21h7q-1 9 -3 24.5t-4.5 52t-1.5 60.5v719h-180v203h623v-203h-174v-1251h-269l-612 932q-13 22 -26 52.5t-20 50.5l-7 20h-8q1 -9 3 -24t5 -51t2 -60v-719h180v-201h-623z" />
<glyph unicode="O" horiz-adv-x="1679" d="M86 737q0 154 58 291t157.5 236t240 157t298.5 58q211 0 384 -98t271 -268.5t98 -375.5q0 -211 -98 -386t-271 -275.5t-384 -100.5q-158 0 -298.5 59.5t-240 161t-157.5 242.5t-58 299zM362 737q0 -222 140 -374t338 -152q130 0 239 68.5t173.5 189.5t64.5 268 q0 141 -64.5 257.5t-173.5 182.5t-239 66t-239.5 -66t-174 -182.5t-64.5 -257.5z" />
<glyph unicode="P" horiz-adv-x="1357" d="M102 0v201h174v1050h-174v203h697q159 0 245 -37q120 -50 190.5 -164.5t70.5 -265.5q0 -156 -75.5 -277t-201.5 -165q-86 -29 -223 -29h-260v-315h176v-201h-619zM545 731h225q89 0 148 29q118 59 118 227q0 156 -106 217q-57 35 -158 35h-227v-508z" />
<glyph unicode="Q" horiz-adv-x="1689" d="M88 733q0 209 97.5 379.5t271 268.5t387.5 98q212 0 384.5 -93t271.5 -260.5t99 -375.5q0 -269 -165 -474l165 -149l-151 -168l-164 162q-184 -146 -440 -146q-160 0 -301 59.5t-240.5 161t-157 241.5t-57.5 296zM365 733q0 -221 139 -371.5t340 -150.5q67 0 136 21 t120 61l-205 196l147 164l205 -202q82 134 82 286q0 214 -140 360t-345 146q-202 0 -340.5 -146t-138.5 -364z" />
<glyph unicode="R" horiz-adv-x="1468" d="M102 0v201h174v1050h-174v203h641q175 0 277 -31q125 -41 196.5 -140t71.5 -249t-73 -255t-201 -148v-4q42 -23 71 -76l168 -303q14 -27 37 -37t62 -10h47v-201h-170q-89 0 -128.5 22t-74.5 87l-207 374q-24 43 -52 58.5t-89 15.5h-133v-356h168v-201h-611zM545 772h241 q108 0 171 62.5t63 177.5q0 153 -115 200q-61 27 -164 27h-196v-467z" />
<glyph unicode="S" horiz-adv-x="1218" d="M98 303v166h244v-109q0 -68 74.5 -108.5t181.5 -40.5q113 0 182.5 47t69.5 133q0 22 -5.5 41.5t-13 35.5t-22.5 31.5t-27.5 27t-35.5 25t-39 21.5t-45 20.5t-46 19t-50 19t-50 19.5q-49 19 -83.5 33.5t-77.5 37t-73 45t-60.5 54.5t-49 67.5t-30 83t-11.5 101.5 q0 106 40.5 186.5t110 127t154.5 69.5t182 23q118 0 221 -28t171.5 -88t68.5 -140v-191h-243v98q0 53 -65 83t-153 30q-95 0 -156 -40.5t-61 -119.5q0 -46 21 -82t63 -63t84.5 -45.5t106.5 -42.5q8 -3 12 -4q57 -21 93 -35t87 -38t83 -46t68 -55.5t56 -70t33.5 -85.5 t13.5 -106q0 -108 -43 -193t-116.5 -136.5t-166.5 -78.5t-198 -27q-93 0 -180.5 21t-160 60.5t-116 103.5t-43.5 143z" />
<glyph unicode="T" horiz-adv-x="1384" d="M55 1020v434h1274v-434h-227v219h-277v-1038h176v-201h-618v201h174v1038h-274v-219h-228z" />
<glyph unicode="U" horiz-adv-x="1656" d="M63 1251v203h619v-203h-176v-704q0 -126 49 -207q38 -61 110 -95t164 -34t163 33.5t110 97.5q49 82 49 207v702h-174v203h616v-203h-174v-704q0 -222 -106 -365q-77 -102 -205 -154.5t-279 -52.5q-155 0 -281.5 54t-201.5 151q-108 134 -108 367v704h-175z" />
<glyph unicode="V" horiz-adv-x="1472" d="M20 1251v203h568v-203h-154l273 -829q8 -26 14 -59t8 -53l2 -19h8q7 72 27 131l270 829h-151v203h567v-203h-135l-443 -1251h-278l-442 1251h-134z" />
<glyph unicode="W" horiz-adv-x="2082" d="M29 1251v203h567v-203h-170l188 -829q5 -26 9.5 -58t6.5 -50l1 -19h8q7 68 23 127l272 1032h215l272 -1032q7 -26 13 -58t8 -50l2 -19h8q4 68 16 127l189 829h-170v203h567v-203h-133l-309 -1251h-301l-244 918q-7 26 -13 59.5t-8 53.5l-2 20h-6q-6 -74 -22 -133 l-244 -918h-301l-309 1251h-133z" />
<glyph unicode="X" horiz-adv-x="1417" d="M66 0v201h129l366 536l-356 514h-129v203h549v-203h-144l201 -301q12 -15 22 -30t14 -23l5 -8h4l1 1q1 1 2.5 4t4 7t6 9.5t7 11.5t8.5 13.5t10 14.5l195 301h-140v203h529v-203h-127l-369 -534l363 -516h129v-201h-551v201h143l-203 305q-12 16 -22.5 31.5t-14.5 23.5 l-4 8h-4q-2 0 -6.5 -7.5t-14 -24.5t-18.5 -31l-194 -305h141v-201h-532z" />
<glyph unicode="Y" horiz-adv-x="1347" d="M20 1251v203h541v-203h-141l221 -381l31 -65h4q13 30 33 65l221 381h-139v203h536v-203h-131l-387 -643v-407h174v-201h-618v201h176v407l-387 643h-134z" />
<glyph unicode="Z" horiz-adv-x="1316" d="M106 0v170l699 1001q13 18 28 35.5t24 25.5l9 9v4q-43 -6 -84 -6h-438v-219h-227v434h1073v-168l-698 -1003q-13 -18 -28.5 -35.5t-24.5 -25.5l-9 -9v-4q43 6 84 6h469v225h229v-440h-1106z" />
<glyph unicode="[" horiz-adv-x="675" d="M186 -195v1713h404v-189h-182v-1335h182v-189h-404z" />
<glyph unicode="\" horiz-adv-x="894" d="M76 1528h221l522 -1614h-221z" />
<glyph unicode="]" horiz-adv-x="675" d="M86 -6h182v1335h-182v189h403v-1713h-403v189z" />
<glyph unicode="^" horiz-adv-x="1267" d="M133 502l412 952h164l411 -952h-225l-268 678l-269 -678h-225z" />
<glyph unicode="_" horiz-adv-x="1165" d="M8 0h1149v-201h-1149v201z" />
<glyph unicode="`" horiz-adv-x="1009" d="M248 1829h280l224 -279h-228z" />
<glyph unicode="a" d="M57 293q0 66 24 120t62.5 89.5t92.5 62.5t106.5 42t113 24t103.5 11.5t86 2.5h66v35q0 94 -52.5 137t-140.5 43q-69 0 -143 -25t-113 -50l-39 -25l-96 180q7 5 19 14t54 31t87 39t114 31t140 14q210 0 320 -106t110 -306v-417q0 -45 45 -45h94v-195h-246 q-68 0 -100.5 31.5t-32.5 79.5v12q0 15 1.5 28t3.5 19l1 6h-4q-4 -8 -11 -21.5t-35.5 -48.5t-63 -61.5t-93.5 -48t-127 -21.5q-92 0 -169 34t-127 108t-50 176zM319 313q0 -61 41 -102t111 -41q101 0 171.5 89.5t70.5 193.5v34h-43q-39 0 -76.5 -2.5t-90 -13.5t-91 -28.5 t-66 -51t-27.5 -78.5z" />
<glyph unicode="b" horiz-adv-x="1273" d="M2 1260v194h420v-453l-4 -88h4q4 6 11.5 16.5t35.5 37.5t61 47.5t88.5 37.5t116.5 17q211 0 338 -151t127 -396q0 -246 -135.5 -396.5t-345.5 -150.5q-64 0 -119 17t-89 41.5t-58.5 49t-34.5 41.5l-10 17h-5q5 -37 5 -78v-63h-246v1260h-160zM416 516q0 -62 16 -118.5 t47 -102.5t81.5 -73t113.5 -27q112 0 188 86.5t76 236.5q0 148 -72 238t-188 90q-111 0 -186.5 -83.5t-75.5 -246.5z" />
<glyph unicode="c" horiz-adv-x="1142" d="M70 520q0 154 72.5 279.5t201.5 197.5t287 72q70 0 141 -14t137.5 -41.5t108 -78.5t41.5 -116v-143h-225v69q0 49 -60.5 76t-134.5 27q-141 0 -224 -89t-83 -233q0 -155 93.5 -243t233.5 -88q165 0 326 127l92 -185q-66 -62 -181.5 -112t-250.5 -50q-115 0 -219 38 t-183 107t-126 173t-47 227z" />
<glyph unicode="d" horiz-adv-x="1312" d="M74 522q0 248 132 397.5t345 149.5q62 0 116 -15t86.5 -37t56 -43.5t32.5 -36.5l10 -15h4q-4 30 -4 73v265h-162v194h420v-1214q0 -45 45 -45h94v-195h-245q-67 0 -100.5 31.5t-33.5 79.5v12q0 13 2 24.5t4 16.5l1 6h-5q-3 -8 -10 -21t-35.5 -46.5t-63.5 -59.5t-97.5 -47 t-135.5 -21q-208 0 -332 151t-124 396zM336 522q0 -148 71.5 -237.5t186.5 -89.5q112 0 188 81.5t76 239.5q0 137 -67 233.5t-189 96.5q-114 0 -190 -87t-76 -237z" />
<glyph unicode="e" horiz-adv-x="1142" d="M72 522q0 242 147.5 394.5t382.5 152.5q218 0 341.5 -140.5t123.5 -355.5l-6 -88h-723q12 -139 100 -214.5t213 -75.5q48 0 96.5 11.5t84 27.5t64.5 32t44 28l14 11l101 -184q-7 -6 -19 -16t-54 -35t-87.5 -44t-117 -35t-144.5 -16q-168 0 -297.5 75t-196.5 199t-67 273z M344 639h455q-3 105 -60.5 167t-142.5 62q-98 0 -165.5 -62.5t-86.5 -166.5z" />
<glyph unicode="f" horiz-adv-x="800" d="M84 850v194h162v48q0 96 30 168.5t73 112t102.5 63.5t106.5 30.5t97 6.5q27 0 54 -2.5t40 -4.5l13 -2v-209q-27 7 -80 7q-176 0 -176 -164v-54h235v-194h-235v-655h176v-195h-588v195h152v655h-162z" />
<glyph unicode="g" horiz-adv-x="1302" d="M76 549q0 146 52 262t158.5 187t252.5 71q102 0 192.5 -40t130.5 -118h4q-4 15 -4 35q0 44 30 71t89 27h260v-194h-100q-45 0 -45 -41v-746q0 -104 -31.5 -188.5t-84 -140t-124 -93.5t-149.5 -54.5t-162 -16.5q-96 0 -195 24.5t-178 65.5l80 193q14 -8 40 -19.5t102 -31 t147 -19.5q131 0 213 63t82 199v66l4 55h-4q-97 -146 -291 -146q-146 0 -254 73t-161.5 191.5t-53.5 264.5zM338 557q0 -140 69.5 -228.5t192.5 -88.5q49 0 90 15.5t76.5 49t55.5 95.5t20 147q0 301 -258 301q-117 0 -181.5 -78.5t-64.5 -212.5z" />
<glyph unicode="h" horiz-adv-x="1390" d="M49 1260v194h422v-508q0 -23 -1.5 -45t-3.5 -33l-1 -10h4q43 85 139 148t221 63q365 0 365 -397v-477h152v-195h-412v618q0 104 -36 158.5t-128 54.5q-135 0 -217 -101.5t-82 -250.5v-284h150v-195h-562v195h152v1065h-162z" />
<glyph unicode="i" horiz-adv-x="716" d="M84 850v194h422v-849h149v-195h-561v195h152v655h-162zM244 1223v231h262v-231h-262z" />
<glyph unicode="j" horiz-adv-x="643" d="M-33 -211q18 -4 45 -4q34 0 65 7.5t66 26.5t56.5 62t21.5 105v864h-162v194h422v-1069q0 -100 -32.5 -175.5t-79 -116.5t-110 -66.5t-113.5 -33t-101 -7.5q-21 0 -40.5 1.5t-28.5 2.5l-9 2v207zM221 1223v231h262v-231h-262z" />
<glyph unicode="k" horiz-adv-x="1243" d="M49 1260v194h422v-805h137l170 201h-121v194h502v-194h-135l-227 -268v-4q2 0 12 -6.5t30 -29t38 -53.5l147 -258q13 -22 30.5 -29t55.5 -7h59v-195h-194q-68 0 -101 17t-63 73l-188 330q-7 13 -17 21.5t-23 12t-23.5 4.5t-27.5 1h-61v-264h113v-195h-525v195h152v1065 h-162z" />
<glyph unicode="l" horiz-adv-x="630" d="M-8 1260v194h420v-1106q0 -75 22.5 -109t83.5 -34l49 2v-209q-43 -6 -94 -6q-54 0 -97.5 7.5t-86 30t-71.5 59.5t-46.5 98.5t-17.5 144.5v928h-162z" />
<glyph unicode="m" horiz-adv-x="2041" d="M84 850v194h272q138 0 138 -116v-47l-5 -45h5q46 91 141.5 162t214.5 71q233 0 291 -227h4q45 97 143.5 162t218.5 65q162 0 249 -98t87 -299v-477h152v-195h-412v623q0 49 -5.5 83.5t-20.5 64.5t-44 45t-73 15q-85 0 -147 -53t-90.5 -135t-28.5 -182v-266h151v-195h-410 v623q0 38 -3 65.5t-11.5 56t-23.5 46.5t-41 29t-62 11q-88 0 -150.5 -57.5t-90 -141.5t-27.5 -183v-254h149v-195h-561v195h152v612q0 43 -45 43h-117z" />
<glyph unicode="n" horiz-adv-x="1427" d="M84 850v194h274q136 0 136 -116v-47l-5 -45h5q5 14 19 37t46.5 58.5t74 65t106.5 51t139 21.5q350 0 350 -397v-477h151v-195h-409v618q0 104 -36.5 158.5t-129.5 54.5q-90 0 -160 -53t-104.5 -134.5t-34.5 -174.5v-274h149v-195h-561v195h152v610q0 45 -45 45h-117z" />
<glyph unicode="o" horiz-adv-x="1288" d="M70 522q0 156 77 282t208 195.5t288 69.5q158 0 289.5 -69.5t209 -195.5t77.5 -282q0 -157 -77.5 -283t-208 -195t-288.5 -69q-159 0 -290 69t-208 194.5t-77 283.5zM334 522q0 -143 90.5 -234t220.5 -91q129 0 219 91t90 234q0 142 -90 234t-219 92q-130 0 -220.5 -92 t-90.5 -234z" />
<glyph unicode="p" horiz-adv-x="1331" d="M59 850v194h269q68 0 98.5 -27t30.5 -71v-6l-2 -47h4q4 7 11.5 19t36 42.5t63.5 53.5t95.5 42t129.5 19q211 0 336.5 -151t125.5 -396q0 -246 -134.5 -396.5t-342.5 -150.5q-58 0 -110.5 15t-85.5 37t-58 44t-36 37l-11 15h-4q6 -37 6 -90v-248h152v-195h-563v195h151 v1020q0 45 -45 45h-117zM473 516q0 -130 69.5 -225.5t190.5 -95.5q112 0 187 86.5t75 236.5q0 148 -72 238t-188 90q-111 0 -186.5 -83.5t-75.5 -246.5z" />
<glyph unicode="q" horiz-adv-x="1271" d="M74 522q0 247 132 397t341 150q61 0 115.5 -16t93.5 -42.5t65 -51t45 -50.5h4q-4 29 -4 68v67h244v-1259h152v-195h-562v195h152v258l4 90h-4q-4 -6 -11 -17t-35 -38t-60.5 -48t-88.5 -38t-118 -17q-211 0 -338 151t-127 396zM336 522q0 -148 72 -237.5t188 -89.5 q111 0 186.5 83t75.5 246q0 132 -68 227t-192 95q-111 0 -186.5 -87t-75.5 -237z" />
<glyph unicode="r" horiz-adv-x="911" d="M84 850v194h272q140 0 140 -126v-62l-4 -65h4q37 117 126 192.5t205 75.5l47 -4v-256q-26 4 -63 4q-76 0 -136 -31.5t-96 -85.5t-54.5 -121t-18.5 -143v-227h149v-195h-561v195h152v610q0 45 -45 45h-117z" />
<glyph unicode="s" horiz-adv-x="1009" d="M72 227v121h221v-61q0 -52 59 -80.5t146 -28.5q80 0 129 28t49 79q0 18 -5 33.5t-19 28.5t-25 22t-38 20.5t-42 17t-53.5 19.5t-55.5 20q-56 19 -94.5 35t-87 44.5t-77.5 60t-49.5 79.5t-20.5 105q0 79 37 139t98 93.5t131 50t145 16.5q61 0 123.5 -12t121 -36.5 t95.5 -68.5t37 -100v-133h-223v59q0 39 -42 62.5t-112 23.5q-66 0 -108.5 -23.5t-42.5 -70.5q0 -25 12.5 -46t30 -35.5t49.5 -29t58.5 -23.5t68.5 -22q43 -14 70.5 -23.5t68 -26.5t66.5 -33.5t56 -41t47 -52t28.5 -64.5t11.5 -80q0 -102 -60.5 -175.5t-158.5 -108 t-221 -34.5q-74 0 -147 16t-136 46t-102 79.5t-39 110.5z" />
<glyph unicode="t" horiz-adv-x="780" d="M41 850v194h168v285h252v-285h237v-194h-237v-440q0 -51 15 -89.5t37 -59.5t52 -33.5t54.5 -16.5t50.5 -4l47 2v-213q-33 -6 -80 -6q-36 0 -71 3t-79.5 13.5t-83 27.5t-77 47.5t-65 70.5t-43.5 99.5t-17 131.5v467h-160z" />
<glyph unicode="u" horiz-adv-x="1386" d="M45 850v194h422v-626q0 -103 36 -157t128 -54q87 0 154 54.5t101 138.5t34 180v270h-160v194h420v-806q0 -45 45 -45h100v-193h-258q-135 0 -135 117v39l2 49h-4q-5 -15 -18.5 -38t-45.5 -58t-72.5 -63.5t-105.5 -49.5t-139 -21q-342 0 -342 398v477h-162z" />
<glyph unicode="v" horiz-adv-x="1228" d="M20 850v194h502v-194h-116l180 -516q9 -24 15.5 -52.5t8.5 -45.5l2 -17h6q7 62 25 115l182 516h-118v194h501v-194h-125l-319 -850h-299l-318 850h-127z" />
<glyph unicode="w" horiz-adv-x="1775" d="M25 850v194h501v-194h-125l138 -510q5 -23 9 -51t6 -45l1 -17h6q5 62 17 113l196 702h230l194 -702q5 -23 9 -51t5 -45l2 -17h7q4 62 16 113l139 510h-127v194h502v-194h-125l-242 -850h-294l-181 612q-6 24 -10.5 52.5t-6.5 45.5l-1 17h-6q-5 -62 -19 -115l-178 -612 h-295l-241 850h-127z" />
<glyph unicode="x" horiz-adv-x="1191" d="M80 0v195h149l230 337l-215 318h-160v194h322l161 -264l39 -73h4q18 38 41 73l164 264h299v-194h-145l-215 -311l237 -344h127v-195h-289l-184 293q-10 15 -20.5 33.5t-15.5 29.5l-5 11h-4q-16 -39 -39 -76l-180 -291h-301z" />
<glyph unicode="y" horiz-adv-x="1241" d="M20 850v194h515v-194h-123l190 -528q8 -23 14 -50t8 -43l1 -16h6q8 58 28 109l189 528h-121v194h494v-194h-119l-385 -985q-58 -150 -166 -222.5t-248 -72.5q-68 0 -131.5 18t-93.5 36l-29 18l84 190q7 -5 20 -13.5t54 -22t84 -13.5q63 0 111 32t73 89l29 65l-359 881 h-125z" />
<glyph unicode="z" horiz-adv-x="1101" d="M94 0v166l529 625q14 16 28.5 31t22.5 22l8 6v4q-47 -4 -88 -4h-272v-152h-222v346h891v-167l-524 -623q-14 -16 -28.5 -31t-22.5 -21l-8 -7v-5q45 5 86 5h294v149h224v-344h-918z" />
<glyph unicode="{" horiz-adv-x="729" d="M61 557v227q7 0 19 2t42 14.5t53 33.5t42 64.5t19 102.5v177q0 64 14 117t37 88t55 61.5t64 41.5t69.5 24t65.5 11.5t57 2.5l64 -2v-193q-17 2 -37 2q-26 0 -50 -6t-52.5 -22t-46 -53.5t-17.5 -92.5v-223q0 -57 -17.5 -105t-42.5 -75.5t-50 -46.5t-43 -26l-17 -7v-4 q7 -2 18.5 -6.5t40.5 -24t51.5 -45.5t41 -74.5t18.5 -107.5v-246q0 -45 12.5 -78.5t30 -51t42 -28.5t43 -13.5t38.5 -2.5l37 2v-193q-27 -4 -64 -4q-35 0 -68 4.5t-77 16t-80.5 36.5t-68.5 61.5t-50 95.5t-18 134v199q0 57 -18 100.5t-44 63.5t-51.5 32.5t-43.5 14.5z" />
<glyph unicode="|" horiz-adv-x="587" d="M182 -330v1960h224v-1960h-224z" />
<glyph unicode="}" horiz-adv-x="729" d="M68 -6q16 -2 36 -2t38.5 2.5t43 13.5t42 28.5t30 51t12.5 78.5v246q0 59 17.5 107.5t42 75t49 45t41.5 24.5l18 6v4q-7 2 -18 7t-40 25.5t-51.5 47t-40.5 75t-18 105.5v223q0 55 -17.5 92.5t-46 53.5t-52.5 22t-50 6l-36 -2v193q26 2 63 2q42 0 82.5 -5.5t94 -27 t92.5 -57t66.5 -101.5t27.5 -155v-177q0 -59 18 -102.5t43.5 -64.5t51 -33.5t43.5 -14.5l18 -2v-227q-7 0 -19 -2t-42 -14.5t-52.5 -32.5t-41.5 -63.5t-19 -100.5v-199q0 -75 -18.5 -134t-50.5 -95.5t-68.5 -61.5t-80.5 -36.5t-77.5 -16t-67.5 -4.5l-63 4v193z" />
<glyph unicode="~" horiz-adv-x="1263" d="M123 408q0 187 80 279.5t233 92.5q57 0 104.5 -19t79.5 -46.5t60.5 -55t62 -46.5t70.5 -19q65 0 97 51t32 127h205q0 -187 -80 -280t-233 -93q-57 0 -104 19t-79 46.5t-60.5 54.5t-62.5 46t-71 19q-64 0 -95.5 -50.5t-31.5 -125.5h-207z" />
<glyph unicode="&#xa1;" horiz-adv-x="538" d="M135 -410l21 1033h227l20 -1033h-268zM141 799v243h254v-243h-254z" />
<glyph unicode="&#xa2;" d="M74 727q0 222 120.5 383t313.5 195v172h176v-172q135 -24 237 -112t154 -220l-235 -90q-33 81 -93 131.5t-143 50.5q-119 0 -192.5 -94.5t-73.5 -243.5q0 -155 71 -246.5t195 -91.5q83 0 143 50t93 132l235 -90q-23 -58 -58.5 -110.5t-83.5 -99t-112.5 -78.5t-136.5 -41 v-177h-176v177q-193 32 -313.5 192.5t-120.5 382.5z" />
<glyph unicode="&#xa3;" horiz-adv-x="1273" d="M86 0v207h172v430h-143v178h143v248q0 181 131 298.5t334 117.5q62 0 122.5 -14.5t102.5 -35.5t75.5 -42t50.5 -35l16 -15l-142 -176q-4 3 -12 8.5t-32 20t-48.5 25t-59.5 19.5t-67 9q-91 0 -147 -53.5t-56 -134.5v-240h348v-178h-348v-422h439v225h229v-440h-1108z" />
<glyph unicode="&#xa5;" horiz-adv-x="1314" d="M76 1454h301l190 -389q21 -50 43 -108.5t34 -92.5l11 -33h4q42 121 89 234l190 389h301l-315 -594h200v-155h-280l-51 -99v-67h331v-158h-331v-381h-269v381h-334v158h334v67l-53 99h-281v155h201z" />
<glyph unicode="&#xa7;" horiz-adv-x="962" d="M80 -2l110 176q4 -4 11.5 -10t31.5 -21.5t50 -27.5t64 -21.5t75 -9.5q92 0 151.5 52.5t59.5 154.5q0 46 -19 117l-137 661h203l147 -704q15 -61 15 -117q0 -166 -111.5 -270.5t-308.5 -104.5q-60 0 -117.5 13t-96.5 31.5t-69 36.5t-45 31zM119 1104q0 165 111.5 270 t308.5 105q60 0 117.5 -13t96.5 -31.5t69 -37.5t44 -32l15 -13l-117 -166q-11 9 -30 22.5t-77.5 35.5t-115.5 22q-95 0 -154 -47.5t-59 -145.5q0 -40 16 -102l141 -688h-202l-150 704q-14 55 -14 117z" />
<glyph unicode="&#xa8;" horiz-adv-x="1009" d="M176 1591v238h213v-238h-213zM621 1591v238h213v-238h-213z" />
<glyph unicode="&#xa9;" horiz-adv-x="1632" d="M82 727q0 153 58 292t156 239.5t233 159.5t284 59q151 0 287.5 -59t235 -159.5t156.5 -239.5t58 -292t-58 -292.5t-156.5 -240t-235 -160t-287.5 -59.5q-149 0 -284 59.5t-233 160t-156 240t-58 292.5zM264 727q0 -162 72.5 -296.5t198.5 -212t278 -77.5q155 0 283 77.5 t201 212t73 296.5q0 161 -73 295t-201 211.5t-283 77.5q-114 0 -216 -45.5t-175 -123.5t-115.5 -186.5t-42.5 -228.5zM440 723q0 166 108.5 282.5t274.5 116.5q51 0 96.5 -12t78 -31t60 -42t45 -45.5t30 -41.5t17.5 -31l5 -12l-156 -73q-2 5 -6.5 13t-20 28t-33.5 35.5 t-47.5 28.5t-62.5 13q-90 0 -145 -65.5t-55 -163.5q0 -101 53.5 -165t146.5 -64q33 0 63 12t48.5 29.5t32.5 35t20 29.5l6 12l156 -71q-2 -5 -5.5 -12.5t-17 -30t-30 -43t-45 -45.5t-60.5 -43t-77.5 -30.5t-96.5 -12.5q-166 0 -274.5 116.5t-108.5 282.5z" />
<glyph unicode="&#xaa;" horiz-adv-x="864" d="M135 985q0 225 381 225h16v15q0 106 -116 106q-38 0 -80 -13.5t-65 -27.5l-23 -14l-68 121q4 3 11.5 8.5t33 19t53.5 23.5t73 18.5t91 8.5q133 0 204 -70.5t71 -196.5v-411h-170v90h-4q-2 -4 -6.5 -11t-21 -25t-36 -31.5t-53 -24.5t-70.5 -11q-88 0 -154.5 54.5 t-66.5 146.5zM137 545v139h588v-139h-588zM322 997q0 -31 21.5 -50t59.5 -19q55 0 92 45t37 102v15h-24q-186 0 -186 -93z" />
<glyph unicode="&#xab;" horiz-adv-x="1222" d="M76 578l336 421h247l-335 -421l335 -420h-247zM537 578l335 421h248l-336 -421l336 -420h-248z" />
<glyph unicode="&#xac;" horiz-adv-x="1214" d="M86 694v201h999v-602h-208v401h-791z" />
<glyph unicode="&#xad;" horiz-adv-x="952" d="M168 471v227h616v-227h-616z" />
<glyph unicode="&#xae;" horiz-adv-x="1632" d="M82 727q0 153 58 292t156 239.5t233 159.5t284 59q151 0 287.5 -59t235 -159.5t156.5 -239.5t58 -292t-58 -292.5t-156.5 -240t-235 -160t-287.5 -59.5q-149 0 -284 59.5t-233 160t-156 240t-58 292.5zM264 727q0 -162 72.5 -296.5t198.5 -212t278 -77.5q155 0 283 77.5 t201 212t73 296.5q0 161 -73 295t-201 211.5t-283 77.5q-114 0 -216 -45.5t-175 -123.5t-115.5 -186.5t-42.5 -228.5zM557 356v750h311q110 0 178 -65.5t68 -172.5q0 -79 -42 -130t-91 -64v-4q9 -8 27 -43l141 -271h-193l-127 277h-98v-277h-174zM731 756h96q51 0 80 30 t29 82q0 53 -28.5 82t-78.5 29h-98v-223z" />
<glyph unicode="&#xaf;" horiz-adv-x="1009" d="M238 1604v178h536v-178h-536z" />
<glyph unicode="&#xb0;" horiz-adv-x="823" d="M78 1157q0 133 97.5 228.5t236.5 95.5q138 0 237 -96t99 -228q0 -134 -98.5 -227.5t-237.5 -93.5q-140 0 -237 93t-97 228zM276 1157q0 -57 39.5 -96t96.5 -39t97 39t40 96q0 56 -40 95.5t-97 39.5t-96.5 -39.5t-39.5 -95.5z" />
<glyph unicode="&#xb1;" horiz-adv-x="1267" d="M86 483v203h442v485h211v-485h443v-203h-443v-483h-211v483h-442zM115 -174h1040v-201h-1040v201z" />
<glyph unicode="&#xb2;" horiz-adv-x="788" d="M66 956q0 68 23.5 126t61.5 98t84 74.5t92 62.5t84 55t61.5 59t23.5 68q0 46 -36 76.5t-87 30.5q-43 0 -84 -24t-61 -48l-19 -23l-129 113q4 7 12 17.5t37 38.5t62 49.5t86.5 39t111.5 17.5q133 0 218 -74t85 -194q0 -60 -22.5 -111t-59 -86.5t-81 -66t-89.5 -56.5 t-82.5 -51.5t-63 -57t-28.5 -67.5h285v98h156v-254h-633q-8 57 -8 90z" />
<glyph unicode="&#xb3;" horiz-adv-x="784" d="M63 983l101 131q3 -4 8.5 -10.5t24.5 -23t40.5 -29t56 -23t71.5 -10.5q61 0 103 36.5t42 92.5q0 55 -46.5 86t-111.5 31h-65l-39 92l176 215q10 11 22 22t18 16l7 5v8q-32 -8 -65 -8h-160v-105h-158v256h598v-125l-209 -241q104 -20 167 -82.5t63 -165.5 q0 -124 -91.5 -214.5t-240.5 -90.5q-59 0 -113 14t-88.5 34t-61 40.5t-38.5 34.5z" />
<glyph unicode="&#xb4;" horiz-adv-x="1009" d="M258 1550l221 279h283l-277 -279h-227z" />
<glyph unicode="&#xb6;" horiz-adv-x="1271" d="M63 975q0 201 141.5 340t340.5 139h624v-227h-434v-1329h-190v596q-199 0 -340.5 140t-141.5 341zM862 -102v1216h189v-1216h-189z" />
<glyph unicode="&#xb7;" horiz-adv-x="577" d="M162 467v262h254v-262h-254z" />
<glyph unicode="&#xb8;" horiz-adv-x="1009" d="M319 -315q42 -15 95 -15q102 0 102 62q0 33 -34 48t-85 15h-41l76 260l121 -26v-17l-35 -123q74 -5 124 -48.5t50 -112.5q0 -63 -38 -106.5t-92 -61t-120 -17.5q-29 0 -60 3.5t-47 7.5l-16 4v127z" />
<glyph unicode="&#xb9;" horiz-adv-x="724" d="M57 1524l254 241h170v-743h207v-156h-608v156h207v430q0 17 1.5 33t3.5 23l1 8h-4q-10 -19 -33 -37l-84 -80z" />
<glyph unicode="&#xba;" horiz-adv-x="952" d="M117 1133q0 149 104 245.5t254 96.5q153 0 257 -96.5t104 -245.5q0 -150 -104 -248.5t-255 -98.5t-255.5 98.5t-104.5 248.5zM147 545v139h660v-139h-660zM303 1133q0 -80 50.5 -131.5t123.5 -51.5q72 0 122 51.5t50 131.5q0 78 -50 129t-122 51q-73 0 -123.5 -51 t-50.5 -129z" />
<glyph unicode="&#xbb;" horiz-adv-x="1220" d="M102 158l336 420l-336 421h248l336 -421l-336 -420h-248zM563 158l336 420l-336 421h246l336 -421l-336 -420h-246z" />
<glyph unicode="&#xbc;" horiz-adv-x="2007" d="M90 1212l254 242h170v-743h207v-156h-608v156h206v430q0 17 1.5 33t3.5 23l2 7h-4q-10 -19 -33 -37l-84 -80zM563 0l688 1454h189l-688 -1454h-189zM1212 209v125l387 565h222v-543h118v-147h-118v-209h-193v209h-416zM1395 356h233v267q0 19 2.5 43t5.5 38l2 15h-8 q-16 -49 -41 -86l-194 -273v-4z" />
<glyph unicode="&#xbd;" horiz-adv-x="1982" d="M78 1212l254 242h170v-743h207v-156h-609v156h207v430q0 17 1.5 33t3.5 23l1 7h-4q-10 -19 -33 -37l-83 -80zM557 0l688 1454h189l-689 -1454h-188zM1257 90q0 68 24 126t62 98t83.5 74.5t91.5 62.5t84 55t62 59t24 68q0 46 -36 76t-87 30q-27 0 -53.5 -9.5t-45.5 -23.5 t-34.5 -28t-23.5 -24l-7 -9l-129 113q4 7 12 17.5t37 38.5t62 49.5t86.5 39t111.5 17.5q133 0 218 -74.5t85 -194.5q0 -60 -22.5 -111t-59 -86.5t-81 -65.5t-89.5 -56t-82.5 -51.5t-63 -57t-28.5 -67.5h285v98h155v-254h-632q-9 57 -9 90z" />
<glyph unicode="&#xbe;" horiz-adv-x="2019" d="M86 672l100 131q3 -4 8.5 -10.5t24.5 -23t40.5 -29t56 -23t71.5 -10.5q61 0 103 36.5t42 92.5q0 55 -46 85.5t-111 30.5h-66l-39 92l176 216q10 11 22 22t19 16l7 5v8q-33 -8 -66 -8h-160v-105h-157v256h598v-125l-209 -242q104 -20 166.5 -82t62.5 -165 q0 -124 -91.5 -214.5t-240.5 -90.5q-59 0 -113 14t-88.5 34.5t-60.5 40.5t-37 34zM573 0l689 1454h188l-688 -1454h-189zM1223 209v125l387 565h221v-543h119v-147h-119v-209h-193v209h-415zM1405 356h233v267q0 19 3 43t5 38l3 15h-9q-16 -49 -41 -86l-194 -273v-4z" />
<glyph unicode="&#xbf;" horiz-adv-x="987" d="M90 -45q0 79 26.5 145.5t66.5 110t86.5 86.5t86.5 77.5t66.5 81t26.5 97.5v72h249v-90q0 -60 -18.5 -112.5t-48.5 -91t-66 -73.5t-72 -66t-66 -62t-48.5 -69.5t-18.5 -80.5q0 -72 58.5 -122.5t142.5 -50.5q52 0 106.5 22.5t82.5 44.5l28 22l144 -181q-6 -6 -17 -15.5 t-48 -34.5t-78.5 -44.5t-106.5 -35t-133 -15.5q-119 0 -220 44.5t-165 133.5t-64 207zM446 801v243h252v-243h-252z" />
<glyph unicode="&#xc0;" horiz-adv-x="1484" d="M20 0v201h134l436 1253h305l436 -1253h133v-201h-546v201h143l-90 272h-459l-90 -272h143v-201h-545zM383 1829h281l223 -279h-228zM573 682h336l-137 412q-10 32 -17 64t-9 48l-1 15h-6q-6 -55 -26 -127z" />
<glyph unicode="&#xc1;" horiz-adv-x="1492" d="M25 0v201h133l436 1253h305l436 -1253h133v-201h-546v201h143l-90 272h-459l-90 -272h143v-201h-544zM578 682h335l-137 412q-10 32 -16.5 64t-7.5 48l-2 15h-7q-6 -55 -26 -127zM596 1550l221 279h283l-277 -279h-227z" />
<glyph unicode="&#xc2;" horiz-adv-x="1492" d="M25 0v201h133l436 1253h305l436 -1253h133v-201h-546v201h143l-90 272h-459l-90 -272h143v-201h-544zM422 1550l188 279h267l188 -279h-217l-103 166h-4l-102 -166h-217zM578 682h335l-137 412q-10 32 -16.5 64t-7.5 48l-2 15h-7q-6 -55 -26 -127z" />
<glyph unicode="&#xc3;" horiz-adv-x="1492" d="M25 0v201h133l436 1253h305l436 -1253h133v-201h-546v201h143l-90 272h-459l-90 -272h143v-201h-544zM371 1552q0 281 229 281q48 0 89 -20.5t64 -45t51.5 -45t55.5 -20.5q41 0 60.5 35t19.5 90h180q0 -281 -231 -281q-48 0 -89 20.5t-64 45t-51.5 45t-55.5 20.5 q-40 0 -59 -34.5t-19 -90.5h-180zM578 682h335l-137 412q-10 32 -16.5 64t-7.5 48l-2 15h-7q-6 -55 -26 -127z" />
<glyph unicode="&#xc4;" horiz-adv-x="1492" d="M25 0v201h133l436 1253h305l436 -1253h133v-201h-546v201h143l-90 272h-459l-90 -272h143v-201h-544zM416 1591v238h213v-238h-213zM578 682h335l-137 412q-10 32 -16.5 64t-7.5 48l-2 15h-7q-6 -55 -26 -127zM860 1591v238h213v-238h-213z" />
<glyph unicode="&#xc5;" horiz-adv-x="1492" d="M25 0v201h133l436 1253h305l436 -1253h133v-201h-546v201h143l-90 272h-459l-90 -272h143v-201h-544zM537 1694q0 82 62 129t146 47q85 0 148 -47t63 -129t-62.5 -128t-148.5 -46q-84 0 -146 46t-62 128zM578 682h335l-137 412q-10 32 -16.5 64t-7.5 48l-2 15h-7 q-6 -55 -26 -127zM672 1694q0 -34 20 -55t53 -21q35 0 55.5 21t20.5 55q0 37 -20.5 58.5t-55.5 21.5q-33 0 -53 -22t-20 -58z" />
<glyph unicode="&#xc6;" horiz-adv-x="1968" d="M25 0v201h120l437 1050h-154v203h1411v-375h-215v160h-414v-399h473v-215h-473v-410h445v160h215v-375h-1100v201h172v428h-358l-170 -428h147v-201h-536zM664 831h278v408h-115z" />
<glyph unicode="&#xc7;" horiz-adv-x="1525" d="M88 733q0 211 99 382.5t270.5 267.5t380.5 96q59 0 127 -8t148 -29t143.5 -52.5t106 -84t42.5 -117.5v-197h-244v113q0 39 -31 68.5t-80.5 45.5t-100 23.5t-99.5 7.5q-213 0 -349 -138t-136 -366q0 -243 140.5 -391.5t358.5 -148.5q39 0 87.5 6.5t102.5 21.5t90 45t36 70 v113h243v-199q0 -59 -37 -108.5t-95 -80.5t-132.5 -53.5t-144.5 -32.5t-137 -12l-23 -86q74 -5 124 -48.5t50 -112.5q0 -63 -38 -106.5t-92 -61t-120 -17.5q-29 0 -60 3.5t-47 7.5l-16 4v127q42 -15 95 -15q102 0 102 62q0 33 -34 48t-85 15h-41l53 187q-289 34 -473 245.5 t-184 505.5z" />
<glyph unicode="&#xc8;" horiz-adv-x="1310" d="M102 0v201h174v1050h-174v203h1080v-375h-230v160h-407v-399h479v-215h-479v-410h438v164h229v-379h-1110zM322 1829h280l223 -279h-227z" />
<glyph unicode="&#xc9;" horiz-adv-x="1310" d="M102 0v201h174v1050h-174v203h1080v-375h-230v160h-407v-399h479v-215h-479v-410h438v164h229v-379h-1110zM530 1550l222 279h282l-276 -279h-228z" />
<glyph unicode="&#xca;" horiz-adv-x="1310" d="M102 0v201h174v1050h-174v203h1080v-375h-230v160h-407v-399h479v-215h-479v-410h438v164h229v-379h-1110zM356 1550l189 279h266l188 -279h-217l-102 166h-4l-103 -166h-217z" />
<glyph unicode="&#xcb;" horiz-adv-x="1310" d="M102 0v201h174v1050h-174v203h1080v-375h-230v160h-407v-399h479v-215h-479v-410h438v164h229v-379h-1110zM350 1591v238h213v-238h-213zM795 1591v238h213v-238h-213z" />
<glyph unicode="&#xcc;" horiz-adv-x="825" d="M55 1829h281l223 -279h-227zM102 0v201h174v1050h-174v203h619v-203h-176v-1050h176v-201h-619z" />
<glyph unicode="&#xcd;" horiz-adv-x="825" d="M102 0v201h174v1050h-174v203h619v-203h-176v-1050h176v-201h-619zM264 1550l221 279h283l-276 -279h-228z" />
<glyph unicode="&#xce;" horiz-adv-x="825" d="M90 1550l189 279h266l188 -279h-217l-102 166h-4l-103 -166h-217zM102 0v201h174v1050h-174v203h619v-203h-176v-1050h176v-201h-619z" />
<glyph unicode="&#xcf;" horiz-adv-x="825" d="M84 1591v238h213v-238h-213zM102 0v201h174v1050h-174v203h619v-203h-176v-1050h176v-201h-619zM528 1591v238h213v-238h-213z" />
<glyph unicode="&#xd0;" horiz-adv-x="1613" d="M102 0v201h174v415h-149v215h149v420h-174v203h674q342 0 543 -192t201 -533t-201.5 -535t-542.5 -194h-674zM545 215h217q222 0 350.5 133t128.5 381q0 244 -129.5 377t-349.5 133h-217v-408h284v-215h-284v-401z" />
<glyph unicode="&#xd1;" horiz-adv-x="1734" d="M102 0v201h174v1050h-174v203h443l612 -936q13 -21 26 -51.5t20 -50.5l7 -21h7q-1 9 -3 24.5t-4.5 52t-1.5 60.5v719h-180v203h623v-203h-174v-1251h-269l-612 932q-13 22 -26 52.5t-20 50.5l-7 20h-8q1 -9 3 -24t5 -51t2 -60v-719h180v-201h-623zM500 1552 q0 281 229 281q48 0 89 -20.5t64 -45t51.5 -45t55.5 -20.5q41 0 60.5 35t19.5 90h180q0 -281 -231 -281q-48 0 -89 20.5t-64 45t-51.5 45t-55.5 20.5q-40 0 -59 -34.5t-19 -90.5h-180z" />
<glyph unicode="&#xd2;" horiz-adv-x="1679" d="M86 737q0 154 58 291t157.5 236t240 157t298.5 58q211 0 384 -98t271 -268.5t98 -375.5q0 -211 -98 -386t-271 -275.5t-384 -100.5q-158 0 -298.5 59.5t-240 161t-157.5 242.5t-58 299zM362 737q0 -222 140 -374t338 -152q130 0 239 68.5t173.5 189.5t64.5 268 q0 141 -64.5 257.5t-173.5 182.5t-239 66t-239.5 -66t-174 -182.5t-64.5 -257.5zM483 1829h281l223 -279h-227z" />
<glyph unicode="&#xd3;" horiz-adv-x="1679" d="M86 737q0 154 58 291t157.5 236t240 157t298.5 58q211 0 384 -98t271 -268.5t98 -375.5q0 -211 -98 -386t-271 -275.5t-384 -100.5q-158 0 -298.5 59.5t-240 161t-157.5 242.5t-58 299zM362 737q0 -222 140 -374t338 -152q130 0 239 68.5t173.5 189.5t64.5 268 q0 141 -64.5 257.5t-173.5 182.5t-239 66t-239.5 -66t-174 -182.5t-64.5 -257.5zM692 1550l221 279h283l-276 -279h-228z" />
<glyph unicode="&#xd4;" horiz-adv-x="1679" d="M86 737q0 154 58 291t157.5 236t240 157t298.5 58q211 0 384 -98t271 -268.5t98 -375.5q0 -211 -98 -386t-271 -275.5t-384 -100.5q-158 0 -298.5 59.5t-240 161t-157.5 242.5t-58 299zM362 737q0 -222 140 -374t338 -152q130 0 239 68.5t173.5 189.5t64.5 268 q0 141 -64.5 257.5t-173.5 182.5t-239 66t-239.5 -66t-174 -182.5t-64.5 -257.5zM518 1550l189 279h266l188 -279h-217l-102 166h-4l-103 -166h-217z" />
<glyph unicode="&#xd5;" horiz-adv-x="1679" d="M86 737q0 154 58 291t157.5 236t240 157t298.5 58q211 0 384 -98t271 -268.5t98 -375.5q0 -211 -98 -386t-271 -275.5t-384 -100.5q-158 0 -298.5 59.5t-240 161t-157.5 242.5t-58 299zM362 737q0 -222 140 -374t338 -152q130 0 239 68.5t173.5 189.5t64.5 268 q0 141 -64.5 257.5t-173.5 182.5t-239 66t-239.5 -66t-174 -182.5t-64.5 -257.5zM467 1552q0 281 229 281q48 0 89 -20.5t64 -45t51.5 -45t55.5 -20.5q41 0 60.5 35t19.5 90h181q0 -138 -58.5 -209.5t-173.5 -71.5q-48 0 -89 20.5t-64 45t-51.5 45t-55.5 20.5 q-40 0 -59 -34.5t-19 -90.5h-180z" />
<glyph unicode="&#xd6;" horiz-adv-x="1679" d="M86 737q0 154 58 291t157.5 236t240 157t298.5 58q211 0 384 -98t271 -268.5t98 -375.5q0 -211 -98 -386t-271 -275.5t-384 -100.5q-158 0 -298.5 59.5t-240 161t-157.5 242.5t-58 299zM362 737q0 -222 140 -374t338 -152q130 0 239 68.5t173.5 189.5t64.5 268 q0 141 -64.5 257.5t-173.5 182.5t-239 66t-239.5 -66t-174 -182.5t-64.5 -257.5zM512 1591v238h213v-238h-213zM956 1591v238h213v-238h-213z" />
<glyph unicode="&#xd7;" horiz-adv-x="1267" d="M92 141l404 445l-404 442l144 143l397 -438l399 438l144 -143l-406 -442l406 -445l-144 -141l-399 438l-397 -438z" />
<glyph unicode="&#xd8;" horiz-adv-x="1675" d="M86 737q0 154 58 291t157.5 236t239.5 157t297 58q196 0 372 -95l90 123l117 -80l-88 -122q123 -102 191.5 -250t68.5 -318q0 -158 -57.5 -299t-157 -242.5t-239 -161t-297.5 -59.5q-216 0 -389 107l-97 -135l-119 80l101 139q-117 104 -182.5 252t-65.5 319zM358 737 q0 -212 131 -356l574 797q-108 59 -225 59q-200 0 -340 -143.5t-140 -356.5zM596 287q109 -70 242 -70q201 0 340 149t139 371q0 104 -37 196t-104 159z" />
<glyph unicode="&#xd9;" horiz-adv-x="1656" d="M63 1251v203h619v-203h-176v-704q0 -126 49 -207q38 -61 110 -95t164 -34t163 33.5t110 97.5q49 82 49 207v702h-174v203h616v-203h-174v-704q0 -222 -106 -365q-77 -102 -205 -154.5t-279 -52.5q-155 0 -281.5 54t-201.5 151q-108 134 -108 367v704h-175zM471 1829h281 l223 -279h-227z" />
<glyph unicode="&#xda;" horiz-adv-x="1656" d="M63 1251v203h619v-203h-176v-704q0 -126 49 -207q38 -61 110 -95t164 -34t163 33.5t110 97.5q49 82 49 207v702h-174v203h616v-203h-174v-704q0 -222 -106 -365q-77 -102 -205 -154.5t-279 -52.5q-155 0 -281.5 54t-201.5 151q-108 134 -108 367v704h-175zM682 1550 l221 279h283l-277 -279h-227z" />
<glyph unicode="&#xdb;" horiz-adv-x="1656" d="M63 1251v203h619v-203h-176v-704q0 -126 49 -207q38 -61 110 -95t164 -34t163 33.5t110 97.5q49 82 49 207v702h-174v203h616v-203h-174v-704q0 -222 -106 -365q-77 -102 -205 -154.5t-279 -52.5q-155 0 -281.5 54t-201.5 151q-108 134 -108 367v704h-175zM508 1550 l188 279h267l188 -279h-217l-103 166h-4l-102 -166h-217z" />
<glyph unicode="&#xdc;" horiz-adv-x="1656" d="M63 1251v203h619v-203h-176v-704q0 -126 49 -207q38 -61 110 -95t164 -34t163 33.5t110 97.5q49 82 49 207v702h-174v203h616v-203h-174v-704q0 -222 -106 -365q-77 -102 -205 -154.5t-279 -52.5q-155 0 -281.5 54t-201.5 151q-108 134 -108 367v704h-175zM500 1591v238 h213v-238h-213zM944 1591v238h213v-238h-213z" />
<glyph unicode="&#xdd;" horiz-adv-x="1347" d="M20 1251v203h541v-203h-141l221 -381l31 -65h4q13 30 33 65l221 381h-139v203h536v-203h-131l-387 -643v-407h174v-201h-618v201h176v407l-387 643h-134zM530 1550l222 279h282l-276 -279h-228z" />
<glyph unicode="&#xde;" horiz-adv-x="1347" d="M102 0v201h174v1050h-174v203h619v-203h-180v-125h319q204 0 322 -102t118 -279q0 -180 -118 -285.5t-322 -105.5h-319v-153h180v-201h-619zM541 555h256q116 0 175.5 48.5t59.5 141.5q0 181 -231 181h-260v-371z" />
<glyph unicode="&#xdf;" horiz-adv-x="1306" d="M59 0v195h152v888q0 124 69 216t175 136t229 44q178 0 300 -102t122 -255q0 -51 -18.5 -96.5t-45.5 -77.5t-54 -61t-45.5 -61t-18.5 -64t34 -66t82 -69t96.5 -76t82.5 -102.5t34 -133.5q0 -80 -30 -144t-81.5 -103.5t-117 -60.5t-139.5 -21q-83 0 -151.5 13.5t-95.5 26.5 l-28 13v221q12 -6 33.5 -15t84 -23.5t120.5 -14.5q63 0 104 30t41 93q0 32 -24.5 64t-61.5 58t-79.5 59t-79.5 66t-61.5 80t-24.5 99q0 45 18.5 86.5t45.5 73.5t54 63t45.5 67t18.5 72q0 58 -44.5 98.5t-123.5 40.5q-86 0 -145.5 -48.5t-59.5 -143.5v-1065h-412z" />
<glyph unicode="&#xe0;" d="M57 293q0 66 24 120t62.5 89.5t92.5 62.5t106.5 42t113 24t103.5 11.5t86 2.5h66v35q0 94 -52.5 137t-140.5 43q-69 0 -143 -25t-113 -50l-39 -25l-96 180q7 5 19 14t54 31t87 39t114 31t140 14q210 0 320 -106t110 -306v-417q0 -45 45 -45h94v-195h-246 q-68 0 -100.5 31.5t-32.5 79.5v12q0 15 1.5 28t3.5 19l1 6h-4q-4 -8 -11 -21.5t-35.5 -48.5t-63 -61.5t-93.5 -48t-127 -21.5q-92 0 -169 34t-127 108t-50 176zM193 1452h280l223 -278h-227zM319 313q0 -61 41 -102t111 -41q101 0 171.5 89.5t70.5 193.5v34h-43 q-39 0 -76.5 -2.5t-90 -13.5t-91 -28.5t-66 -51t-27.5 -78.5z" />
<glyph unicode="&#xe1;" d="M57 293q0 66 24 120t62.5 89.5t92.5 62.5t106.5 42t113 24t103.5 11.5t86 2.5h66v35q0 94 -52.5 137t-140.5 43q-69 0 -143 -25t-113 -50l-39 -25l-96 180q7 5 19 14t54 31t87 39t114 31t140 14q210 0 320 -106t110 -306v-417q0 -45 45 -45h94v-195h-246 q-68 0 -100.5 31.5t-32.5 79.5v12q0 15 1.5 28t3.5 19l1 6h-4q-4 -8 -11 -21.5t-35.5 -48.5t-63 -61.5t-93.5 -48t-127 -21.5q-92 0 -169 34t-127 108t-50 176zM319 313q0 -61 41 -102t111 -41q101 0 171.5 89.5t70.5 193.5v34h-43q-39 0 -76.5 -2.5t-90 -13.5t-91 -28.5 t-66 -51t-27.5 -78.5zM401 1174l222 278h282l-276 -278h-228z" />
<glyph unicode="&#xe2;" d="M57 293q0 66 24 120t62.5 89.5t92.5 62.5t106.5 42t113 24t103.5 11.5t86 2.5h66v35q0 94 -52.5 137t-140.5 43q-69 0 -143 -25t-113 -50l-39 -25l-96 180q7 5 19 14t54 31t87 39t114 31t140 14q210 0 320 -106t110 -306v-417q0 -45 45 -45h94v-195h-246 q-68 0 -100.5 31.5t-32.5 79.5v12q0 15 1.5 28t3.5 19l1 6h-4q-4 -8 -11 -21.5t-35.5 -48.5t-63 -61.5t-93.5 -48t-127 -21.5q-92 0 -169 34t-127 108t-50 176zM227 1174l189 278h266l188 -278h-217l-102 165h-4l-103 -165h-217zM319 313q0 -61 41 -102t111 -41 q101 0 171.5 89.5t70.5 193.5v34h-43q-39 0 -76.5 -2.5t-90 -13.5t-91 -28.5t-66 -51t-27.5 -78.5z" />
<glyph unicode="&#xe3;" d="M57 293q0 66 24 120t62.5 89.5t92.5 62.5t106.5 42t113 24t103.5 11.5t86 2.5h66v35q0 94 -52.5 137t-140.5 43q-69 0 -143 -25t-113 -50l-39 -25l-96 180q7 5 19 14t54 31t87 39t114 31t140 14q210 0 320 -106t110 -306v-417q0 -45 45 -45h94v-195h-246 q-68 0 -100.5 31.5t-32.5 79.5v12q0 15 1.5 28t3.5 19l1 6h-4q-4 -8 -11 -21.5t-35.5 -48.5t-63 -61.5t-93.5 -48t-127 -21.5q-92 0 -169 34t-127 108t-50 176zM176 1176q0 280 230 280q48 0 89 -20.5t64 -45t51.5 -45t55.5 -20.5q41 0 60 35t19 90h181q0 -138 -58.5 -209.5 t-173.5 -71.5q-48 0 -89 20.5t-64 45t-51.5 45t-55.5 20.5q-40 0 -59 -34.5t-19 -89.5h-180zM319 313q0 -61 41 -102t111 -41q101 0 171.5 89.5t70.5 193.5v34h-43q-39 0 -76.5 -2.5t-90 -13.5t-91 -28.5t-66 -51t-27.5 -78.5z" />
<glyph unicode="&#xe4;" d="M57 293q0 66 24 120t62.5 89.5t92.5 62.5t106.5 42t113 24t103.5 11.5t86 2.5h66v35q0 94 -52.5 137t-140.5 43q-69 0 -143 -25t-113 -50l-39 -25l-96 180q7 5 19 14t54 31t87 39t114 31t140 14q210 0 320 -106t110 -306v-417q0 -45 45 -45h94v-195h-246 q-68 0 -100.5 31.5t-32.5 79.5v12q0 15 1.5 28t3.5 19l1 6h-4q-4 -8 -11 -21.5t-35.5 -48.5t-63 -61.5t-93.5 -48t-127 -21.5q-92 0 -169 34t-127 108t-50 176zM221 1214v238h213v-238h-213zM319 313q0 -61 41 -102t111 -41q101 0 171.5 89.5t70.5 193.5v34h-43 q-39 0 -76.5 -2.5t-90 -13.5t-91 -28.5t-66 -51t-27.5 -78.5zM666 1214v238h213v-238h-213z" />
<glyph unicode="&#xe5;" d="M57 293q0 66 24 120t62.5 89.5t92.5 62.5t106.5 42t113 24t103.5 11.5t86 2.5h66v35q0 94 -52.5 137t-140.5 43q-69 0 -143 -25t-113 -50l-39 -25l-96 180q7 5 19 14t54 31t87 39t114 31t140 14q210 0 320 -106t110 -306v-417q0 -45 45 -45h94v-195h-246 q-68 0 -100.5 31.5t-32.5 79.5v12q0 15 1.5 28t3.5 19l1 6h-4q-4 -8 -11 -21.5t-35.5 -48.5t-63 -61.5t-93.5 -48t-127 -21.5q-92 0 -169 34t-127 108t-50 176zM319 313q0 -61 41 -102t111 -41q101 0 171.5 89.5t70.5 193.5v34h-43q-39 0 -76.5 -2.5t-90 -13.5t-91 -28.5 t-66 -51t-27.5 -78.5zM342 1317q0 82 62.5 129t146.5 47q85 0 148 -47t63 -129t-62.5 -128t-148.5 -46q-84 0 -146.5 46t-62.5 128zM477 1317q0 -34 20 -55t54 -21q35 0 55.5 21t20.5 55q0 37 -20.5 58.5t-55.5 21.5q-33 0 -53.5 -22t-20.5 -58z" />
<glyph unicode="&#xe6;" horiz-adv-x="1753" d="M57 297q0 344 613 344h41v29q0 104 -51.5 147t-143.5 43q-69 0 -143.5 -25t-114.5 -50l-39 -25l-96 180q7 5 19.5 14t54.5 31t87 39t114.5 31t140.5 14q234 0 327 -154h4q126 154 349 154q212 0 336 -141t124 -357l-6 -86h-715q13 -145 98 -221t210 -76q75 0 150 29 t113 57l38 29l100 -178q-7 -6 -19 -16t-53.5 -36t-87 -46t-116.5 -36t-144 -16q-151 0 -261 60.5t-175 169.5h-4q-9 -20 -24.5 -43t-49.5 -58t-75 -61.5t-105.5 -46t-138.5 -19.5q-151 0 -254 86.5t-103 233.5zM313 309q0 -57 42 -96t114 -39q101 0 172.5 87.5t71.5 191.5 v30h-72q-60 0 -112 -7.5t-103.5 -25t-82 -53.5t-30.5 -88zM967 641h450q-3 100 -60.5 162.5t-139.5 62.5q-99 0 -163.5 -58.5t-86.5 -166.5z" />
<glyph unicode="&#xe7;" horiz-adv-x="1142" d="M70 520q0 154 72.5 279.5t201.5 197.5t287 72q70 0 141 -14t137.5 -41.5t108 -78.5t41.5 -116v-143h-225v69q0 49 -60.5 76t-134.5 27q-141 0 -224 -89t-83 -233q0 -155 93.5 -243t233.5 -88q165 0 326 127l92 -185q-64 -60 -174 -109t-241 -53l-23 -86q74 -5 124 -48.5 t50 -112.5q0 -63 -38 -106.5t-92 -61t-120 -17.5q-29 0 -60 3.5t-47 7.5l-16 4v127q42 -15 95 -15q100 0 100 62q0 63 -117 63h-41l53 191q-199 34 -329.5 176.5t-130.5 357.5z" />
<glyph unicode="&#xe8;" horiz-adv-x="1142" d="M72 522q0 242 147.5 394.5t382.5 152.5q218 0 341.5 -140.5t123.5 -355.5l-6 -88h-723q12 -139 100 -214.5t213 -75.5q48 0 96.5 11.5t84 27.5t64.5 32t44 28l14 11l101 -184q-7 -6 -19 -16t-54 -35t-87.5 -44t-117 -35t-144.5 -16q-168 0 -297.5 75t-196.5 199t-67 273z M244 1452h280l224 -278h-228zM344 639h455q-3 105 -60.5 167t-142.5 62q-98 0 -165.5 -62.5t-86.5 -166.5z" />
<glyph unicode="&#xe9;" horiz-adv-x="1142" d="M72 522q0 242 147.5 394.5t382.5 152.5q218 0 341.5 -140.5t123.5 -355.5l-6 -88h-723q12 -139 100 -214.5t213 -75.5q48 0 96.5 11.5t84 27.5t64.5 32t44 28l14 11l101 -184q-7 -6 -19 -16t-54 -35t-87.5 -44t-117 -35t-144.5 -16q-168 0 -297.5 75t-196.5 199t-67 273z M344 639h455q-3 105 -60.5 167t-142.5 62q-98 0 -165.5 -62.5t-86.5 -166.5zM453 1174l221 278h282l-276 -278h-227z" />
<glyph unicode="&#xea;" horiz-adv-x="1142" d="M72 522q0 242 147.5 394.5t382.5 152.5q218 0 341.5 -140.5t123.5 -355.5l-6 -88h-723q12 -139 100 -214.5t213 -75.5q48 0 96.5 11.5t84 27.5t64.5 32t44 28l14 11l101 -184q-7 -6 -19 -16t-54 -35t-87.5 -44t-117 -35t-144.5 -16q-168 0 -297.5 75t-196.5 199t-67 273z M279 1174l188 278h266l189 -278h-217l-103 165h-4l-102 -165h-217zM344 639h455q-3 105 -60.5 167t-142.5 62q-98 0 -165.5 -62.5t-86.5 -166.5z" />
<glyph unicode="&#xeb;" horiz-adv-x="1142" d="M72 522q0 242 147.5 394.5t382.5 152.5q218 0 341.5 -140.5t123.5 -355.5l-6 -88h-723q12 -139 100 -214.5t213 -75.5q48 0 96.5 11.5t84 27.5t64.5 32t44 28l14 11l101 -184q-7 -6 -19 -16t-54 -35t-87.5 -44t-117 -35t-144.5 -16q-168 0 -297.5 75t-196.5 199t-67 273z M272 1214v238h213v-238h-213zM344 639h455q-3 105 -60.5 167t-142.5 62q-98 0 -165.5 -62.5t-86.5 -166.5zM717 1214v238h213v-238h-213z" />
<glyph unicode="&#xec;" horiz-adv-x="702" d="M8 1452h281l223 -278h-227zM86 850v194h412v-849h143v-195h-547v195h144v655h-152z" />
<glyph unicode="&#xed;" horiz-adv-x="702" d="M86 850v194h412v-849h143v-195h-547v195h144v655h-152zM219 1174l221 278h283l-277 -278h-227z" />
<glyph unicode="&#xee;" horiz-adv-x="702" d="M45 1174l188 278h267l188 -278h-217l-102 165h-4l-103 -165h-217zM86 850v194h412v-849h143v-195h-547v195h144v655h-152z" />
<glyph unicode="&#xef;" horiz-adv-x="702" d="M57 1214v240h211v-240h-211zM86 850v194h412v-849h143v-195h-547v195h144v655h-152zM444 1214v240h213v-240h-213z" />
<glyph unicode="&#xf0;" horiz-adv-x="1212" d="M76 485q0 92 32.5 175.5t91.5 148.5t151 104t204 39q58 0 110.5 -15t75.5 -29l23 -15h4q-28 65 -81.5 125t-117.5 100l-370 -157l-13 124l244 107q-119 58 -254 90l72 205q261 -58 461 -178l286 125l13 -127l-189 -82q134 -119 211.5 -285.5t77.5 -370.5q0 -87 -18 -169 t-59 -160t-101 -136.5t-151.5 -93.5t-203.5 -35q-116 0 -212 43t-157.5 114.5t-95.5 163t-34 189.5zM338 479q0 -74 25.5 -137t82 -105t134.5 -42q68 0 121 29t83.5 77t46 104.5t15.5 116.5q0 100 -66.5 164t-177.5 64q-127 0 -195.5 -79.5t-68.5 -191.5z" />
<glyph unicode="&#xf1;" horiz-adv-x="1427" d="M84 850v194h274q136 0 136 -116v-47l-5 -45h5q5 14 19 37t46.5 58.5t74 65t106.5 51t139 21.5q350 0 350 -397v-477h151v-195h-409v618q0 104 -36.5 158.5t-129.5 54.5q-90 0 -160 -53t-104.5 -134.5t-34.5 -174.5v-274h149v-195h-561v195h152v610q0 45 -45 45h-117z M377 1176q0 280 229 280q48 0 89 -20.5t64 -45t51.5 -45t55.5 -20.5q41 0 60.5 35t19.5 90h180q0 -281 -231 -281q-48 0 -89 20.5t-64 45t-51.5 45t-55.5 20.5q-40 0 -59 -34.5t-19 -89.5h-180z" />
<glyph unicode="&#xf2;" horiz-adv-x="1288" d="M70 522q0 156 77 282t208 195.5t288 69.5q158 0 289.5 -69.5t209 -195.5t77.5 -282q0 -157 -77.5 -283t-208 -195t-288.5 -69q-159 0 -290 69t-208 194.5t-77 283.5zM287 1452h280l224 -278h-228zM334 522q0 -143 90.5 -234t220.5 -91q129 0 219 91t90 234q0 142 -90 234 t-219 92q-130 0 -220.5 -92t-90.5 -234z" />
<glyph unicode="&#xf3;" horiz-adv-x="1288" d="M70 522q0 156 77 282t208 195.5t288 69.5q158 0 289.5 -69.5t209 -195.5t77.5 -282q0 -157 -77.5 -283t-208 -195t-288.5 -69q-159 0 -290 69t-208 194.5t-77 283.5zM334 522q0 -143 90.5 -234t220.5 -91q129 0 219 91t90 234q0 142 -90 234t-219 92q-130 0 -220.5 -92 t-90.5 -234zM498 1174l221 278h282l-276 -278h-227z" />
<glyph unicode="&#xf4;" horiz-adv-x="1288" d="M70 522q0 156 77 282t208 195.5t288 69.5q158 0 289.5 -69.5t209 -195.5t77.5 -282q0 -157 -77.5 -283t-208 -195t-288.5 -69q-159 0 -290 69t-208 194.5t-77 283.5zM324 1174l188 278h266l189 -278h-217l-103 165h-4l-102 -165h-217zM334 522q0 -143 90.5 -234 t220.5 -91q129 0 219 91t90 234q0 142 -90 234t-219 92q-130 0 -220.5 -92t-90.5 -234z" />
<glyph unicode="&#xf5;" horiz-adv-x="1288" d="M70 522q0 156 77 282t208 195.5t288 69.5q158 0 289.5 -69.5t209 -195.5t77.5 -282q0 -157 -77.5 -283t-208 -195t-288.5 -69q-159 0 -290 69t-208 194.5t-77 283.5zM270 1176q0 280 230 280q48 0 89 -20.5t64 -45t51.5 -45t55.5 -20.5q41 0 60.5 35t19.5 90h180 q0 -138 -58.5 -209.5t-173.5 -71.5q-48 0 -89 20.5t-64 45t-51.5 45t-55.5 20.5q-77 0 -77 -124h-181zM334 522q0 -143 90.5 -234t220.5 -91q129 0 219 91t90 234q0 142 -90 234t-219 92q-130 0 -220.5 -92t-90.5 -234z" />
<glyph unicode="&#xf6;" horiz-adv-x="1288" d="M70 522q0 156 77 282t208 195.5t288 69.5q158 0 289.5 -69.5t209 -195.5t77.5 -282q0 -157 -77.5 -283t-208 -195t-288.5 -69q-159 0 -290 69t-208 194.5t-77 283.5zM315 1214v238h213v-238h-213zM334 522q0 -143 90.5 -234t220.5 -91q129 0 219 91t90 234q0 142 -90 234 t-219 92q-130 0 -220.5 -92t-90.5 -234zM760 1214v238h213v-238h-213z" />
<glyph unicode="&#xf7;" horiz-adv-x="1267" d="M100 483v203h1067v-203h-1067zM516 55v221h236v-221h-236zM516 895v221h236v-221h-236z" />
<glyph unicode="&#xf8;" horiz-adv-x="1286" d="M70 522q0 156 77 282t208 195.5t288 69.5q143 0 279 -68l82 117l102 -71l-82 -111q90 -76 142.5 -183.5t52.5 -230.5q0 -157 -78 -283t-209 -195t-289 -69q-138 0 -264 60l-84 -119l-102 74l77 108q-93 76 -146.5 185.5t-53.5 238.5zM334 522q0 -127 84 -221l366 512 q-80 35 -141 35q-130 0 -219.5 -92t-89.5 -234zM516 225q65 -28 127 -28q130 0 220.5 91t90.5 234q0 115 -75 207z" />
<glyph unicode="&#xf9;" horiz-adv-x="1386" d="M45 850v194h422v-626q0 -103 36 -157t128 -54q87 0 154 54.5t101 138.5t34 180v270h-160v194h420v-806q0 -45 45 -45h100v-193h-258q-135 0 -135 117v39l2 49h-4q-5 -15 -18.5 -38t-45.5 -58t-72.5 -63.5t-105.5 -49.5t-139 -21q-342 0 -342 398v477h-162zM307 1452h281 l223 -278h-227z" />
<glyph unicode="&#xfa;" horiz-adv-x="1386" d="M45 850v194h422v-626q0 -103 36 -157t128 -54q87 0 154 54.5t101 138.5t34 180v270h-160v194h420v-806q0 -45 45 -45h100v-193h-258q-135 0 -135 117v39l2 49h-4q-5 -15 -18.5 -38t-45.5 -58t-72.5 -63.5t-105.5 -49.5t-139 -21q-342 0 -342 398v477h-162zM518 1174 l221 278h283l-277 -278h-227z" />
<glyph unicode="&#xfb;" horiz-adv-x="1386" d="M45 850v194h422v-626q0 -103 36 -157t128 -54q87 0 154 54.5t101 138.5t34 180v270h-160v194h420v-806q0 -45 45 -45h100v-193h-258q-135 0 -135 117v39l2 49h-4q-5 -15 -18.5 -38t-45.5 -58t-72.5 -63.5t-105.5 -49.5t-139 -21q-342 0 -342 398v477h-162zM344 1174 l188 278h267l188 -278h-217l-102 165h-4l-103 -165h-217z" />
<glyph unicode="&#xfc;" horiz-adv-x="1386" d="M45 850v194h422v-626q0 -103 36 -157t128 -54q87 0 154 54.5t101 138.5t34 180v270h-160v194h420v-806q0 -45 45 -45h100v-193h-258q-135 0 -135 117v39l2 49h-4q-5 -15 -18.5 -38t-45.5 -58t-72.5 -63.5t-105.5 -49.5t-139 -21q-342 0 -342 398v477h-162zM336 1214v238 h213v-238h-213zM780 1214v238h213v-238h-213z" />
<glyph unicode="&#xfd;" horiz-adv-x="1241" d="M20 850v194h515v-194h-123l190 -528q8 -23 14 -50t8 -43l1 -16h6q8 58 28 109l189 528h-121v194h494v-194h-119l-385 -985q-58 -150 -166 -222.5t-248 -72.5q-68 0 -131.5 18t-93.5 36l-29 18l84 190q7 -5 20 -13.5t54 -22t84 -13.5q63 0 111 32t73 89l29 65l-359 881 h-125zM483 1174l222 278h282l-276 -278h-228z" />
<glyph unicode="&#xfe;" horiz-adv-x="1271" d="M4 1260v194h418v-453l-2 -88h4q3 6 10 16.5t33 37.5t57.5 47.5t86.5 37.5t118 17q211 0 340 -154.5t129 -392.5t-132 -392.5t-341 -154.5q-62 0 -116.5 15t-87 37t-56.5 44t-33 37l-10 15h-4q4 -37 4 -90v-248h151v-195h-561v195h150v1475h-158zM416 520 q0 -152 71 -238.5t191 -86.5q114 0 186 92t72 235t-70 234.5t-184 91.5q-117 0 -191.5 -79.5t-74.5 -248.5z" />
<glyph unicode="&#xff;" horiz-adv-x="1241" d="M20 850v194h515v-194h-123l190 -528q8 -23 14 -50t8 -43l1 -16h6q8 58 28 109l189 528h-121v194h494v-194h-119l-385 -985q-58 -150 -166 -222.5t-248 -72.5q-68 0 -131.5 18t-93.5 36l-29 18l84 190q7 -5 20 -13.5t54 -22t84 -13.5q63 0 111 32t73 89l29 65l-359 881 h-125zM301 1214v238h213v-238h-213zM745 1214v238h213v-238h-213z" />
<glyph unicode="&#x152;" horiz-adv-x="2021" d="M86 729q0 154 59.5 291.5t161 236t243 156t300.5 57.5q62 0 142 -8t116 -8h784v-375h-215v160h-413v-401h471v-213h-471v-410h444v160h215v-375h-815q-34 0 -115 -9t-143 -9q-159 0 -300.5 58.5t-243 158t-161 238t-59.5 292.5zM358 729q0 -223 140 -374.5t352 -151.5 q37 0 73.5 3.5t54.5 7.5l17 3v1018q-61 16 -145 16q-140 0 -253 -69.5t-176 -189t-63 -263.5z" />
<glyph unicode="&#x153;" horiz-adv-x="2021" d="M70 520q0 160 76.5 286.5t205 194.5t283.5 68q279 0 432 -215h4q135 215 412 215q146 0 252.5 -67t158.5 -178t52 -251l-7 -90h-718q14 -139 102 -217t209 -78q75 0 150 29t113 57l38 29l100 -178q-7 -6 -19 -16t-53.5 -36t-87 -46t-116.5 -36t-144 -16q-291 0 -436 222 h-4q-156 -222 -438 -222q-156 0 -284 66.5t-204.5 192t-76.5 286.5zM332 520q0 -145 90 -234t221 -89q130 0 219.5 89t89.5 236q0 145 -90 235.5t-219 90.5q-131 0 -221 -91t-90 -237zM1227 639h456q-3 101 -60 165t-142 64q-100 0 -167.5 -62.5t-86.5 -166.5z" />
<glyph unicode="&#x178;" horiz-adv-x="1347" d="M20 1251v203h541v-203h-141l221 -381l31 -65h4q13 30 33 65l221 381h-139v203h536v-203h-131l-387 -643v-407h174v-201h-618v201h176v407l-387 643h-134zM350 1591v238h213v-238h-213zM795 1591v238h213v-238h-213z" />
<glyph unicode="&#x2c6;" horiz-adv-x="1011" d="M184 1550l189 279h266l188 -279h-217l-102 166h-4l-103 -166h-217z" />
<glyph unicode="&#x2dc;" horiz-adv-x="1009" d="M131 1552q0 281 229 281q48 0 89 -20.5t64.5 -45t52 -45t55.5 -20.5q41 0 60 35t19 90h181q0 -138 -58.5 -209.5t-173.5 -71.5q-48 0 -89 20.5t-64 45t-51.5 45t-55.5 20.5q-40 0 -59 -34.5t-19 -90.5h-180z" />
<glyph unicode="&#x2000;" horiz-adv-x="935" />
<glyph unicode="&#x2001;" horiz-adv-x="1870" />
<glyph unicode="&#x2002;" horiz-adv-x="935" />
<glyph unicode="&#x2003;" horiz-adv-x="1870" />
<glyph unicode="&#x2004;" horiz-adv-x="623" />
<glyph unicode="&#x2005;" horiz-adv-x="467" />
<glyph unicode="&#x2006;" horiz-adv-x="311" />
<glyph unicode="&#x2007;" horiz-adv-x="311" />
<glyph unicode="&#x2008;" horiz-adv-x="233" />
<glyph unicode="&#x2009;" horiz-adv-x="374" />
<glyph unicode="&#x200a;" horiz-adv-x="103" />
<glyph unicode="&#x2010;" horiz-adv-x="952" d="M168 471v227h616v-227h-616z" />
<glyph unicode="&#x2011;" horiz-adv-x="952" d="M168 471v227h616v-227h-616z" />
<glyph unicode="&#x2012;" horiz-adv-x="952" d="M168 471v227h616v-227h-616z" />
<glyph unicode="&#x2013;" horiz-adv-x="1474" d="M170 483v203h1135v-203h-1135z" />
<glyph unicode="&#x2014;" horiz-adv-x="1884" d="M170 483v203h1544v-203h-1544z" />
<glyph unicode="&#x2018;" horiz-adv-x="491" d="M82 1004l160 475h184l-104 -475h-240z" />
<glyph unicode="&#x2019;" horiz-adv-x="475" d="M90 1004l105 475h237l-160 -475h-182z" />
<glyph unicode="&#x201a;" horiz-adv-x="526" d="M66 -211l102 475h233l-159 -475h-176z" />
<glyph unicode="&#x201c;" horiz-adv-x="833" d="M82 1004l160 475h184l-104 -475h-240zM424 1004l160 475h184l-104 -475h-240z" />
<glyph unicode="&#x201d;" horiz-adv-x="819" d="M90 1004l105 475h239l-160 -475h-184zM432 1004l103 475h241l-160 -475h-184z" />
<glyph unicode="&#x201e;" horiz-adv-x="860" d="M66 -211l102 475h233l-159 -475h-176zM399 -211l103 475h233l-160 -475h-176z" />
<glyph unicode="&#x2022;" horiz-adv-x="868" d="M92 596q0 141 100.5 241.5t241.5 100.5t241.5 -100.5t100.5 -241.5t-100.5 -241.5t-241.5 -100.5t-241.5 100.5t-100.5 241.5z" />
<glyph unicode="&#x2026;" horiz-adv-x="1705" d="M143 0v262h252v-262h-252zM725 0v262h254v-262h-254zM1309 0v262h254v-262h-254z" />
<glyph unicode="&#x202f;" horiz-adv-x="374" />
<glyph unicode="&#x2039;" horiz-adv-x="761" d="M76 578l336 421h247l-335 -421l335 -420h-247z" />
<glyph unicode="&#x203a;" horiz-adv-x="761" d="M102 158l336 420l-336 421h248l336 -421l-336 -420h-248z" />
<glyph unicode="&#x205f;" horiz-adv-x="467" />
<glyph unicode="&#x20ac;" horiz-adv-x="1236" d="M84 498v149h115q-9 71 -2 168h-113v150h141q67 227 257.5 370.5t439.5 143.5q52 0 107 -6.5t83 -13.5l29 -7l-62 -227q-80 22 -164 22q-145 0 -252 -76.5t-155 -205.5h520l-33 -150h-524q-8 -73 2 -168h492l-33 -149h-414q50 -130 159 -208.5t249 -78.5q45 0 93 7.5 t73 14.5l26 7l45 -228q-104 -37 -241 -37q-257 0 -445 145.5t-252 377.5h-141z" />
<glyph unicode="&#x2122;" horiz-adv-x="1974" d="M51 1282v172h801v-172h-301v-735h-197v735h-303zM907 547l72 907h180l189 -428q6 -16 12.5 -37.5t9.5 -34.5l4 -14h4q15 51 29 86l188 428h181l69 -907h-196l-33 467l2 63h-4l-160 -364h-154l-159 364h-4l2 -63l-37 -467h-195z" />
<glyph unicode="&#x25fc;" horiz-adv-x="1044" d="M0 0v1044h1044v-1044h-1044z" />
</font>
</defs>
</svg>
