<?xml version="1.0" standalone="no"?>
<!DOCTYPE svg PUBLIC "-//W3C//DTD SVG 1.1//EN" "http://www.w3.org/Graphics/SVG/1.1/DTD/svg11.dtd" >
<svg xmlns="http://www.w3.org/2000/svg">
<metadata></metadata>
<defs>
<font id="museo_slab300_italic" horiz-adv-x="1241" >
<font-face units-per-em="2048" ascent="1536" descent="-512" />
<missing-glyph horiz-adv-x="512" />
<glyph unicode="&#xfb01;" horiz-adv-x="1222" d="M117 915l20 115h185l10 45q19 96 60 168t85.5 110.5t100 61.5t94.5 29t78 6q20 0 39 -1.5t27 -2.5l9 -2l-26 -119q-18 4 -51 4q-28 0 -53.5 -3.5t-62 -19t-65 -41t-55.5 -74t-41 -114.5l-10 -47h610l-149 -764q-7 -40 -7 -59q0 -58 26 -77t71 -19l53 4l-23 -115 q-44 -4 -73 -4q-199 0 -199 180q0 28 10 76l129 663h-469l-178 -915h-139l178 915h-184zM969 1266l35 174h157l-37 -174h-155z" />
<glyph unicode="&#xfb02;" horiz-adv-x="1234" d="M115 915l20 115h184l9 39q81 399 499 399q84 0 166 -12t122 -24l40 -11l-221 -1147q-8 -50 -8 -67q0 -31 8 -50.5t23.5 -28t30 -11t36.5 -2.5l53 4l-24 -119q-37 -6 -72 -6t-65.5 7t-63.5 25t-52.5 57.5t-19.5 96.5q0 25 11 78l208 1073q-57 23 -182 23q-47 0 -86 -6 t-83 -24t-77 -48t-60.5 -82t-41.5 -123l-8 -41h262l-21 -115h-262l-178 -915h-139l176 915h-184z" />
<glyph unicode="&#xfb03;" horiz-adv-x="1859" d="M117 915l20 115h182l11 45q19 96 60 168t86 110.5t100.5 61.5t95 29t78.5 6q20 0 39 -1.5t27 -2.5l9 -2l-26 -119q-18 4 -51 4q-28 0 -53.5 -3.5t-62 -19t-65 -41t-55.5 -74t-41 -114.5l-10 -47h497l11 45q19 96 60 168t85 110.5t99.5 61.5t94.5 29t78 6q21 0 40 -1.5 t28 -2.5l8 -2l-26 -119q-19 4 -52 4q-221 0 -274 -252l-10 -47h608l-149 -764q-7 -40 -7 -59q0 -58 26.5 -77t72.5 -19l51 4l-23 -115q-44 -4 -71 -4q-201 0 -201 180q0 28 10 76l129 663h-469l-176 -915h-141l176 915h-496l-178 -915h-139l176 915h-182zM1606 1266l34 174 h158l-35 -174h-157z" />
<glyph unicode="&#xfb04;" horiz-adv-x="1873" d="M117 915l20 115h182l11 45q19 96 60 168t86 110.5t100.5 61.5t95 29t78.5 6q20 0 39 -1.5t27 -2.5l9 -2l-26 -119q-18 4 -51 4q-28 0 -53.5 -3.5t-62 -19t-65 -41t-55.5 -74t-41 -114.5l-10 -47h497l9 39q78 399 497 399q84 0 166.5 -12t123.5 -24l40 -11l-221 -1147 q-10 -42 -10 -67q0 -31 8 -50.5t23.5 -28t30 -11t36.5 -2.5l53 4l-24 -119q-37 -6 -72 -6t-65 7t-63 25t-52 57.5t-19 96.5q0 20 8 78l209 1073q-55 23 -182 23q-47 0 -86 -6t-83 -24t-77 -48t-60.5 -82t-41.5 -123l-6 -41h260l-21 -115h-262l-176 -915h-141l176 915h-496 l-178 -915h-139l176 915h-182z" />
<glyph horiz-adv-x="0" />
<glyph horiz-adv-x="682" />
<glyph unicode=" "  horiz-adv-x="512" />
<glyph unicode="&#x09;" horiz-adv-x="512" />
<glyph unicode="&#xa0;" horiz-adv-x="512" />
<glyph unicode="!" horiz-adv-x="487" d="M45 0l33 162h162l-33 -162h-162zM133 377l201 1063h145l-215 -1063h-131z" />
<glyph unicode="&#x22;" horiz-adv-x="653" d="M227 1049l80 411h121l-80 -411h-121zM477 1049l78 411h121l-80 -411h-119z" />
<glyph unicode="#" horiz-adv-x="1486" d="M57 399l43 115h287l150 401h-287l41 115h287l151 410h129l-151 -410h354l151 410h127l-151 -410h285l-41 -115h-285l-150 -401h283l-41 -115h-285l-147 -399h-129l149 399h-354l-147 -399h-129l149 399h-289zM516 514h352l150 401h-354z" />
<glyph unicode="$" horiz-adv-x="1089" d="M20 190l93 93q5 -6 14.5 -16t42.5 -35t69.5 -44t93.5 -35t116 -16q141 0 249.5 77t108.5 194q0 53 -26 96.5t-68 73.5t-96.5 60t-110.5 54.5t-110.5 58.5t-96.5 71.5t-68 93.5t-26 124q0 156 125.5 265.5t326.5 124.5l45 223h115l-43 -226q59 -4 112.5 -19.5t88.5 -34.5 t61.5 -37t38.5 -30l12 -12l-81 -104q-4 5 -12.5 12.5t-38 27t-62 34.5t-85 27t-108.5 12q-151 0 -250.5 -75.5t-99.5 -183.5q0 -45 20.5 -83.5t55.5 -66.5t80.5 -53.5t95.5 -48.5t100 -47.5t95.5 -55t80.5 -66.5t55.5 -86.5t20.5 -110.5q0 -163 -129.5 -283t-328.5 -135 l-41 -219h-115l41 221q-71 7 -134 28t-102.5 46.5t-69.5 49.5t-43 40z" />
<glyph unicode="%" horiz-adv-x="1478" d="M6 0l1362 1440h158l-1362 -1440h-158zM209 1147q0 121 103 219t231 98q114 0 183 -70t69 -180q0 -125 -102 -222t-230 -97q-115 0 -184.5 69t-69.5 183zM332 1145q0 -58 38.5 -96.5t100.5 -38.5q79 0 140 61t61 143q0 58 -38 97t-99 39q-78 0 -140.5 -62t-62.5 -143z M729 227q0 121 103 219.5t231 98.5q114 0 183 -70t69 -180q0 -125 -102 -222.5t-230 -97.5q-115 0 -184.5 69t-69.5 183zM852 225q0 -59 38.5 -97t102.5 -38q79 0 140 60.5t61 142.5q0 59 -38.5 98t-100.5 39q-78 0 -140.5 -62t-62.5 -143z" />
<glyph unicode="&#x26;" horiz-adv-x="1329" d="M72 340q0 148 96 272.5t250 163.5v4q-6 2 -16 7t-35.5 24.5t-45 45.5t-35.5 72.5t-16 102.5q0 125 65.5 224.5t175.5 153.5t243 54q44 0 89.5 -6.5t68.5 -13.5l24 -6l-59 -117q-59 16 -125 16q-134 0 -235 -85t-101 -222q0 -201 266 -201h303l39 205h141l-39 -205h195 l-25 -122h-194l-43 -213q-51 -264 -193.5 -391.5t-359.5 -127.5q-203 0 -318.5 101t-115.5 264zM219 356q0 -116 76 -184t213 -68q334 0 412 394l41 209h-304q-116 0 -214 -40t-161 -121.5t-63 -189.5z" />
<glyph unicode="'" horiz-adv-x="407" d="M227 1049l80 411h123l-80 -411h-123z" />
<glyph unicode="(" horiz-adv-x="622" d="M143 350q0 638 416 1145h135q-424 -535 -424 -1149q0 -276 97 -541h-125q-99 265 -99 545z" />
<glyph unicode=")" horiz-adv-x="628" d="M-49 -195q424 535 424 1149q0 279 -96 541h124q101 -270 101 -545q0 -635 -418 -1145h-135z" />
<glyph unicode="*" horiz-adv-x="983" d="M193 1108l65 125l272 -109l50 316h139l-74 -316l320 107l18 -129l-324 -90v-4l140 -242l-113 -78l-129 260h-4l-225 -258l-99 80l242 250v4z" />
<glyph unicode="+" d="M70 522l22 119h473l103 522h125l-103 -522h471l-22 -119h-469l-105 -522h-125l103 522h-473z" />
<glyph unicode="," horiz-adv-x="512" d="M-109 -264l226 432h157l-258 -432h-125z" />
<glyph unicode="-" horiz-adv-x="1009" d="M197 518l22 127h582l-23 -127h-581z" />
<glyph unicode="." horiz-adv-x="501" d="M57 0l31 170h168l-33 -170h-166z" />
<glyph unicode="/" horiz-adv-x="851" d="M-37 -86l832 1606h139l-832 -1606h-139z" />
<glyph unicode="0" horiz-adv-x="1275" d="M133 440q0 83 10 173.5t33.5 191t58.5 193.5t88 178.5t118 149t153.5 101t189.5 37.5q406 0 406 -467q0 -83 -10 -173t-33.5 -190.5t-57.5 -193.5t-87.5 -178.5t-118 -148.5t-153.5 -100.5t-191 -37.5q-211 0 -308.5 123.5t-97.5 341.5zM279 440q0 -334 262 -334 q78 0 146 33t117.5 88t90.5 129.5t68 156t45 168.5t26 165.5t8 148.5q0 162 -61 250t-201 88q-102 0 -187.5 -59t-142 -153t-96.5 -214t-57.5 -238t-17.5 -229z" />
<glyph unicode="1" horiz-adv-x="929" d="M-6 0l22 123h324l203 1040l20 90h-4q-29 -34 -74 -71l-196 -164l-78 98l393 324h131l-256 -1317h316l-25 -123h-776z" />
<glyph unicode="2" horiz-adv-x="1181" d="M12 0q2 96 35.5 181t88 150t125 123.5t148 107.5t154.5 96t146.5 96.5t123.5 101t85.5 116t31.5 136.5q0 103 -66 164t-184 61q-60 0 -119.5 -20t-102 -49t-76.5 -58t-51 -49l-17 -20l-98 77q8 10 22.5 27t62.5 60t99.5 76t130.5 60t158 27q185 0 289 -95t104 -251 q0 -81 -29 -154t-78.5 -131t-113.5 -111t-137 -99.5t-146.5 -91t-142.5 -90.5t-125 -93.5t-96 -105t-52 -119.5h662l41 201h129l-64 -324h-938z" />
<glyph unicode="3" horiz-adv-x="1155" d="M12 172l92 96q5 -7 14.5 -17.5t42.5 -38.5t69.5 -49.5t93.5 -39t116 -17.5q105 0 199 48.5t152.5 134.5t58.5 188q0 123 -85 187.5t-218 64.5l-96 -6l-23 86l475 465q11 10 25.5 21t23.5 17l9 5v4q-41 -4 -68 -4h-469l-39 -197h-131l63 320h850l-18 -101l-520 -501 q46 -2 92.5 -12.5t97.5 -36t89.5 -63t63.5 -98t25 -136.5q0 -101 -43 -196t-116.5 -165.5t-177 -113t-218.5 -42.5q-79 0 -152 20.5t-121.5 49.5t-85.5 57.5t-54 49.5z" />
<glyph unicode="4" horiz-adv-x="1206" d="M23 399l16 93l887 948h157l-178 -920h205l-25 -121h-204l-78 -399h-141l77 399h-716zM223 520h541l127 649q3 19 9 43t10 38l5 14h-4q-28 -43 -63 -80l-625 -660v-4z" />
<glyph unicode="5" horiz-adv-x="1144" d="M23 164l92 90q4 -6 12.5 -16t38 -35.5t63 -45t87.5 -35.5t112 -16q110 0 209 53t161 146t62 201q0 128 -85 203t-224 75q-70 0 -140 -20t-105 -40l-34 -19l-88 34l215 701h705l-64 -320h-131l41 197h-448l-117 -375l-31 -86h4q10 6 29 15t78.5 23.5t120.5 14.5 q187 0 304.5 -111t117.5 -290q0 -108 -48 -207t-128 -170.5t-187.5 -113.5t-222.5 -42q-78 0 -148 19.5t-114 47.5t-76.5 55.5t-46.5 46.5z" />
<glyph unicode="6" horiz-adv-x="1216" d="M121 492q0 76 16.5 163.5t50 181.5t81 184t114.5 170t145 141t177.5 96.5t207.5 35.5q75 0 143 -15t99 -29l31 -15l-70 -119q-9 5 -26.5 13t-71 21t-107.5 13q-110 0 -210 -50.5t-174.5 -134.5t-128.5 -184.5t-85 -209.5h4q67 78 170 123t211 45q177 0 283 -103.5 t106 -273.5q0 -83 -23.5 -165t-70 -155t-109.5 -129t-148.5 -88.5t-180.5 -32.5q-203 0 -318.5 141.5t-115.5 375.5zM266 465q0 -89 32.5 -169.5t101 -135t159.5 -54.5q106 0 193.5 58t137.5 157.5t50 217.5q0 120 -71.5 189t-200.5 69q-64 0 -134 -24.5t-130 -66.5 t-99 -106t-39 -135z" />
<glyph unicode="7" horiz-adv-x="1099" d="M106 0l865 1255q13 18 25.5 33.5t19.5 21.5l6 7v4q-35 -4 -76 -4h-590l-39 -197h-131l64 320h964l-20 -99l-928 -1341h-160z" />
<glyph unicode="8" horiz-adv-x="1230" d="M82 350q0 250 320 455l12 8q-138 98 -138 244q0 76 34.5 148.5t96.5 130.5t156.5 93t204.5 35q189 0 293 -84.5t104 -232.5q0 -64 -25.5 -132.5t-57.5 -117t-76.5 -98t-66 -68.5t-42.5 -37q164 -106 164 -262q0 -125 -74.5 -230.5t-199.5 -166t-271 -60.5 q-190 0 -312 100.5t-122 274.5zM231 360q0 -118 83.5 -187t207.5 -69q95 0 183 38.5t147 114t59 169.5q0 40 -18 75.5t-44 61t-70 52t-80.5 44t-92 43t-88.5 43.5q-29 -17 -53 -32.5t-71.5 -54.5t-79.5 -78.5t-57.5 -99t-25.5 -120.5zM422 1059q0 -33 10.5 -62t33 -54 t46 -44.5t62 -40.5t66.5 -34.5t75 -35t73 -34.5q18 14 38.5 32t57.5 58.5t64.5 82t48.5 98.5t21 112q0 92 -68.5 145t-185.5 53q-147 0 -244.5 -81t-97.5 -195z" />
<glyph unicode="9" horiz-adv-x="1216" d="M82 35l65 119q9 -5 26 -13t70 -21.5t107 -13.5q110 0 210 50.5t174.5 135t128.5 185.5t85 211h-4q-67 -77 -171 -122.5t-212 -45.5q-177 0 -282 102.5t-105 272.5q0 104 38 205.5t105 182.5t169 131t221 50q203 0 318.5 -141t115.5 -375q0 -76 -16.5 -163.5t-50 -181.5 t-81.5 -184t-115 -170.5t-145 -141.5t-177.5 -96.5t-207.5 -35.5q-75 0 -141.5 15t-95.5 30zM319 901q0 -118 72.5 -188t198.5 -70q64 0 134.5 24.5t131 67t100 106t39.5 134.5q0 52 -11.5 103t-36 97t-58 81.5t-81.5 56t-103 20.5q-161 0 -273.5 -126t-112.5 -306z" />
<glyph unicode=":" horiz-adv-x="614" d="M109 0l32 170h166l-33 -170h-165zM276 860l33 170h166l-33 -170h-166z" />
<glyph unicode=";" horiz-adv-x="624" d="M-61 -264l215 432h168l-259 -432h-124zM287 860l32 170h166l-32 -170h-166z" />
<glyph unicode="&#x3c;" d="M115 530v103l925 414v-138l-753 -325v-4l753 -326v-137z" />
<glyph unicode="=" d="M133 344v119h954v-119h-954zM133 700v119h954v-119h-954z" />
<glyph unicode="&#x3e;" d="M193 117v137l753 326v4l-753 325v138l925 -414v-103z" />
<glyph unicode="?" horiz-adv-x="952" d="M201 0l35 162h159l-33 -162h-161zM236 1358q6 4 17.5 11.5t47.5 26t73.5 33t92.5 26t108 11.5q161 0 260 -85.5t99 -225.5q0 -74 -24.5 -138.5t-64 -111.5t-88.5 -89t-100 -81.5t-95 -78t-77.5 -88t-44.5 -103.5l-18 -88h-137l18 92q14 69 48 129.5t77 104.5t92.5 84.5 t96 78.5t84 77.5t60.5 90t23 107.5q0 85 -60.5 138.5t-162.5 53.5q-64 0 -130.5 -21.5t-100.5 -43.5l-35 -21z" />
<glyph unicode="@" horiz-adv-x="1583" d="M70 369q0 173 74 335.5t196.5 281t288.5 190t342 71.5q106 0 187.5 -25.5t131 -70.5t74.5 -103t25 -126q0 -42 -9 -80l-120 -627h145l-23 -115h-532q-162 0 -260 95t-98 237q0 118 64.5 222.5t180.5 168.5t256 64h258q2 25 2 43q0 83 -77 140.5t-222 57.5 q-146 0 -283.5 -64t-237 -168t-160 -243t-60.5 -284q0 -223 135.5 -362.5t364.5 -139.5l-25 -121q-270 0 -444 174t-174 449zM635 440q0 -99 64 -162t167 -63h254l109 563h-250q-135 0 -239.5 -103.5t-104.5 -234.5z" />
<glyph unicode="A" horiz-adv-x="1464" d="M-94 0l22 119h146l741 1321h160l227 -1321h146l-23 -119h-455l23 119h166l-64 370h-561l-207 -370h164l-24 -119h-461zM498 610h481l-98 590q-4 21 -6 44t-3 36v12h-4q-14 -45 -39 -92z" />
<glyph unicode="B" horiz-adv-x="1382" d="M-4 0l24 119h187l233 1202h-188l24 119h627q142 0 236 -47q68 -32 106.5 -103.5t38.5 -163.5q0 -127 -69 -222.5t-183 -143.5v-4q84 -30 131 -104.5t47 -184.5q0 -137 -71 -247.5t-185 -166.5q-106 -53 -258 -53h-700zM350 123h342q124 0 213 53q68 41 113 120.5 t45 170.5q0 106 -63 165.5t-173 59.5h-366zM485 815h349q126 0 214.5 84t88.5 217q0 112 -78 164q-58 37 -154 37h-321z" />
<glyph unicode="C" horiz-adv-x="1521" d="M129 600q0 175 72 336t191 276t278 183.5t327 68.5q57 0 120.5 -6.5t138.5 -26t130 -49.5q56 -30 88 -82q23 -37 22 -81q0 -18 -3 -37l-31 -158h-137l23 119q2 12 2 24q0 39 -24 69q-32 40 -92 60t-121 29.5t-120 9.5q-142 0 -274 -59t-229 -156.5t-155.5 -231.5 t-58.5 -278q0 -225 132 -365.5t352 -140.5q63 0 132.5 11.5t137 34t115 62.5t57.5 89l23 113h137l-29 -152q-15 -74 -77.5 -132t-149.5 -90.5t-176 -48.5t-172 -16q-286 0 -457.5 173.5t-171.5 451.5z" />
<glyph unicode="D" horiz-adv-x="1595" d="M-2 0l22 119h187l233 1202h-186l22 119h592q190 0 324 -49q156 -60 237.5 -191t81.5 -328q0 -166 -57.5 -322t-165.5 -279t-250 -189q-171 -82 -397 -82h-643zM350 123h275q205 0 352 72q175 90 282 271.5t107 393.5q0 155 -61 259.5t-175 152.5q-106 45 -274 45h-272z " />
<glyph unicode="E" horiz-adv-x="1284" d="M-4 0l24 119h187l233 1202h-188l24 119h1016l-59 -299h-129l35 176h-555l-103 -531h543l-25 -122h-542l-107 -541h594l37 186h129l-61 -309h-1053z" />
<glyph unicode="F" horiz-adv-x="1171" d="M-4 0l24 119h187l233 1202h-188l24 119h969l-61 -307h-131l37 180h-506l-107 -543h527l-25 -123h-526l-103 -528h201l-25 -119h-530z" />
<glyph unicode="G" horiz-adv-x="1579" d="M127 596q0 174 69.5 334t186.5 277t280 187t341 70q72 0 147 -11t146.5 -34t125.5 -55.5t82 -79.5q20 -34 20 -72q0 -14 -3 -30l-31 -158h-137l20 109q2 12 2 24q0 38 -24 69q-32 40 -91 63t-124.5 34.5t-130.5 11.5q-149 0 -285.5 -60.5t-233 -160.5t-154 -233.5 t-57.5 -274.5q0 -224 138 -363t372 -139q50 0 104.5 6t115.5 21.5t111 38.5t86.5 60t45.5 83l45 226h-301l23 118h438l-76 -378q-16 -81 -80.5 -142.5t-155 -95t-183 -50t-181.5 -16.5q-298 0 -474.5 171.5t-176.5 449.5z" />
<glyph unicode="H" horiz-adv-x="1722" d="M-2 0l22 119h187l233 1202h-186l22 119h521l-23 -119h-188l-105 -539h832l104 539h-188l24 119h521l-25 -119h-188l-234 -1202h189l-25 -119h-520l24 119h189l104 540h-831l-107 -540h189l-23 -119h-518z" />
<glyph unicode="I" horiz-adv-x="745" d="M-2 0l22 119h187l233 1202h-186l22 119h521l-23 -119h-190l-234 -1202h189l-23 -119h-518z" />
<glyph unicode="J" horiz-adv-x="1110" d="M6 301q0 34 6 74t12 63l7 23h139q-23 -79 -23 -142q0 -213 211 -213q50 0 97 15.5t92 48.5t79.5 92.5t49.5 138.5l176 920h-221l24 119h533l-25 -119h-168l-180 -932q-21 -110 -69.5 -192.5t-113 -129.5t-134 -69.5t-144.5 -22.5q-70 0 -131.5 19t-110.5 57t-77.5 102 t-28.5 148z" />
<glyph unicode="K" horiz-adv-x="1372" d="M-2 0l22 119h187l233 1202h-186l22 119h508l-22 -119h-178l-99 -508h201l451 508h-131l24 119h445l-23 -119h-147l-506 -563v-4q24 -17 51 -80l186 -465q18 -48 42.5 -71t78.5 -23l60 4l-23 -119q-1 0 -31 -2t-47 -2q-52 0 -90 12.5t-63.5 40.5t-40.5 55.5t-33 73.5 l-172 445q-14 35 -38.5 51t-68.5 16h-149l-111 -571h187l-23 -119h-516z" />
<glyph unicode="L" horiz-adv-x="1208" d="M-2 0l22 119h187l233 1198h-188l24 123h521l-25 -123h-188l-232 -1194h574l49 239h129l-72 -362h-1034z" />
<glyph unicode="M" horiz-adv-x="1933" d="M-37 0l25 119h184l330 1202h-191l25 119h340l233 -942q5 -21 9 -42t5 -32l1 -10h4q18 37 45 84l602 942h350l-22 -119h-189l-141 -1202h186l-22 -119h-512l22 119h185l116 993l23 102h-4q-27 -61 -47 -96l-549 -844h-133l-222 844l-10 96h-4q-6 -65 -16 -102l-273 -993 h185l-23 -119h-512z" />
<glyph unicode="N" horiz-adv-x="1705" d="M-4 0l24 119h187l233 1202h-188l24 119h322l584 -1143q7 -16 14 -37t10 -34l4 -13h4q5 57 13 94l200 1014h-190l23 119h522l-23 -119h-188l-258 -1321h-137l-586 1145q-7 15 -14 36t-10 35l-3 13h-4q-4 -57 -12 -94l-197 -1016h191l-25 -119h-520z" />
<glyph unicode="O" horiz-adv-x="1691" d="M125 598q0 172 74 332.5t194.5 277t281 186.5t326.5 70q272 0 443.5 -170.5t171.5 -435.5q0 -140 -48 -274.5t-132.5 -243t-194.5 -191.5t-240.5 -128.5t-263.5 -45.5q-272 0 -442 175t-170 448zM270 602q0 -219 134 -357.5t346 -138.5q132 0 262 59.5t230.5 159t163 239 t62.5 288.5q0 213 -134 347t-347 134q-133 0 -263.5 -58.5t-230.5 -156t-161.5 -234t-61.5 -282.5z" />
<glyph unicode="P" horiz-adv-x="1325" d="M-4 0l24 119h187l233 1202h-188l24 119h648q136 0 209 -29q92 -37 146 -121.5t54 -208.5q0 -154 -82.5 -283.5t-218.5 -187.5q-93 -41 -233 -41h-361l-88 -450h189l-23 -119h-520zM463 692h328q107 0 184 35q94 42 152.5 135.5t58.5 208.5q0 162 -113 215q-67 31 -170 31 h-319z" />
<glyph unicode="Q" horiz-adv-x="1693" d="M125 598q0 171 74 332.5t193.5 277.5t277 186t319.5 70q278 0 452.5 -170t174.5 -436q0 -181 -76.5 -344.5t-208.5 -288.5l137 -174l-94 -84l-139 178q-226 -170 -485 -170q-278 0 -451.5 175t-173.5 448zM272 602q0 -219 133.5 -357.5t346.5 -138.5t401 142l-178 227 l94 84l176 -229q103 105 163 240.5t60 281.5q0 212 -133.5 346.5t-345.5 134.5q-179 0 -344.5 -98t-269 -268t-103.5 -365z" />
<glyph unicode="R" horiz-adv-x="1419" d="M-4 0l24 119h187l233 1202h-188l24 119h615q173 0 266 -49q70 -39 111 -111.5t41 -175.5q0 -176 -114 -308.5t-292 -160.5v-6q29 -35 39 -64l141 -356q18 -49 42 -71.5t79 -22.5l58 4l-23 -119q-2 0 -15 -1t-31 -2t-32 -1q-52 0 -89 13t-62 41t-40 55.5t-32 72.5 l-133 344q-21 53 -51 70.5t-90 17.5h-218l-96 -491h187l-25 -119h-516zM471 733h334q144 0 250 100.5t106 253.5q0 134 -90 189q-67 41 -209 41h-278z" />
<glyph unicode="S" horiz-adv-x="1175" d="M72 274l24 136h137l-22 -119q-3 -15 -3 -28q0 -45 34 -79q44 -44 111.5 -61t150.5 -17q156 0 262 84.5t106 221.5q0 56 -22 99.5t-59 72.5t-85 52.5t-101 44t-106.5 41.5t-101.5 50t-85 65t-59 90.5t-22 123.5q0 126 75 222t193.5 143.5t258.5 47.5q66 0 134 -14 t128 -41.5t92 -74.5q24 -34 24 -75q0 -15 -3 -30l-29 -144h-137l20 105q2 10 2 19q0 27 -16 49q-21 30 -61.5 45.5t-84.5 22.5t-90 7q-147 0 -250.5 -76.5t-103.5 -199.5q0 -51 22 -91t59 -66.5t85 -49t101 -42.5t105.5 -41.5t100.5 -51.5t85 -68t59 -95t22 -128 q0 -132 -74 -236t-196 -158.5t-267 -54.5q-57 0 -115.5 9t-118.5 31t-103.5 55t-65.5 86q-14 34 -14 74q0 21 4 44z" />
<glyph unicode="T" horiz-adv-x="1341" d="M156 1083l71 357h1207l-70 -357h-129l45 234h-401l-236 -1198h188l-22 -119h-520l22 119h189l235 1198h-403l-45 -234h-131z" />
<glyph unicode="U" horiz-adv-x="1628" d="M211 1321l22 119h521l-23 -119h-188l-150 -766q-18 -117 -18 -154q0 -137 90.5 -216t251.5 -79q186 0 307 97q137 107 178 307l160 811h-188l22 119h520l-22 -119h-189l-164 -829q-26 -135 -90.5 -240.5t-160.5 -169.5q-159 -107 -377 -107q-217 0 -350.5 112t-133.5 298 q0 24 2.5 51.5t5.5 45t7.5 44t5.5 31.5l149 764h-188z" />
<glyph unicode="V" horiz-adv-x="1441" d="M164 1321l22 119h461l-24 -119h-164l164 -1067q2 -13 3.5 -27t2 -25.5t0.5 -21v-14.5v-6h6q16 49 39 94l581 1067h-163l22 119h469l-22 -119h-148l-731 -1321h-158l-213 1321h-147z" />
<glyph unicode="W" horiz-adv-x="2045" d="M174 1321l25 119h458l-24 -119h-172l53 -1059l-4 -94h6q19 49 39 94l559 1178h133l103 -1178v-94h8q15 49 33 94l464 1059h-172l23 119h469l-23 -119h-145l-594 -1321h-168l-98 1133q-2 19 -2 42.5t1 37.5l1 14h-6q-15 -51 -35 -94l-539 -1133h-170l-75 1321h-148z" />
<glyph unicode="X" horiz-adv-x="1327" d="M-61 0l24 119h143l498 614l-256 588h-139l24 119h449l-25 -119h-163l192 -457l21 -53h4q14 24 39 53l360 457h-156l23 119h457l-23 -119h-143l-504 -621l254 -581h145l-22 -119h-451l25 119h157l-190 448l-20 56h-5q-18 -27 -41 -56l-354 -448h158l-23 -119h-458z" />
<glyph unicode="Y" horiz-adv-x="1318" d="M162 1321l24 119h449l-25 -119h-159l208 -524l19 -56h4q19 29 39 56l418 524h-162l22 119h461l-24 -119h-142l-559 -703l-98 -499h188l-24 -119h-520l24 119h189l98 499l-289 703h-141z" />
<glyph unicode="Z" horiz-adv-x="1282" d="M4 0l21 100l1001 1149q16 18 34 35t28 25l10 8v4q-39 -4 -80 -4h-619l-45 -234h-131l72 357h1010l-19 -101l-1005 -1149q-16 -18 -34 -35t-28 -25l-10 -7v-4q39 4 80 4h649l47 239h131l-72 -362h-1040z" />
<glyph unicode="[" horiz-adv-x="612" d="M59 -195l328 1690h277l-23 -115h-147l-283 -1460h147l-22 -115h-277z" />
<glyph unicode="\" horiz-adv-x="835" d="M274 1520h125l207 -1606h-125z" />
<glyph unicode="]" horiz-adv-x="612" d="M-33 -195l23 115h147l283 1460h-150l25 115h276l-327 -1690h-277z" />
<glyph unicode="^" d="M31 512l405 928h96l408 -928h-135l-320 758l-319 -758h-135z" />
<glyph unicode="_" horiz-adv-x="1118" d="M-106 -119l20 119h1057l-23 -119h-1054z" />
<glyph unicode="`" horiz-adv-x="1032" d="M242 1784h172l153 -244h-141z" />
<glyph unicode="a" horiz-adv-x="1120" d="M10 233q0 69 24 126t64.5 97.5t97.5 71.5t118.5 50t132.5 31.5t134 17t128 4.5h67q17 80 17 117q0 184 -211 184q-48 0 -97 -10t-86 -24t-66.5 -28t-44.5 -24l-16 -10l-43 112q7 4 19 11.5t51 26t80.5 32.5t103 25.5t121.5 11.5q154 0 242 -71.5t88 -215.5 q0 -65 -51.5 -293.5t-51.5 -267.5q0 -58 26.5 -77t70.5 -19l53 4l-23 -115q-40 -4 -77 -4q-94 0 -144 50q-44 44 -44 127q0 12 1 24h-4q2 0 -14.5 -23t-48.5 -55.5t-75.5 -65t-108 -55.5t-132.5 -23q-130 0 -215.5 69t-85.5 189zM152 254q0 -71 48.5 -117.5t145.5 -46.5 q69 0 136.5 36t119 93t89 125.5t54.5 136.5l11 45h-60q-45 0 -85 -1.5t-97.5 -8t-104.5 -17.5t-96.5 -31.5t-83.5 -48.5t-55.5 -70.5t-21.5 -94.5z" />
<glyph unicode="b" horiz-adv-x="1228" d="M72 0l256 1325h-185l23 115h323l-96 -498q-4 -22 -10.5 -45.5t-10.5 -36.5l-5 -12h4q56 92 157 149.5t213 57.5q181 0 281 -110.5t100 -303.5q0 -143 -47.5 -269t-125.5 -212t-179.5 -135.5t-208.5 -49.5q-116 0 -203 55t-120 156h-5q0 -43 -10 -92l-18 -94h-133z M293 391q0 -128 65 -209.5t193 -81.5q76 0 151.5 37t137.5 103t100.5 168.5t38.5 222.5q0 138 -69.5 217.5t-190.5 79.5q-122 0 -221.5 -79.5t-152 -202t-52.5 -255.5z" />
<glyph unicode="c" horiz-adv-x="1134" d="M72 424q0 171 90.5 317t240 230t318.5 84q57 0 117 -12.5t117 -38.5t88 -72q23 -34 23 -75q0 -15 -3 -30l-21 -108h-129l15 76q1 7 1 14q0 36 -30 63q-36 32 -87.5 45t-106.5 13q-89 0 -177.5 -39t-157.5 -104t-112 -159t-43 -196q0 -153 93.5 -242.5t246.5 -89.5 q60 0 119.5 15t101.5 36t75.5 42t50.5 36l16 15l45 -115q-6 -6 -18.5 -16.5t-53.5 -37t-86 -47t-116 -37t-144 -16.5q-213 0 -343 122t-130 327z" />
<glyph unicode="d" horiz-adv-x="1280" d="M74 389q0 143 47 269t124.5 212t180 135.5t211.5 49.5q112 0 198 -53t119 -154h4q3 43 9 86l75 391h-184l25 115h323l-229 -1174q-6 -35 -6 -59q0 -58 26 -77t72 -19l51 4l-22 -115q-43 -4 -74 -4q-97 0 -148 51q-41 41 -41 110q0 18 3 38h-4q-57 -93 -158 -156.5 t-221 -63.5q-182 0 -281.5 110.5t-99.5 303.5zM217 397q0 -139 69 -218t191 -79t221.5 82t151 204t51.5 251q0 128 -65.5 209.5t-192.5 81.5q-76 0 -151 -37t-136.5 -103t-100 -168.5t-38.5 -222.5z" />
<glyph unicode="e" horiz-adv-x="1132" d="M72 410q0 100 29 196t83 176.5t127 142t167 96t196 34.5q183 0 276.5 -102t93.5 -271q0 -36 -7 -78t-14 -66l-7 -24h-791q-10 -43 -10 -94q0 -140 86.5 -230t243.5 -90q52 0 106 13t94 31t72 36.5t49 31.5l17 13l43 -114q-7 -6 -19.5 -15t-54 -32.5t-84 -41.5 t-105.5 -32.5t-124 -14.5q-212 0 -339.5 119.5t-127.5 315.5zM250 616h645q8 37 8 78q0 119 -64.5 181.5t-170.5 62.5q-133 0 -248.5 -85t-169.5 -237z" />
<glyph unicode="f" horiz-adv-x="675" d="M117 915l20 115h182l11 45q19 96 60 168t86 110.5t100.5 61.5t95 29t78.5 6q20 0 39 -1.5t27 -2.5l9 -2l-26 -119q-18 4 -51 4q-28 0 -53.5 -3.5t-62 -19t-65 -41t-55.5 -74t-41 -114.5l-10 -47h262l-21 -115h-262l-178 -915h-139l176 915h-182z" />
<glyph unicode="g" horiz-adv-x="1255" d="M14 -344l66 104q13 -8 36 -19t94 -29.5t140 -18.5q80 0 147.5 19t126.5 60t100 115t58 176q7 40 16 73.5t14 47.5l5 13h-4q-126 -191 -344 -191q-182 0 -286.5 111.5t-104.5 298.5q0 111 36.5 222.5t103 205t172 152.5t231.5 59t215 -50t112 -139h4q-2 14 4 47 q11 60 44 88.5t96 28.5h186l-20 -115h-127q-47 0 -56 -43l-166 -858q-24 -119 -79.5 -207t-132 -138.5t-161.5 -74.5t-180 -24q-191 0 -346 86zM221 424q0 -137 72 -215t201 -78q97 0 176 51.5t126 134t72 176t25 185.5q0 252 -264 252q-94 0 -173 -44.5t-129 -116.5 t-78 -162t-28 -183z" />
<glyph unicode="h" horiz-adv-x="1286" d="M72 0l256 1325h-176l22 115h315l-106 -559q-4 -21 -11 -44t-12 -36l-4 -13h4q18 36 55.5 78t94 86.5t136.5 73.5t165 29q137 0 211 -69t74 -198q0 -68 -48.5 -307.5t-48.5 -273.5q0 -59 26.5 -77.5t72.5 -18.5l51 4l-23 -115q-40 -4 -75 -4q-34 0 -63 6t-62 23 t-52.5 54.5t-19.5 92.5q0 43 48 281.5t48 298.5q0 86 -46 129t-128 43q-169 0 -304 -132.5t-171 -318.5l-90 -473h-139z" />
<glyph unicode="i" horiz-adv-x="606" d="M106 915l23 115h324l-152 -764q-6 -35 -6 -59q0 -58 26 -77t72 -19l51 4l-22 -115q-43 -4 -72 -4q-200 0 -200 180q0 4 10 76l131 663h-185zM348 1266l35 174h158l-35 -174h-158z" />
<glyph unicode="j" horiz-adv-x="565" d="M-238 -416l25 117q16 -4 45 -4q28 0 55.5 4.5t64.5 21.5t67 44t56.5 78t39.5 118l184 952h-184l22 115h324l-207 -1063q-19 -98 -58 -172t-82 -114t-96.5 -64.5t-93.5 -31.5t-80 -7q-22 0 -42.5 1.5t-29.5 2.5zM358 1266l33 174h158l-35 -174h-156z" />
<glyph unicode="k" horiz-adv-x="1093" d="M70 0l260 1325h-185l23 115h324l-160 -811h141l311 286h-139l23 115h430l-23 -115h-127l-366 -337v-5q26 -20 53 -75l133 -297q15 -31 25 -46.5t34.5 -29.5t61.5 -14l57 4l-22 -115q-2 0 -14 -1t-29 -2t-31 -1q-41 0 -73 10t-52 22.5t-39.5 40.5t-29 47t-27.5 58 l-133 293q-12 28 -31 37.5t-59 9.5h-95l-102 -514h-139z" />
<glyph unicode="l" horiz-adv-x="561" d="M106 180q0 25 11 78l207 1067h-185l23 115h323l-225 -1166q-8 -50 -8 -67q0 -31 8 -50.5t23.5 -28t30 -11t36.5 -2.5l51 4l-22 -119q-39 -6 -72 -6q-28 0 -52 3.5t-52.5 15.5t-49 31.5t-34 54.5t-13.5 81z" />
<glyph unicode="m" horiz-adv-x="2009" d="M117 915l22 115h197q57 0 80.5 -21t23.5 -63q0 -19 -11.5 -76.5t-22.5 -87.5h4q54 105 176.5 189t255.5 84q134 0 197.5 -67.5t66.5 -199.5h4q63 116 179 191.5t245 75.5q137 0 211 -71t74 -198q0 -65 -48.5 -304t-48.5 -275q0 -59 25.5 -77.5t71.5 -18.5l53 4l-23 -115 q-42 -4 -75 -4q-34 0 -63 6t-62 23t-52.5 54.5t-19.5 92.5q0 43 48 283t48 295q0 85 -41.5 131.5t-138.5 46.5q-79 0 -153 -39.5t-129 -103.5t-93 -141.5t-53 -156.5l-94 -487h-140l119 621q19 89 19 137q0 170 -174 170q-105 0 -200 -67t-156 -168t-83 -212l-94 -481h-139 l170 870q1 6 1 12q0 33 -38 33h-139z" />
<glyph unicode="n" horiz-adv-x="1339" d="M117 915l22 115h197q56 0 80 -21t24 -63q0 -21 -11 -78t-23 -86h4q17 37 54.5 80.5t93.5 88.5t138.5 74.5t171.5 29.5q135 0 208 -68.5t73 -195.5q0 -69 -48 -309t-48 -275q0 -59 26 -77.5t72 -18.5l51 4l-22 -115q-41 -4 -76 -4q-34 0 -63 6t-62 23t-52.5 54.5 t-19.5 92.5q0 43 48.5 281.5t48.5 298.5q0 172 -179 172q-163 0 -300 -133.5t-171 -317.5l-92 -473h-139l170 870q1 6 1 12q0 33 -38 33h-139z" />
<glyph unicode="o" horiz-adv-x="1277" d="M70 426q0 129 54 246.5t143 200.5t206.5 132.5t241.5 49.5q202 0 330.5 -125t128.5 -320q0 -173 -92.5 -320.5t-241 -231t-312.5 -83.5q-203 0 -330.5 126t-127.5 325zM213 430q0 -145 91 -237.5t237 -92.5q121 0 233 66t184 183.5t72 254.5q0 143 -92 234.5t-238 91.5 q-123 0 -235 -66t-182 -182.5t-70 -251.5z" />
<glyph unicode="p" horiz-adv-x="1282" d="M43 -410l250 1280q1 6 1 12q0 33 -38 33h-139l22 115h195q57 0 80.5 -21t23.5 -61q0 -36 -26 -108h4q59 94 157 154.5t222 60.5q181 0 281 -110.5t100 -303.5q0 -143 -47.5 -269t-125.5 -212t-178.5 -135.5t-206.5 -49.5q-116 0 -202.5 53t-120.5 154h-4q-2 -45 -12 -98 l-97 -494h-139zM348 397q0 -129 66 -213t192 -84q61 0 121.5 23t115.5 69t97 108.5t67 148.5t25 182q0 139 -69 218t-191 79q-91 0 -172 -47t-135 -123t-85.5 -171t-31.5 -190z" />
<glyph unicode="q" horiz-adv-x="1228" d="M74 387q0 144 47 270.5t125.5 212.5t181 135.5t211.5 49.5q117 0 201.5 -54t117.5 -155h5q0 33 8 78l20 106h135l-260 -1327h185l-23 -113h-323l98 496q4 24 10.5 48.5t10.5 37.5l5 12h-4q-34 -56 -83 -101t-125 -76.5t-162 -31.5q-182 0 -281.5 110t-99.5 302zM217 397 q0 -138 69.5 -217.5t190.5 -79.5q122 0 221.5 82t151 204t51.5 251q0 128 -64.5 209.5t-191.5 81.5q-76 0 -151.5 -37t-137.5 -103t-100.5 -168.5t-38.5 -222.5z" />
<glyph unicode="r" horiz-adv-x="784" d="M115 915l22 115h197q57 0 80.5 -20.5t23.5 -63.5q0 -21 -14 -87t-27 -101h4q59 121 158 201.5t219 80.5q38 0 62 -6l-27 -137q-28 4 -51 4q-79 0 -153 -48.5t-127.5 -125.5t-91 -164.5t-54.5 -173.5l-74 -389h-139l168 870q1 6 1 12q0 33 -38 33h-139z" />
<glyph unicode="s" horiz-adv-x="970" d="M23 219l18 100h127l-14 -77q-2 -12 -2 -24q0 -30 16 -52q24 -31 68.5 -45t84 -19.5t80.5 -5.5q111 0 191 49.5t80 133.5q0 45 -28 79.5t-72 57.5t-98 44t-108 45.5t-98 54.5t-72 78t-28 110q0 95 60.5 166.5t153.5 106t200 34.5q87 0 159.5 -23t114.5 -72q32 -37 32 -83 q0 -15 -3 -31l-23 -111h-129l19 86q6 33 -10.5 56.5t-49.5 35t-66 16.5t-69 5q-99 0 -174.5 -46.5t-75.5 -127.5q0 -44 28 -78t72.5 -56.5t98.5 -42.5t108 -43.5t98.5 -53t72.5 -77t28 -108.5q0 -142 -119.5 -234t-314.5 -92q-69 0 -135 14.5t-122 42.5t-84 77 q-20 34 -19 73q0 18 4 37z" />
<glyph unicode="t" horiz-adv-x="688" d="M94 915l23 115h188l55 285h136l-56 -285h260l-22 -115h-260l-101 -528q-10 -44 -10 -90q0 -186 178 -186l58 4l-25 -119q-22 -4 -51 -4q-44 0 -82.5 6.5t-80.5 25.5t-71 50t-48 84.5t-19 124.5q0 47 12 112l101 520h-185z" />
<glyph unicode="u" horiz-adv-x="1329" d="M92 915l21 115h323l-119 -614q-18 -95 -18 -144q0 -81 40.5 -124.5t139.5 -43.5q83 0 162.5 40t139.5 104.5t102.5 145t58.5 163.5l68 358h-183l23 115h324l-150 -764q-6 -35 -6 -59q0 -58 26 -77t72 -19l51 4l-22 -115q-45 -4 -78 -4q-109 0 -154 66q-31 45 -31 109 q0 30 7 65h-4q-19 -33 -46 -66t-69 -69t-89.5 -63t-111 -45t-131.5 -18q-124 0 -203 64.5t-79 200.5q0 59 16 137l102 538h-182z" />
<glyph unicode="v" horiz-adv-x="1155" d="M80 915l20 115h422l-22 -115h-148l125 -690q3 -16 4 -36t1 -32l-1 -12h6q12 43 35 80l393 690h-149l22 115h433l-23 -115h-135l-528 -915h-150l-170 915h-135z" />
<glyph unicode="w" horiz-adv-x="1748" d="M86 915l20 115h422l-20 -115h-156l82 -692l-2 -80h6q13 43 31 80l416 803h137l100 -803l2 -80h4q13 43 31 80l350 692h-153l22 115h432l-22 -115h-133l-471 -915h-150l-104 772l-4 82h-4q-15 -45 -35 -82l-406 -772h-149l-115 915h-131z" />
<glyph unicode="x" horiz-adv-x="1112" d="M-53 0l20 115h154l344 424l-141 338q-11 24 -21.5 31t-34.5 7h-135l21 115h180q41 0 59.5 -15.5t36.5 -58.5l109 -266l20 -57h4q16 28 41 59l270 338h252l-22 -115h-164l-322 -389l140 -325q20 -47 45.5 -68.5t83.5 -21.5l71 4l-22 -115q-1 0 -30.5 -2t-49.5 -2 q-38 0 -67.5 5.5t-51.5 19.5t-37.5 26.5t-30 37.5t-22 41t-20.5 48l-80 203l-21 57h-4q-16 -26 -41 -59l-297 -375h-237z" />
<glyph unicode="y" horiz-adv-x="1181" d="M-106 -369l69 105q6 -5 16 -12t43 -19t68 -12q66 0 125 45.5t104 118.5l84 137l-188 921h-135l22 115h426l-22 -115h-150l133 -702l5 -74h4q14 35 37 74l405 702h-149l22 115h432l-22 -115h-136l-653 -1105q-143 -240 -348 -240q-56 0 -104 15t-68 31z" />
<glyph unicode="z" horiz-adv-x="1060" d="M-20 0l18 98l723 729l92 88v5q-37 -5 -100 -5h-400l-34 -182h-125l57 297h809l-21 -100l-723 -727q-21 -21 -43.5 -42.5t-36.5 -34t-14 -11.5v-4q42 4 103 4h450l35 182h127l-57 -297h-860z" />
<glyph unicode="{" horiz-adv-x="663" d="M78 598l24 127q7 1 19.5 3.5t45 18t60 38.5t55.5 69.5t40 106.5l34 174q14 71 38 128t51 94.5t61.5 64.5t66 41.5t68.5 22t63.5 9t57.5 0.5l-23 -115q-21 2 -44 -1t-56.5 -17.5t-62 -40.5t-54.5 -77t-39 -120l-41 -206q-11 -59 -37.5 -107t-56 -74t-57.5 -44t-46 -23 l-18 -6v-5q5 -2 13 -6.5t28.5 -22t36 -39t28.5 -58.5t13 -80q0 -25 -6 -60l-43 -217q-10 -58 -10 -92q0 -46 13 -79t31 -49.5t43.5 -25.5t44 -11t38.5 -1l-25 -115q-13 -2 -31 -2q-23 0 -48.5 4.5t-62.5 20.5t-65 42.5t-48.5 76.5t-20.5 116q0 40 14 115l35 189q6 35 6 61 q0 44 -13.5 77.5t-33.5 50.5t-39.5 28t-32.5 14z" />
<glyph unicode="|" horiz-adv-x="653" d="M270 -322v1936h129v-1936h-129z" />
<glyph unicode="}" horiz-adv-x="663" d="M-78 -197l21 115q22 -2 45 1t57 17.5t62 40.5t54.5 77t39.5 120l43 229q12 62 38.5 111.5t56 76t57 44.5t45.5 23l18 6v4q-5 2 -13 6.5t-28 21.5t-35.5 38t-28 57t-12.5 77q0 26 6 60l37 196q10 44 10 90q0 56 -18.5 93t-48.5 51.5t-53 18.5t-48 3l23 115q21 5 49 1 t59 -10t61 -26t53.5 -47t38.5 -73t15 -103q0 -40 -14 -115l-31 -164q-6 -38 -6 -63q0 -44 14 -77.5t33.5 -50.5t39.5 -28t34 -13l14 -3l-26 -127q-7 -1 -19 -3.5t-45 -17.5t-60 -38t-55 -69.5t-40 -107.5l-39 -196q-14 -71 -37.5 -128t-51.5 -94.5t-61 -66t-66.5 -41.5 t-67.5 -22.5t-64 -9t-56 0.5z" />
<glyph unicode="~" horiz-adv-x="1214" d="M137 428q0 162 69.5 239.5t190.5 77.5q53 0 96.5 -16t71 -39.5t56 -51t52 -51t58 -39.5t74.5 -16q43 0 74 20.5t45 54.5t20 65.5t6 64.5h121q0 -162 -69.5 -239.5t-190.5 -77.5q-62 0 -110.5 22t-80.5 53t-61.5 62.5t-68.5 53.5t-87 22q-43 0 -74 -20.5t-45 -54.5 t-20 -65.5t-6 -64.5h-121z" />
<glyph unicode="&#xa1;" horiz-adv-x="464" d="M-37 -410l215 1063h129l-201 -1063h-143zM201 868l35 162h159l-33 -162h-161z" />
<glyph unicode="&#xa2;" horiz-adv-x="1132" d="M109 586q0 122 40 244t110.5 222t177 166t229.5 74l32 172h117l-35 -176q56 -9 104 -30t79.5 -48t57 -57.5t40 -59.5t24 -52.5t12.5 -37.5l3 -14l-129 -49q-2 9 -5.5 24t-22.5 53t-45.5 67t-77.5 53t-115 24q-133 0 -237 -80.5t-158 -210t-54 -282.5q0 -142 68.5 -224.5 t207.5 -82.5q63 0 122.5 22.5t99 54.5t70 64.5t44.5 55.5l15 22l123 -51q-6 -12 -18 -31.5t-53.5 -70t-89.5 -90t-126 -74t-162 -38.5l-33 -172h-114l32 179q-156 24 -244.5 137t-88.5 297z" />
<glyph unicode="&#xa3;" horiz-adv-x="1245" d="M-18 0l22 121h180l107 547h-139l22 112h137l64 318q30 156 162.5 261t308.5 105q58 0 112 -12.5t89.5 -31t63 -36.5t39.5 -30l13 -13l-98 -92q-3 3 -9.5 9t-28 20.5t-45.5 25.5t-61.5 20t-76.5 9q-130 0 -219.5 -74t-110.5 -182l-57 -297h387l-23 -112h-387l-106 -547 h596l49 241h129l-70 -362h-1050z" />
<glyph unicode="&#xa5;" horiz-adv-x="1286" d="M199 432l18 105h334l16 79l-39 101h-276l22 104h218l-240 619h156l192 -512l57 -183h5q61 99 120 183l392 512h172l-482 -619h215l-20 -104h-273l-75 -101l-17 -79h330l-18 -105h-330l-86 -432h-144l86 432h-333z" />
<glyph unicode="&#xa7;" horiz-adv-x="827" d="M-14 -37l84 88q7 -6 19.5 -15t53 -24.5t84.5 -15.5q122 0 196 79t77 201l37 887h120l-34 -884q-2 -171 -111 -288.5t-287 -117.5q-43 0 -83 9.5t-67 22.5t-48 26t-31 23zM199 174l34 885q2 172 110.5 288.5t287.5 116.5q43 0 83 -9.5t67 -22.5t48 -26t31 -22l10 -10 l-86 -88q-6 6 -18.5 15t-52.5 24.5t-84 15.5q-122 0 -196 -79t-77 -201l-37 -887h-120z" />
<glyph unicode="&#xa8;" horiz-adv-x="1032" d="M135 1608l35 176h141l-35 -176h-141zM510 1608l35 176h143l-37 -176h-141z" />
<glyph unicode="&#xa9;" horiz-adv-x="1681" d="M137 721q0 152 57.5 290t154 237t230.5 157.5t281 58.5q150 0 286 -58.5t234 -157.5t155.5 -236.5t57.5 -290.5q0 -154 -57.5 -292.5t-155.5 -238t-233.5 -157.5t-286.5 -58q-147 0 -281 58.5t-230.5 157.5t-154 237.5t-57.5 292.5zM256 721q0 -176 79.5 -322 t218.5 -229.5t306 -83.5q170 0 311 83.5t221.5 229.5t80.5 322q0 175 -80.5 320t-221.5 229t-311 84q-167 0 -306 -84t-218.5 -229.5t-79.5 -319.5zM459 717q0 110 48 204.5t146 156t228 61.5q62 0 119.5 -19.5t94.5 -47.5t65.5 -56.5t41.5 -47.5l12 -20l-94 -63 q-3 6 -10 15.5t-29.5 33.5t-48 43t-65.5 34t-82 15q-142 0 -223.5 -90.5t-81.5 -216.5q0 -127 81 -217t224 -90q43 0 83 14.5t66.5 35t46.5 41.5t29 35l10 15l94 -64q-4 -8 -13 -20.5t-40 -45.5t-66.5 -58t-93.5 -45.5t-120 -20.5q-131 0 -229 60.5t-145.5 154t-47.5 203.5z " />
<glyph unicode="&#xaa;" horiz-adv-x="882" d="M158 541l18 96h539l-19 -96h-538zM242 952q0 50 19 90t47 65.5t69.5 44.5t78.5 28t83 14.5t72.5 6.5t56.5 1h39q4 15 4 17q12 69 -17.5 107t-99.5 38q-42 0 -88 -14t-71 -28l-25 -15l-39 84q11 8 32 19.5t84 30.5t125 19q215 0 215 -190q0 -35 -10 -80l-78 -395h-108 l20 102h-4q-3 -5 -9 -12.5t-27 -27.5t-44 -35t-59 -27.5t-74 -12.5q-74 0 -133 44.5t-59 125.5zM360 965q0 -39 27 -62.5t80 -23.5q77 0 141.5 76.5t81.5 160.5h-26q-304 0 -304 -151z" />
<glyph unicode="&#xab;" horiz-adv-x="1075" d="M94 582l393 417h160l-409 -428l260 -413h-142zM455 582l422 417h161l-440 -428l260 -413h-141z" />
<glyph unicode="&#xac;" horiz-adv-x="1290" d="M160 700v119h954v-495h-125v376h-829z" />
<glyph unicode="&#xad;" horiz-adv-x="1009" d="M197 518l22 127h582l-23 -127h-581z" />
<glyph unicode="&#xae;" horiz-adv-x="1681" d="M137 721q0 152 57.5 290t154 237t230.5 157.5t281 58.5q150 0 286 -58.5t234 -157.5t155.5 -236.5t57.5 -290.5q0 -154 -57.5 -292.5t-155.5 -238t-233.5 -157.5t-286.5 -58q-147 0 -281 58.5t-230.5 157.5t-154 237.5t-57.5 292.5zM256 721q0 -176 79.5 -322 t218.5 -229.5t306 -83.5q170 0 311 83.5t221.5 229.5t80.5 322q0 175 -80.5 320t-221.5 229t-311 84q-167 0 -306 -84t-218.5 -229.5t-79.5 -319.5zM616 322v798h285q108 0 175 -65t67 -172q0 -84 -45 -140t-107 -71v-4q9 -10 27 -45l156 -301h-130l-157 323h-154v-323h-117 zM733 735h150q65 0 103 39.5t38 108.5q0 67 -38 104t-103 37h-150v-289z" />
<glyph unicode="&#xaf;" horiz-adv-x="1032" d="M147 1608l21 112h506l-21 -112h-506z" />
<glyph unicode="&#xb0;" horiz-adv-x="784" d="M209 1141q0 125 101.5 223t228.5 98q113 0 184.5 -70.5t71.5 -177.5q0 -125 -103 -223t-227 -98q-113 0 -184.5 70t-71.5 178zM332 1145q0 -60 38 -98.5t101 -38.5q79 0 140 60.5t61 141.5q0 59 -39 98.5t-101 39.5q-78 0 -139 -62t-61 -141z" />
<glyph unicode="&#xb1;" d="M82 522v119h473v522h125v-522h471v-119h-471v-522h-125v522h-473zM119 -213h995v-119h-995v119z" />
<glyph unicode="&#xb2;" horiz-adv-x="866" d="M188 866q1 73 26.5 135.5t65.5 106t91 83.5t104 69t103.5 62t90 63.5t63.5 72t24 88.5q0 55 -38.5 91t-101.5 36q-49 0 -99.5 -25t-76.5 -50l-26 -25l-66 78l13.5 13.5t37.5 30.5t59 39t75.5 30.5t89.5 13.5q117 0 184 -61.5t67 -162.5q0 -58 -21 -108.5t-55.5 -86.5 t-79.5 -70t-93 -60t-97 -56t-89.5 -58.5t-71.5 -67.5t-43 -82h360l23 112h100l-39 -211h-580z" />
<glyph unicode="&#xb3;" horiz-adv-x="823" d="M180 981l80 74q3 -4 9 -11t26.5 -25t44 -31.5t61 -24.5t76.5 -11q86 0 152.5 62.5t66.5 152.5q0 64 -51 102t-121 38h-63l-19 61l265 254l51 41v4q-27 -6 -60 -6h-239l-23 -113h-102l41 209h545l-15 -74l-301 -288q34 -5 67 -19t66.5 -39.5t54.5 -69.5t21 -100 q0 -127 -99.5 -224t-236.5 -97q-55 0 -105.5 14t-84 34t-59 39.5t-36.5 33.5z" />
<glyph unicode="&#xb4;" horiz-adv-x="1032" d="M190 1540l250 244h187l-281 -244h-156z" />
<glyph unicode="&#xb6;" horiz-adv-x="1179" d="M150 903q0 142 82 267.5t212 197.5t269 72h514l-25 -127h-371l-274 -1415h-119l117 596q-106 0 -198.5 52t-149.5 146.5t-57 210.5zM684 -102l250 1292h117l-250 -1292h-117z" />
<glyph unicode="&#xb7;" horiz-adv-x="569" d="M182 504l33 170h164l-33 -170h-164z" />
<glyph unicode="&#xb8;" horiz-adv-x="1032" d="M197 -418l18 90q35 -10 84 -10q47 0 85 19t38 63q0 29 -30 46t-81 17h-28l102 234l78 -14l-2 -17l-53 -129q56 -8 92.5 -43t36.5 -92q0 -59 -38.5 -100.5t-90 -58.5t-107.5 -17q-28 0 -54 3t-38 6z" />
<glyph unicode="&#xb9;" horiz-adv-x="817" d="M190 866l19 99h215l108 567l19 74h-4q-20 -27 -53 -54l-113 -94l-59 80l264 219h106l-155 -792h211l-21 -99h-537z" />
<glyph unicode="&#xba;" horiz-adv-x="978" d="M168 541l18 96h619l-19 -96h-618zM242 1067q0 106 57 197.5t149.5 144.5t194.5 53q130 0 210.5 -79t80.5 -201q0 -81 -34.5 -155.5t-90.5 -127.5t-129.5 -84t-149.5 -31q-130 0 -209 79t-79 204zM354 1075q0 -84 51.5 -135t135.5 -51q107 0 193.5 84t86.5 203 q0 82 -52.5 133t-135.5 51q-108 0 -193.5 -84t-85.5 -201z" />
<glyph unicode="&#xbb;" horiz-adv-x="1079" d="M33 158l438 428l-260 413h141l262 -424l-419 -417h-162zM422 158l409 428l-260 413h142l262 -424l-391 -417h-162z" />
<glyph unicode="&#xbc;" horiz-adv-x="1923" d="M111 549l18 98h215l109 567l18 74h-4q-20 -26 -53 -53l-113 -94l-59 80l264 219h106l-155 -793h211l-21 -98h-536zM424 0l967 1440h127l-967 -1440h-127zM1094 236l14 75l545 580h112l-108 -559h133l-18 -96h-134l-47 -236h-112l47 236h-432zM1245 332h299l64 330l24 88 h-4q-26 -41 -59 -74l-324 -340v-4z" />
<glyph unicode="&#xbd;" horiz-adv-x="1882" d="M94 549l19 98h215l108 567l19 74h-4q-21 -26 -54 -53l-112 -94l-60 80l264 219h107l-156 -793h211l-20 -98h-537zM410 0l966 1440h127l-966 -1440h-127zM1092 0q2 83 34 152t82 116t110.5 87.5t120 75t109 70t80.5 81t31 98.5q0 55 -38 91t-101 36q-49 0 -100 -25 t-77 -50l-26 -25l-66 77l13.5 13.5t37.5 30.5t59 39t75.5 30.5t89.5 13.5q117 0 184.5 -61t67.5 -162q0 -66 -27 -122t-71 -95.5t-97.5 -74t-110.5 -67t-106 -64.5t-87 -75t-52 -92h360l23 113h100l-39 -211h-579z" />
<glyph unicode="&#xbe;" horiz-adv-x="1961" d="M117 664l80 73q3 -4 9 -11t26.5 -24.5t44 -31t61 -24.5t76.5 -11q86 0 152.5 62.5t66.5 152.5q0 64 -51 101.5t-121 37.5h-64l-18 62l264 254l51 41v4q-26 -7 -59 -7h-240l-22 -112h-103l41 209h545l-14 -74l-301 -289q34 -5 67 -19t66.5 -39t54.5 -69t21 -100 q0 -127 -99.5 -224.5t-236.5 -97.5q-55 0 -105.5 14t-84 34t-59 40t-37.5 34zM455 0l966 1440h127l-966 -1440h-127zM1124 236l15 75l544 580h113l-108 -559h133l-19 -96h-133l-47 -236h-113l47 236h-432zM1276 332h299l63 330l25 88h-4q-27 -41 -60 -74l-323 -340v-4z" />
<glyph unicode="&#xbf;" horiz-adv-x="940" d="M-18 -119q0 74 24 138.5t64 111.5t88 89t99 81.5t95 78t78 88t45 103.5l19 82h137l-19 -88q-14 -69 -48.5 -129t-77.5 -103.5t-92.5 -84t-95.5 -78t-83.5 -77t-60.5 -90t-23 -107.5q0 -85 60.5 -139t164.5 -54q64 0 130 21.5t100 43.5l35 21l59 -113q-6 -4 -17.5 -11.5 t-47.5 -25.5t-73.5 -32t-92.5 -25.5t-107 -11.5q-163 0 -261.5 85t-98.5 226zM520 868l33 162h162l-33 -162h-162z" />
<glyph unicode="&#xc0;" horiz-adv-x="1464" d="M-94 0l22 119h146l741 1321h160l227 -1321h146l-23 -119h-455l23 119h166l-64 370h-561l-207 -370h164l-24 -119h-461zM498 610h481l-98 590q-4 21 -6 44t-3 36v12h-4q-14 -45 -39 -92zM684 1784h172l154 -244h-142z" />
<glyph unicode="&#xc1;" horiz-adv-x="1464" d="M-94 0l22 119h146l741 1321h160l227 -1321h146l-23 -119h-455l23 119h166l-64 370h-561l-207 -370h164l-24 -119h-461zM498 610h481l-98 590q-4 21 -6 44t-3 36v12h-4q-14 -45 -39 -92zM811 1540l250 244h186l-280 -244h-156z" />
<glyph unicode="&#xc2;" horiz-adv-x="1464" d="M-94 0l22 119h146l741 1321h160l227 -1321h146l-23 -119h-455l23 119h166l-64 370h-561l-207 -370h164l-24 -119h-461zM498 610h481l-98 590q-4 21 -6 44t-3 36v12h-4q-14 -45 -39 -92zM651 1540l221 244h166l123 -244h-135l-78 166h-4l-143 -166h-150z" />
<glyph unicode="&#xc3;" horiz-adv-x="1464" d="M-94 0l22 119h146l741 1321h160l227 -1321h146l-23 -119h-455l23 119h166l-64 370h-561l-207 -370h164l-24 -119h-461zM498 610h481l-98 590q-4 21 -6 44t-3 36v12h-4q-14 -45 -39 -92zM606 1546q22 116 78 178t139 62q38 0 68 -15t48 -36t33.5 -42t34.5 -36t42 -15 q74 0 102 138h119q-22 -116 -78.5 -178t-138.5 -62q-39 0 -68.5 14.5t-47.5 35t-33.5 41.5t-34.5 35.5t-42 14.5q-77 0 -102 -135h-119z" />
<glyph unicode="&#xc4;" horiz-adv-x="1464" d="M-94 0l22 119h146l741 1321h160l227 -1321h146l-23 -119h-455l23 119h166l-64 370h-561l-207 -370h164l-24 -119h-461zM498 610h481l-98 590q-4 21 -6 44t-3 36v12h-4q-14 -45 -39 -92zM670 1608l35 176h141l-35 -176h-141zM1044 1608l35 176h144l-37 -176h-142z" />
<glyph unicode="&#xc5;" horiz-adv-x="1464" d="M-94 0l22 119h146l741 1321h160l227 -1321h146l-23 -119h-455l23 119h166l-64 370h-561l-207 -370h164l-24 -119h-461zM498 610h481l-98 590q-4 21 -6 44t-3 36v12h-4q-14 -45 -39 -92zM768 1642q0 74 59 125.5t131 51.5q66 0 109 -37t43 -99q0 -73 -59 -124.5 t-133 -51.5q-64 0 -107 37.5t-43 97.5zM864 1645q0 -26 16 -42t44 -16q39 0 64.5 27t25.5 69q0 27 -16.5 42.5t-45.5 15.5q-35 0 -61.5 -27.5t-26.5 -68.5z" />
<glyph unicode="&#xc6;" horiz-adv-x="1900" d="M-86 0l25 119h131l727 1202h-160l22 119h1252l-60 -299h-127l35 176h-555l-104 -531h540l-24 -122h-541l-104 -541h594l34 178h127l-59 -301h-1044l22 119h180l107 547h-381l-328 -547h160l-25 -119h-444zM623 784h333l105 533h-117z" />
<glyph unicode="&#xc7;" horiz-adv-x="1521" d="M129 600q0 175 72 336t191 276t278 183.5t327 68.5q57 0 120.5 -6.5t138.5 -26t130.5 -49t87.5 -82t19 -118.5l-31 -158h-137l23 119q10 53 -22.5 92.5t-92 60t-120.5 30t-120 9.5q-142 0 -274 -59t-229 -156.5t-155.5 -231.5t-58.5 -278q0 -225 132 -365.5t352 -140.5 q63 0 132.5 11.5t137 34t115 62.5t57.5 89l23 113h137l-29 -152q-15 -74 -77.5 -132t-149.5 -90.5t-176 -48.5t-172 -16h-10l-37 -94q56 -8 91.5 -43t35.5 -92q0 -59 -38 -100.5t-89 -58.5t-107 -17q-28 0 -54.5 3t-39.5 6l-12 3l18 90q35 -10 84 -10q48 0 85.5 19t37.5 63 q0 29 -29 46t-80 17h-30l75 175q-245 29 -387.5 197t-142.5 421z" />
<glyph unicode="&#xc8;" horiz-adv-x="1284" d="M-4 0l24 119h187l233 1202h-188l24 119h1016l-59 -299h-129l35 176h-555l-103 -531h543l-25 -122h-542l-107 -541h594l37 186h129l-61 -309h-1053zM608 1784h172l154 -244h-141z" />
<glyph unicode="&#xc9;" horiz-adv-x="1284" d="M-4 0l24 119h187l233 1202h-188l24 119h1016l-59 -299h-129l35 176h-555l-103 -531h543l-25 -122h-542l-107 -541h594l37 186h129l-61 -309h-1053zM733 1540l250 244h186l-280 -244h-156z" />
<glyph unicode="&#xca;" horiz-adv-x="1284" d="M-4 0l24 119h187l233 1202h-188l24 119h1016l-59 -299h-129l35 176h-555l-103 -531h543l-25 -122h-542l-107 -541h594l37 186h129l-61 -309h-1053zM575 1540l222 244h166l122 -244h-135l-78 166h-4l-143 -166h-150z" />
<glyph unicode="&#xcb;" horiz-adv-x="1284" d="M-4 0l24 119h187l233 1202h-188l24 119h1016l-59 -299h-129l35 176h-555l-103 -531h543l-25 -122h-542l-107 -541h594l37 186h129l-61 -309h-1053zM594 1608l35 176h141l-35 -176h-141zM969 1608l35 176h143l-37 -176h-141z" />
<glyph unicode="&#xcc;" horiz-adv-x="745" d="M-2 0l22 119h187l233 1202h-186l22 119h521l-23 -119h-190l-234 -1202h189l-23 -119h-518zM322 1784h172l153 -244h-141z" />
<glyph unicode="&#xcd;" horiz-adv-x="745" d="M-2 0l22 119h187l233 1202h-186l22 119h521l-23 -119h-190l-234 -1202h189l-23 -119h-518zM449 1540l249 244h187l-281 -244h-155z" />
<glyph unicode="&#xce;" horiz-adv-x="745" d="M-2 0l22 119h187l233 1202h-186l22 119h521l-23 -119h-190l-234 -1202h189l-23 -119h-518zM289 1540l221 244h166l123 -244h-135l-78 166h-4l-144 -166h-149z" />
<glyph unicode="&#xcf;" horiz-adv-x="745" d="M-2 0l22 119h187l233 1202h-186l22 119h521l-23 -119h-190l-234 -1202h189l-23 -119h-518zM309 1608l35 176h141l-34 -176h-142zM684 1608l35 176h143l-37 -176h-141z" />
<glyph unicode="&#xd0;" horiz-adv-x="1611" d="M-2 0l22 119h187l106 543h-159l22 122h160l106 537h-188l22 119h625q294 0 460.5 -146.5t166.5 -412.5q0 -180 -63.5 -341.5t-174.5 -280.5t-271.5 -189t-344.5 -70h-676zM350 123h307q206 0 371.5 98t258.5 269t93 382q0 213 -129.5 329t-359.5 116h-305l-107 -533h348 l-24 -122h-346z" />
<glyph unicode="&#xd1;" horiz-adv-x="1705" d="M-4 0l24 119h187l233 1202h-188l24 119h322l584 -1143q7 -16 14 -37t10 -34l4 -13h4q5 57 13 94l200 1014h-190l23 119h522l-23 -119h-188l-258 -1321h-137l-586 1145q-7 15 -14 36t-10 35l-3 13h-4q-4 -57 -12 -94l-197 -1016h191l-25 -119h-520zM737 1546 q22 116 78 178t139 62q38 0 68 -15t48 -36t33.5 -42t34.5 -36t42 -15q74 0 102 138h119q-22 -116 -78.5 -178t-138.5 -62q-39 0 -68.5 14.5t-47.5 35t-33.5 41.5t-34.5 35.5t-42 14.5q-77 0 -102 -135h-119z" />
<glyph unicode="&#xd2;" horiz-adv-x="1691" d="M125 598q0 172 74 332.5t194.5 277t281 186.5t326.5 70q272 0 443.5 -170.5t171.5 -435.5q0 -140 -48 -274.5t-132.5 -243t-194.5 -191.5t-240.5 -128.5t-263.5 -45.5q-272 0 -442 175t-170 448zM270 602q0 -219 134 -357.5t346 -138.5q132 0 262 59.5t230.5 159t163 239 t62.5 288.5q0 213 -134 347t-347 134q-133 0 -263.5 -58.5t-230.5 -156t-161.5 -234t-61.5 -282.5zM799 1784h172l153 -244h-141z" />
<glyph unicode="&#xd3;" horiz-adv-x="1691" d="M125 598q0 172 74 332.5t194.5 277t281 186.5t326.5 70q272 0 443.5 -170.5t171.5 -435.5q0 -140 -48 -274.5t-132.5 -243t-194.5 -191.5t-240.5 -128.5t-263.5 -45.5q-272 0 -442 175t-170 448zM270 602q0 -219 134 -357.5t346 -138.5q132 0 262 59.5t230.5 159t163 239 t62.5 288.5q0 213 -134 347t-347 134q-133 0 -263.5 -58.5t-230.5 -156t-161.5 -234t-61.5 -282.5zM924 1540l250 244h186l-281 -244h-155z" />
<glyph unicode="&#xd4;" horiz-adv-x="1691" d="M125 598q0 172 74 332.5t194.5 277t281 186.5t326.5 70q272 0 443.5 -170.5t171.5 -435.5q0 -140 -48 -274.5t-132.5 -243t-194.5 -191.5t-240.5 -128.5t-263.5 -45.5q-272 0 -442 175t-170 448zM270 602q0 -219 134 -357.5t346 -138.5q132 0 262 59.5t230.5 159t163 239 t62.5 288.5q0 213 -134 347t-347 134q-133 0 -263.5 -58.5t-230.5 -156t-161.5 -234t-61.5 -282.5zM766 1540l221 244h166l123 -244h-135l-78 166h-4l-144 -166h-149z" />
<glyph unicode="&#xd5;" horiz-adv-x="1691" d="M125 598q0 172 74 332.5t194.5 277t281 186.5t326.5 70q272 0 443.5 -170.5t171.5 -435.5q0 -140 -48 -274.5t-132.5 -243t-194.5 -191.5t-240.5 -128.5t-263.5 -45.5q-272 0 -442 175t-170 448zM270 602q0 -219 134 -357.5t346 -138.5q132 0 262 59.5t230.5 159t163 239 t62.5 288.5q0 213 -134 347t-347 134q-133 0 -263.5 -58.5t-230.5 -156t-161.5 -234t-61.5 -282.5zM721 1546q22 116 78 178t139 62q38 0 68 -15t48 -36t33 -42t34 -36t42 -15q75 0 103 138h118q-22 -116 -78.5 -178t-138.5 -62q-39 0 -68.5 14.5t-47.5 35t-33 41.5 t-34 35.5t-42 14.5q-77 0 -102 -135h-119z" />
<glyph unicode="&#xd6;" horiz-adv-x="1691" d="M125 598q0 172 74 332.5t194.5 277t281 186.5t326.5 70q272 0 443.5 -170.5t171.5 -435.5q0 -140 -48 -274.5t-132.5 -243t-194.5 -191.5t-240.5 -128.5t-263.5 -45.5q-272 0 -442 175t-170 448zM270 602q0 -219 134 -357.5t346 -138.5q132 0 262 59.5t230.5 159t163 239 t62.5 288.5q0 213 -134 347t-347 134q-133 0 -263.5 -58.5t-230.5 -156t-161.5 -234t-61.5 -282.5zM784 1608l35 176h142l-35 -176h-142zM1159 1608l35 176h143l-37 -176h-141z" />
<glyph unicode="&#xd7;" d="M94 84l443 498l-443 497l84 84l438 -493l439 493l84 -84l-445 -497l445 -498l-84 -84l-439 494l-438 -494z" />
<glyph unicode="&#xd8;" horiz-adv-x="1693" d="M125 598q0 171 74 332.5t193.5 277.5t277 186t319.5 70q226 0 383 -114l129 141l80 -66l-129 -141q78 -81 121 -191t43 -235q0 -140 -47.5 -274.5t-132 -243t-193 -191.5t-236.5 -128.5t-257 -45.5q-230 0 -390 119l-131 -143l-82 63l138 150q-160 171 -160 434zM272 602 q0 -201 113 -332l891 975q-122 86 -287 86q-134 0 -264.5 -58t-230 -155t-161 -233.5t-61.5 -282.5zM457 199q123 -90 295 -90q132 0 262 59.5t230 158.5t162 237.5t62 287.5q0 195 -116 324z" />
<glyph unicode="&#xd9;" horiz-adv-x="1628" d="M211 1321l22 119h521l-23 -119h-188l-150 -766q-18 -117 -18 -154q0 -137 90.5 -216t251.5 -79q186 0 307 97q137 107 178 307l160 811h-188l22 119h520l-22 -119h-189l-164 -829q-26 -135 -90.5 -240.5t-160.5 -169.5q-159 -107 -377 -107q-217 0 -350.5 112t-133.5 298 q0 24 2.5 51.5t5.5 45t7.5 44t5.5 31.5l149 764h-188zM764 1784h172l154 -244h-142z" />
<glyph unicode="&#xda;" horiz-adv-x="1628" d="M211 1321l22 119h521l-23 -119h-188l-150 -766q-18 -117 -18 -154q0 -137 90.5 -216t251.5 -79q186 0 307 97q137 107 178 307l160 811h-188l22 119h520l-22 -119h-189l-164 -829q-26 -135 -90.5 -240.5t-160.5 -169.5q-159 -107 -377 -107q-217 0 -350.5 112t-133.5 298 q0 24 2.5 51.5t5.5 45t7.5 44t5.5 31.5l149 764h-188zM889 1540l250 244h186l-281 -244h-155z" />
<glyph unicode="&#xdb;" horiz-adv-x="1628" d="M211 1321l22 119h521l-23 -119h-188l-150 -766q-18 -117 -18 -154q0 -137 90.5 -216t251.5 -79q186 0 307 97q137 107 178 307l160 811h-188l22 119h520l-22 -119h-189l-164 -829q-26 -135 -90.5 -240.5t-160.5 -169.5q-159 -107 -377 -107q-217 0 -350.5 112t-133.5 298 q0 24 2.5 51.5t5.5 45t7.5 44t5.5 31.5l149 764h-188zM731 1540l221 244h166l123 -244h-135l-78 166h-4l-143 -166h-150z" />
<glyph unicode="&#xdc;" horiz-adv-x="1628" d="M211 1321l22 119h521l-23 -119h-188l-150 -766q-18 -117 -18 -154q0 -137 90.5 -216t251.5 -79q186 0 307 97q137 107 178 307l160 811h-188l22 119h520l-22 -119h-189l-164 -829q-26 -135 -90.5 -240.5t-160.5 -169.5q-159 -107 -377 -107q-217 0 -350.5 112t-133.5 298 q0 24 2.5 51.5t5.5 45t7.5 44t5.5 31.5l149 764h-188zM750 1608l34 176h142l-35 -176h-141zM1124 1608l35 176h144l-37 -176h-142z" />
<glyph unicode="&#xdd;" horiz-adv-x="1318" d="M162 1321l24 119h449l-25 -119h-159l208 -524l19 -56h4q19 29 39 56l418 524h-162l22 119h461l-24 -119h-142l-559 -703l-98 -499h188l-24 -119h-520l24 119h189l98 499l-289 703h-141zM735 1540l250 244h186l-280 -244h-156z" />
<glyph unicode="&#xde;" horiz-adv-x="1320" d="M-4 0l24 119h187l233 1202h-188l24 119h521l-25 -119h-188l-35 -166h354q174 0 276.5 -91t102.5 -249q0 -142 -73 -253t-190 -168.5t-253 -57.5h-375l-43 -217h191l-25 -119h-518zM414 455h342q160 0 269.5 98.5t109.5 263.5q0 106 -70.5 162.5t-196.5 56.5h-342z" />
<glyph unicode="&#xdf;" horiz-adv-x="1193" d="M72 0l213 1104q22 112 94 195.5t166.5 124t195.5 40.5q153 0 241.5 -76t88.5 -192q0 -50 -17 -94.5t-44.5 -78t-60.5 -63.5t-66.5 -56t-61 -51t-44.5 -53.5t-17 -58.5q0 -36 32 -73t78 -73t92.5 -75.5t78.5 -94.5t32 -116q0 -133 -112 -228t-259 -95q-88 0 -166 16.5 t-112 32.5l-35 16l25 129q4 -3 12.5 -7.5t37 -16.5t59 -21t77 -16.5t94.5 -7.5q55 0 106.5 19.5t89.5 66t38 110.5q0 40 -23.5 78.5t-58.5 68t-76 63t-76 63.5t-58.5 70.5t-23.5 82.5q0 57 32.5 108.5t78.5 90.5t92 76.5t78.5 83t32.5 94.5q0 63 -48.5 108t-140.5 45 q-108 0 -200.5 -70.5t-116.5 -191.5l-209 -1077h-139z" />
<glyph unicode="&#xe0;" horiz-adv-x="1120" d="M10 233q0 69 24 126t64.5 97.5t97.5 71.5t118.5 50t132.5 31.5t134 17t128 4.5h67q17 80 17 117q0 184 -211 184q-48 0 -97 -10t-86 -24t-66.5 -28t-44.5 -24l-16 -10l-43 112q7 4 19 11.5t51 26t80.5 32.5t103 25.5t121.5 11.5q154 0 242 -71.5t88 -215.5 q0 -65 -51.5 -293.5t-51.5 -267.5q0 -58 26.5 -77t70.5 -19l53 4l-23 -115q-40 -4 -77 -4q-94 0 -144 50.5t-43 150.5h-4q2 0 -14.5 -23t-48.5 -55.5t-75.5 -65t-108 -55.5t-132.5 -23q-130 0 -215.5 69t-85.5 189zM152 254q0 -71 48.5 -117.5t145.5 -46.5q69 0 136.5 36 t119 93t89 125.5t54.5 136.5l11 45h-60q-45 0 -85 -1.5t-97.5 -8t-104.5 -17.5t-96.5 -31.5t-83.5 -48.5t-55.5 -70.5t-21.5 -94.5zM416 1440h172l153 -244h-141z" />
<glyph unicode="&#xe1;" horiz-adv-x="1120" d="M10 233q0 69 24 126t64.5 97.5t97.5 71.5t118.5 50t132.5 31.5t134 17t128 4.5h67q17 80 17 117q0 184 -211 184q-48 0 -97 -10t-86 -24t-66.5 -28t-44.5 -24l-16 -10l-43 112q7 4 19 11.5t51 26t80.5 32.5t103 25.5t121.5 11.5q154 0 242 -71.5t88 -215.5 q0 -65 -51.5 -293.5t-51.5 -267.5q0 -58 26.5 -77t70.5 -19l53 4l-23 -115q-40 -4 -77 -4q-94 0 -144 50.5t-43 150.5h-4q2 0 -14.5 -23t-48.5 -55.5t-75.5 -65t-108 -55.5t-132.5 -23q-130 0 -215.5 69t-85.5 189zM152 254q0 -71 48.5 -117.5t145.5 -46.5q69 0 136.5 36 t119 93t89 125.5t54.5 136.5l11 45h-60q-45 0 -85 -1.5t-97.5 -8t-104.5 -17.5t-96.5 -31.5t-83.5 -48.5t-55.5 -70.5t-21.5 -94.5zM543 1196l250 244h186l-281 -244h-155z" />
<glyph unicode="&#xe2;" horiz-adv-x="1120" d="M10 233q0 69 24 126t64.5 97.5t97.5 71.5t118.5 50t132.5 31.5t134 17t128 4.5h67q17 80 17 117q0 184 -211 184q-48 0 -97 -10t-86 -24t-66.5 -28t-44.5 -24l-16 -10l-43 112q7 4 19 11.5t51 26t80.5 32.5t103 25.5t121.5 11.5q154 0 242 -71.5t88 -215.5 q0 -65 -51.5 -293.5t-51.5 -267.5q0 -58 26.5 -77t70.5 -19l53 4l-23 -115q-40 -4 -77 -4q-94 0 -144 50.5t-43 150.5h-4q2 0 -14.5 -23t-48.5 -55.5t-75.5 -65t-108 -55.5t-132.5 -23q-130 0 -215.5 69t-85.5 189zM152 254q0 -71 48.5 -117.5t145.5 -46.5q69 0 136.5 36 t119 93t89 125.5t54.5 136.5l11 45h-60q-45 0 -85 -1.5t-97.5 -8t-104.5 -17.5t-96.5 -31.5t-83.5 -48.5t-55.5 -70.5t-21.5 -94.5zM385 1196l221 244h166l123 -244h-135l-78 166h-4l-143 -166h-150z" />
<glyph unicode="&#xe3;" horiz-adv-x="1120" d="M10 233q0 69 24 126t64.5 97.5t97.5 71.5t118.5 50t132.5 31.5t134 17t128 4.5h67q17 80 17 117q0 184 -211 184q-48 0 -97 -10t-86 -24t-66.5 -28t-44.5 -24l-16 -10l-43 112q7 4 19 11.5t51 26t80.5 32.5t103 25.5t121.5 11.5q154 0 242 -71.5t88 -215.5 q0 -65 -51.5 -293.5t-51.5 -267.5q0 -58 26.5 -77t70.5 -19l53 4l-23 -115q-40 -4 -77 -4q-94 0 -144 50.5t-43 150.5h-4q2 0 -14.5 -23t-48.5 -55.5t-75.5 -65t-108 -55.5t-132.5 -23q-130 0 -215.5 69t-85.5 189zM152 254q0 -71 48.5 -117.5t145.5 -46.5q69 0 136.5 36 t119 93t89 125.5t54.5 136.5l11 45h-60q-45 0 -85 -1.5t-97.5 -8t-104.5 -17.5t-96.5 -31.5t-83.5 -48.5t-55.5 -70.5t-21.5 -94.5zM338 1202q22 116 78 178t139 62q38 0 68 -15t48 -36t33 -42t34 -36t42 -15q75 0 103 138h118q-22 -116 -78.5 -178t-138.5 -62 q-39 0 -68.5 14.5t-47.5 35t-33 41.5t-34 35.5t-42 14.5q-77 0 -102 -135h-119z" />
<glyph unicode="&#xe4;" horiz-adv-x="1120" d="M10 233q0 69 24 126t64.5 97.5t97.5 71.5t118.5 50t132.5 31.5t134 17t128 4.5h67q17 80 17 117q0 184 -211 184q-48 0 -97 -10t-86 -24t-66.5 -28t-44.5 -24l-16 -10l-43 112q7 4 19 11.5t51 26t80.5 32.5t103 25.5t121.5 11.5q154 0 242 -71.5t88 -215.5 q0 -65 -51.5 -293.5t-51.5 -267.5q0 -58 26.5 -77t70.5 -19l53 4l-23 -115q-40 -4 -77 -4q-94 0 -144 50.5t-43 150.5h-4q2 0 -14.5 -23t-48.5 -55.5t-75.5 -65t-108 -55.5t-132.5 -23q-130 0 -215.5 69t-85.5 189zM152 254q0 -71 48.5 -117.5t145.5 -46.5q69 0 136.5 36 t119 93t89 125.5t54.5 136.5l11 45h-60q-45 0 -85 -1.5t-97.5 -8t-104.5 -17.5t-96.5 -31.5t-83.5 -48.5t-55.5 -70.5t-21.5 -94.5zM403 1264l35 176h142l-35 -176h-142zM778 1264l35 176h143l-36 -176h-142z" />
<glyph unicode="&#xe5;" horiz-adv-x="1120" d="M10 233q0 69 24 126t64.5 97.5t97.5 71.5t118.5 50t132.5 31.5t134 17t128 4.5h67q17 80 17 117q0 184 -211 184q-48 0 -97 -10t-86 -24t-66.5 -28t-44.5 -24l-16 -10l-43 112q7 4 19 11.5t51 26t80.5 32.5t103 25.5t121.5 11.5q154 0 242 -71.5t88 -215.5 q0 -65 -51.5 -293.5t-51.5 -267.5q0 -58 26.5 -77t70.5 -19l53 4l-23 -115q-40 -4 -77 -4q-94 0 -144 50.5t-43 150.5h-4q2 0 -14.5 -23t-48.5 -55.5t-75.5 -65t-108 -55.5t-132.5 -23q-130 0 -215.5 69t-85.5 189zM152 254q0 -71 48.5 -117.5t145.5 -46.5q69 0 136.5 36 t119 93t89 125.5t54.5 136.5l11 45h-60q-45 0 -85 -1.5t-97.5 -8t-104.5 -17.5t-96.5 -31.5t-83.5 -48.5t-55.5 -70.5t-21.5 -94.5zM502 1298q0 74 59 125.5t131 51.5q66 0 109 -37t43 -99q0 -73 -59.5 -124.5t-133.5 -51.5q-64 0 -106.5 37.5t-42.5 97.5zM598 1300 q0 -26 15.5 -41.5t43.5 -15.5q40 0 65.5 27.5t25.5 68.5q0 27 -16.5 42.5t-45.5 15.5q-35 0 -61.5 -27.5t-26.5 -69.5z" />
<glyph unicode="&#xe6;" horiz-adv-x="1775" d="M14 240q0 69 22.5 125.5t60 95.5t91 69t109.5 47t122 28t122 14.5t116 3.5h113q14 79 14 122q0 94 -52.5 140.5t-164.5 46.5q-73 0 -148.5 -24t-114.5 -48l-40 -24l-43 112q6 4 18 11.5t50.5 26t78 32.5t98.5 25.5t116 11.5q275 0 315 -199h4q81 98 187 148.5t225 50.5 q185 0 281 -101t96 -274q0 -32 -7 -72t-13 -64l-7 -24h-776q-10 -45 -10 -96q0 -150 81.5 -238t233.5 -88q52 0 106 13t93.5 31t71.5 36.5t49 31.5l16 13l43 -112q-7 -6 -19.5 -15t-53 -32.5t-83 -41.5t-105 -32.5t-122.5 -14.5q-163 0 -274.5 76t-147.5 205h-4 q-9 -21 -27.5 -49.5t-57.5 -71t-86 -76.5t-118 -59t-149 -25q-132 0 -221 71t-89 194zM158 252q0 -69 50.5 -114.5t145.5 -45.5q93 0 177.5 60.5t137 146.5t72.5 178l11 41h-121q-49 0 -94 -3.5t-102.5 -12t-103.5 -27.5t-87 -47t-63.5 -73t-22.5 -103zM915 623h627 q6 40 6 73q0 120 -66 181t-169 61q-132 0 -238.5 -81.5t-159.5 -233.5z" />
<glyph unicode="&#xe7;" horiz-adv-x="1134" d="M72 424q0 171 90.5 317t240.5 230t320 84q57 0 117 -12.5t116 -38t87 -72t20 -105.5l-21 -108h-129l15 76q7 45 -29 77t-87.5 45t-106.5 13q-89 0 -177.5 -39t-157.5 -104t-112 -159t-43 -196q0 -153 93.5 -242.5t246.5 -89.5q60 0 119.5 15t101.5 36t75.5 42t50.5 36 l16 15l45 -115q-6 -6 -18.5 -16.5t-53.5 -37t-86 -47t-116 -37t-144 -16.5h-8l-39 -94q56 -8 92.5 -43t36.5 -92q0 -59 -38.5 -100.5t-90 -58.5t-107.5 -17q-28 0 -54.5 3t-38.5 6l-13 3l20 90q33 -10 82 -10t87 19t38 63q0 29 -30 46t-81 17h-28l76 177q-173 27 -275 142.5 t-102 297.5z" />
<glyph unicode="&#xe8;" horiz-adv-x="1132" d="M72 410q0 100 29 196t83 176.5t127 142t167 96t196 34.5q183 0 276.5 -102t93.5 -271q0 -36 -7 -78t-14 -66l-7 -24h-791q-10 -43 -10 -94q0 -140 86.5 -230t243.5 -90q52 0 106 13t94 31t72 36.5t49 31.5l17 13l43 -114q-7 -6 -19.5 -15t-54 -32.5t-84 -41.5 t-105.5 -32.5t-124 -14.5q-212 0 -339.5 119.5t-127.5 315.5zM250 616h645q8 37 8 78q0 119 -64.5 181.5t-170.5 62.5q-133 0 -248.5 -85t-169.5 -237zM492 1440h172l153 -244h-141z" />
<glyph unicode="&#xe9;" horiz-adv-x="1132" d="M72 410q0 100 29 196t83 176.5t127 142t167 96t196 34.5q183 0 276.5 -102t93.5 -271q0 -36 -7 -78t-14 -66l-7 -24h-791q-10 -43 -10 -94q0 -140 86.5 -230t243.5 -90q52 0 106 13t94 31t72 36.5t49 31.5l17 13l43 -114q-7 -6 -19.5 -15t-54 -32.5t-84 -41.5 t-105.5 -32.5t-124 -14.5q-212 0 -339.5 119.5t-127.5 315.5zM250 616h645q8 37 8 78q0 119 -64.5 181.5t-170.5 62.5q-133 0 -248.5 -85t-169.5 -237zM618 1196l250 244h187l-281 -244h-156z" />
<glyph unicode="&#xea;" horiz-adv-x="1132" d="M72 410q0 100 29 196t83 176.5t127 142t167 96t196 34.5q183 0 276.5 -102t93.5 -271q0 -36 -7 -78t-14 -66l-7 -24h-791q-10 -43 -10 -94q0 -140 86.5 -230t243.5 -90q52 0 106 13t94 31t72 36.5t49 31.5l17 13l43 -114q-7 -6 -19.5 -15t-54 -32.5t-84 -41.5 t-105.5 -32.5t-124 -14.5q-212 0 -339.5 119.5t-127.5 315.5zM250 616h645q8 37 8 78q0 119 -64.5 181.5t-170.5 62.5q-133 0 -248.5 -85t-169.5 -237zM459 1196l221 244h166l123 -244h-135l-78 166h-4l-144 -166h-149z" />
<glyph unicode="&#xeb;" horiz-adv-x="1132" d="M72 410q0 100 29 196t83 176.5t127 142t167 96t196 34.5q183 0 276.5 -102t93.5 -271q0 -36 -7 -78t-14 -66l-7 -24h-791q-10 -43 -10 -94q0 -140 86.5 -230t243.5 -90q52 0 106 13t94 31t72 36.5t49 31.5l17 13l43 -114q-7 -6 -19.5 -15t-54 -32.5t-84 -41.5 t-105.5 -32.5t-124 -14.5q-212 0 -339.5 119.5t-127.5 315.5zM250 616h645q8 37 8 78q0 119 -64.5 181.5t-170.5 62.5q-133 0 -248.5 -85t-169.5 -237zM479 1264l35 176h141l-34 -176h-142zM854 1264l35 176h143l-37 -176h-141z" />
<glyph unicode="&#xec;" horiz-adv-x="606" d="M106 915l23 115h324l-152 -764q-6 -35 -6 -59q0 -58 26 -77t72 -19l51 4l-22 -115q-43 -4 -72 -4q-198 0 -198 180q0 18 8 76l131 663h-185zM184 1440h172l154 -244h-141z" />
<glyph unicode="&#xed;" horiz-adv-x="606" d="M106 915l23 115h324l-152 -764q-6 -35 -6 -59q0 -58 26 -77t72 -19l51 4l-22 -115q-43 -4 -72 -4q-198 0 -198 180q0 18 8 76l131 663h-185zM309 1196l250 244h186l-280 -244h-156z" />
<glyph unicode="&#xee;" horiz-adv-x="606" d="M106 915l23 115h324l-152 -764q-6 -35 -6 -59q0 -58 26 -77t72 -19l51 4l-22 -115q-43 -4 -72 -4q-198 0 -198 180q0 18 8 76l131 663h-185zM152 1196l221 244h166l123 -244h-136l-77 166h-5l-143 -166h-149z" />
<glyph unicode="&#xef;" horiz-adv-x="606" d="M106 915l23 115h324l-152 -764q-6 -35 -6 -59q0 -58 26 -77t72 -19l51 4l-22 -115q-43 -4 -72 -4q-198 0 -198 180q0 18 8 76l131 663h-185zM195 1264l36 176h142l-35 -176h-143zM518 1264l37 176h141l-34 -176h-144z" />
<glyph unicode="&#xf0;" horiz-adv-x="1214" d="M70 383q0 103 39.5 204.5t111.5 184t184 133.5t244 51q57 0 108 -12t82.5 -29.5t55 -35t33.5 -29.5l10 -12h4q-33 206 -194 338l-390 -162l-10 92l311 131q-124 71 -276 113l59 108q220 -61 363 -162l299 123l12 -92l-233 -96q211 -201 211 -508q0 -63 -11 -132 t-34.5 -142t-58 -141t-85 -129t-111.5 -106t-141 -71.5t-170 -26.5q-134 0 -229.5 57t-139.5 147.5t-44 203.5zM213 387q0 -123 70 -205t200 -82q78 0 150.5 32t125.5 84t93 117t60 133t20 130q0 109 -75.5 175.5t-205.5 66.5q-120 0 -221 -61.5t-159 -165.5t-58 -224z" />
<glyph unicode="&#xf1;" horiz-adv-x="1339" d="M117 915l22 115h197q56 0 80 -21t24 -63q0 -21 -11 -78t-23 -86h4q17 37 54.5 80.5t93.5 88.5t138.5 74.5t171.5 29.5q135 0 208 -68.5t73 -195.5q0 -69 -48 -309t-48 -275q0 -59 26 -77.5t72 -18.5l51 4l-22 -115q-41 -4 -76 -4q-34 0 -63 6t-62 23t-52.5 54.5 t-19.5 92.5q0 43 48.5 281.5t48.5 298.5q0 172 -179 172q-163 0 -300 -133.5t-171 -317.5l-92 -473h-139l170 870q7 45 -37 45h-139zM510 1202q22 116 78 178t139 62q38 0 68 -15t48 -36t33 -42t34 -36t42 -15q75 0 103 138h119q-22 -116 -79 -178t-139 -62q-38 0 -68 14.5 t-48 35t-33 41.5t-34 35.5t-42 14.5q-77 0 -102 -135h-119z" />
<glyph unicode="&#xf2;" horiz-adv-x="1277" d="M70 426q0 129 54 246.5t143 200.5t206.5 132.5t241.5 49.5q202 0 330.5 -125t128.5 -320q0 -173 -92.5 -320.5t-241 -231t-312.5 -83.5q-203 0 -330.5 126t-127.5 325zM213 430q0 -145 91 -237.5t237 -92.5q121 0 233 66t184 183.5t72 254.5q0 143 -92 234.5t-238 91.5 q-123 0 -235 -66t-182 -182.5t-70 -251.5zM524 1440h172l154 -244h-141z" />
<glyph unicode="&#xf3;" horiz-adv-x="1277" d="M70 426q0 129 54 246.5t143 200.5t206.5 132.5t241.5 49.5q202 0 330.5 -125t128.5 -320q0 -173 -92.5 -320.5t-241 -231t-312.5 -83.5q-203 0 -330.5 126t-127.5 325zM213 430q0 -145 91 -237.5t237 -92.5q121 0 233 66t184 183.5t72 254.5q0 143 -92 234.5t-238 91.5 q-123 0 -235 -66t-182 -182.5t-70 -251.5zM651 1196l250 244h186l-280 -244h-156z" />
<glyph unicode="&#xf4;" horiz-adv-x="1277" d="M70 426q0 129 54 246.5t143 200.5t206.5 132.5t241.5 49.5q202 0 330.5 -125t128.5 -320q0 -173 -92.5 -320.5t-241 -231t-312.5 -83.5q-203 0 -330.5 126t-127.5 325zM213 430q0 -145 91 -237.5t237 -92.5q121 0 233 66t184 183.5t72 254.5q0 143 -92 234.5t-238 91.5 q-123 0 -235 -66t-182 -182.5t-70 -251.5zM492 1196l221 244h166l122 -244h-135l-78 166h-4l-143 -166h-149z" />
<glyph unicode="&#xf5;" horiz-adv-x="1277" d="M70 426q0 129 54 246.5t143 200.5t206.5 132.5t241.5 49.5q202 0 330.5 -125t128.5 -320q0 -173 -92.5 -320.5t-241 -231t-312.5 -83.5q-203 0 -330.5 126t-127.5 325zM213 430q0 -145 91 -237.5t237 -92.5q121 0 233 66t184 183.5t72 254.5q0 143 -92 234.5t-238 91.5 q-123 0 -235 -66t-182 -182.5t-70 -251.5zM446 1202q22 116 78.5 178t139.5 62q38 0 68 -15t48 -36t33 -42t34 -36t42 -15q74 0 102 138h119q-22 -116 -78.5 -178t-138.5 -62q-39 0 -68.5 14.5t-47.5 35t-33 41.5t-34 35.5t-42 14.5q-44 0 -68.5 -41t-34.5 -94h-119z" />
<glyph unicode="&#xf6;" horiz-adv-x="1277" d="M70 426q0 129 54 246.5t143 200.5t206.5 132.5t241.5 49.5q202 0 330.5 -125t128.5 -320q0 -173 -92.5 -320.5t-241 -231t-312.5 -83.5q-203 0 -330.5 126t-127.5 325zM213 430q0 -145 91 -237.5t237 -92.5q121 0 233 66t184 183.5t72 254.5q0 143 -92 234.5t-238 91.5 q-123 0 -235 -66t-182 -182.5t-70 -251.5zM510 1264l35 176h141l-35 -176h-141zM885 1264l35 176h143l-37 -176h-141z" />
<glyph unicode="&#xf7;" d="M115 522v119h1003v-119h-1003zM541 125v151h151v-151h-151zM541 887v151h151v-151h-151z" />
<glyph unicode="&#xf8;" horiz-adv-x="1282" d="M74 426q0 128 54 246t141.5 201t203 132.5t234.5 49.5q164 0 286 -82l107 114l67 -61l-106 -117q117 -131 117 -299q0 -130 -54.5 -249t-143 -202.5t-203 -133.5t-232.5 -50q-153 0 -275 74l-106 -115l-66 62l101 110q-125 128 -125 320zM217 430q0 -128 78 -219l606 659 q-91 60 -196 60q-123 0 -235.5 -66t-182.5 -182.5t-70 -251.5zM362 150q84 -50 183 -50q121 0 233 66t184 183.5t72 254.5q0 109 -71 201z" />
<glyph unicode="&#xf9;" horiz-adv-x="1329" d="M92 915l21 115h323l-119 -614q-18 -95 -18 -144q0 -81 40.5 -124.5t139.5 -43.5q83 0 162.5 40t139.5 104.5t102.5 145t58.5 163.5l68 358h-183l23 115h324l-150 -764q-6 -35 -6 -59q0 -58 26 -77t72 -19l51 4l-22 -115q-45 -4 -78 -4q-109 0 -154 65.5t-24 174.5h-4 q-19 -33 -46 -66t-69 -69t-89.5 -63t-111 -45t-131.5 -18q-124 0 -203 64.5t-79 200.5q0 59 16 137l102 538h-182zM504 1440h172l153 -244h-141z" />
<glyph unicode="&#xfa;" horiz-adv-x="1329" d="M92 915l21 115h323l-119 -614q-18 -95 -18 -144q0 -81 40.5 -124.5t139.5 -43.5q83 0 162.5 40t139.5 104.5t102.5 145t58.5 163.5l68 358h-183l23 115h324l-150 -764q-6 -35 -6 -59q0 -58 26 -77t72 -19l51 4l-22 -115q-45 -4 -78 -4q-109 0 -154 65.5t-24 174.5h-4 q-19 -33 -46 -66t-69 -69t-89.5 -63t-111 -45t-131.5 -18q-124 0 -203 64.5t-79 200.5q0 59 16 137l102 538h-182zM631 1196l250 244h186l-281 -244h-155z" />
<glyph unicode="&#xfb;" horiz-adv-x="1329" d="M92 915l21 115h323l-119 -614q-18 -95 -18 -144q0 -81 40.5 -124.5t139.5 -43.5q83 0 162.5 40t139.5 104.5t102.5 145t58.5 163.5l68 358h-183l23 115h324l-150 -764q-6 -35 -6 -59q0 -58 26 -77t72 -19l51 4l-22 -115q-45 -4 -78 -4q-109 0 -154 65.5t-24 174.5h-4 q-19 -33 -46 -66t-69 -69t-89.5 -63t-111 -45t-131.5 -18q-124 0 -203 64.5t-79 200.5q0 59 16 137l102 538h-182zM471 1196l221 244h166l123 -244h-135l-78 166h-4l-143 -166h-150z" />
<glyph unicode="&#xfc;" horiz-adv-x="1329" d="M92 915l21 115h323l-119 -614q-18 -95 -18 -144q0 -81 40.5 -124.5t139.5 -43.5q83 0 162.5 40t139.5 104.5t102.5 145t58.5 163.5l68 358h-183l23 115h324l-150 -764q-6 -35 -6 -59q0 -58 26 -77t72 -19l51 4l-22 -115q-45 -4 -78 -4q-109 0 -154 65.5t-24 174.5h-4 q-19 -33 -46 -66t-69 -69t-89.5 -63t-111 -45t-131.5 -18q-124 0 -203 64.5t-79 200.5q0 59 16 137l102 538h-182zM489 1264l35 176h142l-35 -176h-142zM864 1264l35 176h143l-36 -176h-142z" />
<glyph unicode="&#xfd;" horiz-adv-x="1181" d="M-106 -369l69 105q6 -5 16 -12t43 -19t68 -12q66 0 125 45.5t104 118.5l84 137l-188 921h-135l22 115h426l-22 -115h-150l133 -702l5 -74h4q14 35 37 74l405 702h-149l22 115h432l-22 -115h-136l-653 -1105q-143 -240 -348 -240q-56 0 -104 15t-68 31zM608 1196l250 244 h186l-280 -244h-156z" />
<glyph unicode="&#xfe;" horiz-adv-x="1230" d="M-8 -410l336 1735h-176l22 115h315l-98 -504q-3 -19 -8.5 -40.5t-9.5 -33.5l-4 -12h4q57 87 153.5 146t216.5 59q181 0 281 -110.5t100 -303.5q0 -143 -47 -269t-124.5 -212t-178.5 -135.5t-207 -49.5q-115 0 -202 53t-121 154h-4q-3 -45 -13 -98l-98 -494h-137zM297 397 q0 -129 66 -213t192 -84q76 0 151 37t136 103t99 168.5t38 222.5q0 138 -68.5 217.5t-189.5 79.5q-91 0 -172 -47t-135 -123t-85.5 -171t-31.5 -190z" />
<glyph unicode="&#xff;" horiz-adv-x="1181" d="M-106 -369l69 105q6 -5 16 -12t43 -19t68 -12q66 0 125 45.5t104 118.5l84 137l-188 921h-135l22 115h426l-22 -115h-150l133 -702l5 -74h4q14 35 37 74l405 702h-149l22 115h432l-22 -115h-136l-653 -1105q-143 -240 -348 -240q-56 0 -104 15t-68 31zM469 1264l35 176 h141l-35 -176h-141zM844 1264l35 176h143l-37 -176h-141z" />
<glyph unicode="&#x152;" horiz-adv-x="1976" d="M127 588q0 116 32 228t89 207.5t137.5 177t175 138.5t204.5 89t222 32q51 0 145 -10t128 -10h727l-60 -299h-127l35 176h-557l-102 -531h540l-24 -122h-541l-104 -541h593l35 178h127l-59 -301h-742q-29 0 -115.5 -10t-131.5 -10q-142 0 -260 45.5t-198.5 126.5 t-124.5 193t-44 243zM274 582q0 -213 130 -344.5t352 -131.5q36 0 72.5 4t55.5 8l19 5l232 1194q-64 16 -142 16q-144 0 -277 -60t-229.5 -160.5t-154.5 -239.5t-58 -291z" />
<glyph unicode="&#x153;" horiz-adv-x="2076" d="M72 426q0 128 54 246t142 201t204 132.5t237 49.5q153 0 262.5 -75.5t156.5 -203.5h5q79 127 204.5 203t276.5 76q185 0 280 -102t95 -271q0 -36 -7.5 -78.5t-14.5 -67.5l-7 -24h-791q-10 -43 -10 -94q0 -138 86.5 -228t243.5 -90q52 0 106 13t93.5 31t71.5 36.5t48 31.5 l17 13l45 -114q-7 -6 -19.5 -15t-53 -32.5t-83 -41.5t-105.5 -32.5t-124 -14.5q-161 0 -275 74.5t-157 208.5h-4q-86 -129 -225 -206t-287 -77q-208 0 -336.5 126t-128.5 325zM215 430q0 -145 91 -237.5t237 -92.5q121 0 233 66t184 183.5t72 254.5q0 143 -92 234.5 t-238 91.5q-124 0 -236 -66t-181.5 -182t-69.5 -252zM1196 616h643q8 37 8 78q0 119 -64.5 181.5t-170.5 62.5q-132 0 -247 -85t-169 -237z" />
<glyph unicode="&#x178;" horiz-adv-x="1318" d="M162 1321l24 119h449l-25 -119h-159l208 -524l19 -56h4q19 29 39 56l418 524h-162l22 119h461l-24 -119h-142l-559 -703l-98 -499h188l-24 -119h-520l24 119h189l98 499l-289 703h-141zM596 1608l35 176h141l-35 -176h-141zM971 1608l35 176h143l-37 -176h-141z" />
<glyph unicode="&#x2c6;" horiz-adv-x="1032" d="M117 1540l221 244h166l123 -244h-135l-78 166h-4l-144 -166h-149z" />
<glyph unicode="&#x2dc;" horiz-adv-x="1032" d="M70 1546q22 116 78 178t139 62q38 0 68 -15t48 -36t33 -42t34 -36t42 -15q74 0 102 138h119q-22 -116 -78.5 -178t-138.5 -62q-39 0 -68.5 14.5t-47.5 35t-33 41.5t-34 35.5t-42 14.5q-44 0 -68.5 -41t-34.5 -94h-118z" />
<glyph unicode="&#x2000;" horiz-adv-x="909" />
<glyph unicode="&#x2001;" horiz-adv-x="1819" />
<glyph unicode="&#x2002;" horiz-adv-x="909" />
<glyph unicode="&#x2003;" horiz-adv-x="1819" />
<glyph unicode="&#x2004;" horiz-adv-x="606" />
<glyph unicode="&#x2005;" horiz-adv-x="454" />
<glyph unicode="&#x2006;" horiz-adv-x="303" />
<glyph unicode="&#x2007;" horiz-adv-x="303" />
<glyph unicode="&#x2008;" horiz-adv-x="227" />
<glyph unicode="&#x2009;" horiz-adv-x="363" />
<glyph unicode="&#x200a;" horiz-adv-x="101" />
<glyph unicode="&#x2010;" horiz-adv-x="1009" d="M197 518l22 127h582l-23 -127h-581z" />
<glyph unicode="&#x2011;" horiz-adv-x="1009" d="M197 518l22 127h582l-23 -127h-581z" />
<glyph unicode="&#x2012;" horiz-adv-x="1009" d="M197 518l22 127h582l-23 -127h-581z" />
<glyph unicode="&#x2013;" horiz-adv-x="1462" d="M203 522l22 119h1022l-20 -119h-1024z" />
<glyph unicode="&#x2014;" horiz-adv-x="1871" d="M203 522l22 119h1432l-21 -119h-1433z" />
<glyph unicode="&#x2018;" horiz-adv-x="460" d="M199 1042l211 416h116l-170 -416h-157z" />
<glyph unicode="&#x2019;" horiz-adv-x="452" d="M205 1042l170 416h157l-210 -416h-117z" />
<glyph unicode="&#x201a;" horiz-adv-x="499" d="M-66 -250l172 418h156l-209 -418h-119z" />
<glyph unicode="&#x201c;" horiz-adv-x="722" d="M199 1042l211 416h116l-170 -416h-157zM461 1042l211 416h116l-172 -416h-155z" />
<glyph unicode="&#x201d;" horiz-adv-x="712" d="M205 1042l170 416h157l-210 -416h-117zM465 1042l172 416h156l-211 -416h-117z" />
<glyph unicode="&#x201e;" horiz-adv-x="761" d="M-66 -250l172 418h156l-209 -418h-119zM197 -250l170 418h157l-211 -418h-116z" />
<glyph unicode="&#x2022;" horiz-adv-x="831" d="M121 596q0 122 85.5 207.5t207.5 85.5q121 0 206 -85.5t85 -207.5t-85 -207.5t-206 -85.5q-122 0 -207.5 85.5t-85.5 207.5z" />
<glyph unicode="&#x2026;" horiz-adv-x="1464" d="M57 0l33 170h164l-33 -170h-164zM539 0l32 170h166l-35 -170h-163zM1020 0l33 170h166l-35 -170h-164z" />
<glyph unicode="&#x202f;" horiz-adv-x="363" />
<glyph unicode="&#x2039;" horiz-adv-x="698" d="M94 582l393 417h160l-409 -428l260 -413h-142z" />
<glyph unicode="&#x203a;" horiz-adv-x="702" d="M45 158l410 428l-260 413h141l262 -424l-393 -417h-160z" />
<glyph unicode="&#x205f;" horiz-adv-x="454" />
<glyph unicode="&#x20ac;" horiz-adv-x="1228" d="M88 526l21 103h112q2 86 31 207h-109l19 102h125q104 234 314.5 380t457.5 146q55 0 108 -7t79 -14l26 -7l-58 -123q-73 20 -159 20q-192 0 -357 -108t-254 -287h627l-41 -102h-629q-28 -108 -34 -207h587l-39 -103h-544q11 -184 126.5 -302t323.5 -118q45 0 92.5 7 t72.5 15l24 7l6 -131q-86 -29 -203 -29q-257 0 -420 152t-174 399h-131z" />
<glyph unicode="&#x2122;" horiz-adv-x="2097" d="M217 1333v107h756v-107h-320v-790h-116v790h-320zM1049 543l71 897h105l237 -514l29 -84h4q11 45 29 84l235 514h105l71 -897h-114l-49 608l2 59h-5l-229 -499h-96l-230 499h-4l2 -59l-49 -608h-114z" />
<glyph unicode="&#x25fc;" horiz-adv-x="1034" d="M0 0v1034h1034v-1034h-1034z" />
</font>
</defs>
</svg>
