<?xml version="1.0" standalone="no"?>
<!DOCTYPE svg PUBLIC "-//W3C//DTD SVG 1.1//EN" "http://www.w3.org/Graphics/SVG/1.1/DTD/svg11.dtd" >
<svg xmlns="http://www.w3.org/2000/svg">
<metadata></metadata>
<defs>
<font id="museo_slab1000_italic" horiz-adv-x="1306" >
<font-face units-per-em="2048" ascent="1536" descent="-512" />
<missing-glyph horiz-adv-x="512" />
<glyph unicode="&#xfb01;" horiz-adv-x="1550" d="M186 0l148 760h-129l59 303h129l8 43q16 84 53.5 150t88.5 108t106.5 71t119 43t114 19.5t102.5 5.5q36 0 71 -2.5t52 -4.5l16 -3l-67 -330q-46 8 -99 8q-63 0 -94 -17.5t-39 -57.5l-6 -33h766l-123 -625q-8 -36 -8 -69q0 -66 74 -66h35l-60 -303q-51 -6 -117 -6 q-49 0 -81.5 1.5t-75 7t-71 16t-58.5 30t-47.5 47t-29 68.5t-11.5 94q0 64 18 150l70 352h-338l-150 -760h-426zM1186 1161l59 312h412l-60 -312h-411z" />
<glyph unicode="&#xfb02;" horiz-adv-x="1572" d="M186 0l148 760h-129l59 303h129l6 24q24 113 88.5 198.5t159.5 136t209.5 75.5t247.5 25q134 0 272.5 -20.5t210.5 -41.5l72 -20l-186 -971q-13 -50 -13 -84q0 -30 16 -44.5t58 -14.5l41 2l-68 -334q-50 -6 -116 -6q-64 0 -112.5 5.5t-99.5 24t-84 50t-54 86t-21 129.5 q0 68 14 151l150 762q-70 10 -133 10q-100 0 -158 -34t-68 -82l-6 -27h203l-57 -303h-203l-150 -760h-426z" />
<glyph unicode="&#xfb03;" horiz-adv-x="2334" d="M186 0l148 760h-129l59 303h129l8 43q16 84 53.5 150t88.5 108t106.5 71t119 43t114 19.5t102.5 5.5q36 0 71 -2.5t52 -4.5l16 -3l-67 -330q-46 8 -99 8q-63 0 -94 -17.5t-39 -57.5l-6 -33h361l8 43q16 84 53.5 150t88.5 108t106.5 71t119 43t114 19.5t102.5 5.5 q36 0 71 -2.5t51 -4.5l17 -3l-68 -330q-45 8 -98 8q-63 0 -94 -17.5t-39 -57.5l-6 -33h764l-123 -625q-9 -41 -9 -69q0 -66 74 -66h35l-59 -303q-49 -6 -117 -6q-49 0 -81.5 1.5t-75.5 7t-71 16t-58.5 30t-48 47t-29 68.5t-11.5 94q0 42 19 150l69 352h-338l-147 -760h-428 l149 760h-358l-150 -760h-426zM1970 1161l60 312h411l-59 -312h-412z" />
<glyph unicode="&#xfb04;" horiz-adv-x="2355" d="M186 0l148 760h-129l59 303h129l8 43q16 84 53.5 150t88.5 108t106.5 71t119 43t114 19.5t102.5 5.5q36 0 71 -2.5t52 -4.5l16 -3l-67 -330q-46 8 -99 8q-63 0 -94 -17.5t-39 -57.5l-6 -33h359l6 24q24 114 88.5 199t159.5 135.5t209.5 75.5t248.5 25q133 0 271.5 -20.5 t210.5 -41.5l73 -20l-188 -971q-12 -47 -12 -84q0 -30 15.5 -44.5t57.5 -14.5l41 2l-65 -334q-53 -6 -119 -6q-64 0 -112.5 5.5t-99.5 24t-84 50t-54 86t-21 129.5q0 67 17 151l147 762q-67 10 -133 10q-100 0 -157.5 -34t-67.5 -82l-4 -27h200l-57 -303h-203l-147 -760 h-428l149 760h-358l-150 -760h-426z" />
<glyph horiz-adv-x="0" />
<glyph horiz-adv-x="682" />
<glyph unicode=" "  horiz-adv-x="512" />
<glyph unicode="&#x09;" horiz-adv-x="512" />
<glyph unicode="&#xa0;" horiz-adv-x="512" />
<glyph unicode="!" horiz-adv-x="667" d="M150 0l67 356h379l-70 -356h-376zM246 479l149 994h447l-236 -994h-360z" />
<glyph unicode="&#x22;" horiz-adv-x="923" d="M281 967l106 540h295l-107 -540h-294zM721 967l106 540h293l-106 -540h-293z" />
<glyph unicode="#" horiz-adv-x="1447" d="M139 358l101 291h172l47 123h-166l104 291h166l152 410h332l-152 -410h176l152 410h331l-151 -410h184l-104 -291h-183l-49 -123h179l-103 -291h-178l-131 -358h-332l129 358h-176l-129 -358h-334l131 358h-168zM743 649h177l49 123h-176z" />
<glyph unicode="$" horiz-adv-x="1226" d="M117 221l229 279q6 -5 16 -13.5t43 -29.5t68 -37t87 -29.5t102 -13.5q63 0 106 20.5t43 59.5q0 26 -22.5 49.5t-60 41t-85 40t-96.5 45t-96.5 57.5t-85 75t-60 99.5t-22.5 130.5q0 129 72 234t181 163t232 70l35 213h260l-35 -223q68 -13 129 -34.5t99 -42.5t66 -40 t40 -31l12 -12l-211 -297q-18 11 -48 28t-112.5 45t-150.5 28q-56 0 -97.5 -19t-41.5 -61q0 -33 29.5 -60.5t76.5 -50t103.5 -47t113 -57.5t103.5 -74.5t76.5 -105.5t29.5 -144q0 -188 -145.5 -322t-370.5 -147l-29 -209h-260l35 228q-72 16 -135.5 42t-102.5 51.5 t-67.5 48.5t-40.5 37z" />
<glyph unicode="%" horiz-adv-x="1933" d="M221 0l1387 1473h383l-1387 -1473h-383zM289 1081q0 79 37.5 156t98 133.5t142 91.5t164.5 35q160 0 264.5 -100t104.5 -248q0 -105 -65.5 -200t-168.5 -150.5t-211 -55.5q-161 0 -263.5 96t-102.5 242zM598 1106q0 -32 24.5 -52t65.5 -20q38 0 70.5 29.5t32.5 69.5 q0 33 -24.5 53t-66.5 20q-40 0 -71 -28t-31 -72zM1122 313q0 106 62.5 203t165 155t213.5 58q161 0 265.5 -100t104.5 -248q0 -106 -65 -201t-167.5 -150t-211.5 -55q-162 0 -264.5 95.5t-102.5 242.5zM1432 338q0 -33 24 -52.5t66 -19.5q38 0 69 29.5t31 69.5 q0 32 -24 52.5t-66 20.5q-39 0 -69.5 -28t-30.5 -72z" />
<glyph unicode="&#x26;" horiz-adv-x="1421" d="M139 395q0 136 87.5 239t222.5 148v4q-5 2 -13 6t-28.5 23t-36 43.5t-28.5 71t-13 102.5q0 97 36 177.5t94 132.5t133 88t150.5 51.5t149.5 15.5q60 0 120 -10.5t90 -21.5l30 -11l-156 -317q-28 6 -57 6q-63 0 -112.5 -34t-49.5 -101q0 -46 22 -72.5t51 -26.5h136l37 185 h423l-34 -185h176l-68 -342h-178l-20 -131q-35 -221 -197 -341t-412 -120q-129 0 -235 33.5t-175 91t-107 133.5t-38 162zM594 455q0 -49 31.5 -75t85.5 -26q68 0 116.5 36t55.5 73l18 104h-166q-20 0 -41 -4.5t-45 -15.5t-39.5 -35t-15.5 -57z" />
<glyph unicode="'" horiz-adv-x="493" d="M281 967l106 540h303l-106 -540h-303z" />
<glyph unicode="(" horiz-adv-x="770" d="M213 379q0 340 104 628t342 543h357q-218 -266 -326 -567t-108 -614q0 -310 92 -564h-332q-129 282 -129 574z" />
<glyph unicode=")" horiz-adv-x="772" d="M20 -195q217 267 326 568.5t109 613.5q0 298 -95 563h334q129 -282 129 -573q0 -341 -104 -629.5t-342 -542.5h-357z" />
<glyph unicode="*" horiz-adv-x="1042" d="M266 1018l180 342l162 -88l13 201h370l-67 -201l198 90l49 -356l-221 -37l-2 -4l115 -138l-322 -217l-65 183h-4l-127 -181l-269 222l173 151l2 4z" />
<glyph unicode="+" d="M170 432l61 316h402l84 434h330l-84 -434h403l-61 -316h-404l-82 -432h-330l82 432h-401z" />
<glyph unicode="," horiz-adv-x="657" d="M-37 -238l285 637h409l-383 -637h-311z" />
<glyph unicode="-" horiz-adv-x="921" d="M205 406l71 368h666l-72 -368h-665z" />
<glyph unicode="." horiz-adv-x="616" d="M115 0l73 391h394l-74 -391h-393z" />
<glyph unicode="/" horiz-adv-x="1032" d="M51 -86l838 1628h375l-840 -1628h-373z" />
<glyph unicode="0" horiz-adv-x="1316" d="M209 504q0 84 10.5 173t34.5 187t60 187.5t91.5 171.5t123.5 142.5t161.5 96t200.5 35.5q512 0 512 -522q0 -83 -10.5 -172.5t-35.5 -188t-61.5 -189t-92 -173.5t-124 -144t-161 -97t-199.5 -36q-510 0 -510 529zM655 526q0 -170 74 -170q63 0 117 108.5t81 243.5t27 240 q0 168 -75 168q-52 0 -96.5 -66.5t-71 -162.5t-41.5 -193t-15 -168z" />
<glyph unicode="1" horiz-adv-x="1173" d="M113 0l63 342h309l95 483l26 121h-4q-27 -43 -74 -80l-82 -61l-200 276l508 392h368l-217 -1131h312l-70 -342h-1034z" />
<glyph unicode="2" horiz-adv-x="1261" d="M113 0q-1 118 25 220.5t70.5 177.5t102.5 139t121.5 110.5t128 87t122.5 75t102.5 67.5t71 70.5t26.5 78.5q0 48 -30 69t-69 21q-34 0 -69 -16.5t-61 -39.5t-47.5 -46t-32.5 -40l-11 -16l-284 226q4 7 12.5 18t36.5 43.5t60 62t83 65.5t105 62t126 44t146 18 q69 0 139 -16t135.5 -50.5t116 -82.5t81 -116.5t30.5 -148.5q0 -86 -38 -166t-99 -141t-135 -116t-149 -99t-138 -82t-105 -73t-47 -64h248l33 166h348l-99 -508h-1056z" />
<glyph unicode="3" horiz-adv-x="1230" d="M104 158l222 303q5 -4 14.5 -11t40 -25.5t61.5 -32t76 -25t88 -11.5q87 0 139 39.5t52 89.5q0 43 -43.5 74t-120.5 31l-70 -4l-49 190l268 293q19 21 39 37t31 22l10 5v4q-57 -7 -104 -7h-105l-20 -118h-348l88 461h1005l-57 -306l-313 -333q10 -3 26.5 -10t58.5 -34 t74.5 -60.5t59 -93.5t26.5 -130q0 -68 -26.5 -140.5t-81 -142.5t-130 -125t-182.5 -89t-229 -34q-92 0 -177 19t-141.5 45.5t-99.5 53.5t-62 46z" />
<glyph unicode="4" horiz-adv-x="1320" d="M106 340l46 258l675 875h547l-155 -803h163l-63 -330h-164l-65 -340h-428l67 340h-623zM578 670h215l57 293q5 30 17.5 72.5t22.5 70.5l9 27h-8q-49 -80 -100 -154l-213 -305v-4z" />
<glyph unicode="5" horiz-adv-x="1241" d="M100 170l230 289q5 -4 15 -11t41 -25t62.5 -31.5t76.5 -24.5t87 -11q86 0 143.5 37.5t57.5 106.5q0 112 -170 112q-46 0 -93.5 -8.5t-71.5 -17.5l-25 -8l-222 94l218 801h905l-90 -461h-346l24 118h-209l-37 -120l-26 -76h4q72 14 123 14q130 0 235 -50t169.5 -152 t64.5 -240q0 -147 -89 -269t-241.5 -192t-333.5 -70q-90 0 -175 20t-141.5 48.5t-100.5 57.5t-65 49z" />
<glyph unicode="6" d="M190 547q0 135 40 271t119 257.5t186 216t251 150t304 55.5q94 0 179.5 -18.5t124.5 -36.5l38 -19l-154 -346q-86 39 -215 39q-109 0 -186.5 -35.5t-128.5 -117.5h4q59 24 159 24q106 0 189.5 -38t134 -101.5t76.5 -141.5t26 -163q0 -107 -40.5 -208.5t-113.5 -181.5 t-185.5 -129t-245.5 -49q-111 0 -210 34.5t-179 102t-126.5 179.5t-46.5 256zM618 539q0 -91 45.5 -137t112.5 -46q60 0 95.5 49t35.5 105q0 137 -172 137q-63 0 -90 -27t-27 -81z" />
<glyph unicode="7" horiz-adv-x="1193" d="M106 0l730 1049q18 24 36.5 45t27.5 30l9 9v4q-48 -7 -116 -7h-138l-24 -118h-367l90 461h1096l-59 -302l-824 -1171h-461z" />
<glyph unicode="8" horiz-adv-x="1284" d="M150 389q0 109 67.5 203t216.5 194q-106 98 -106 244q0 85 35.5 166.5t101.5 149.5t172 109.5t235 41.5q141 0 255.5 -46.5t182.5 -134.5t68 -202q0 -60 -19 -116t-55.5 -104.5t-63 -76.5t-68.5 -68q-10 -9 -15 -14q64 -47 101.5 -119t37.5 -157q0 -68 -23.5 -135.5 t-74 -130.5t-120.5 -111.5t-171 -77.5t-219 -29q-128 0 -232.5 34.5t-170 93t-100.5 132t-35 154.5zM547 442q0 -52 43 -87.5t110 -35.5q78 0 129.5 39.5t51.5 104.5q0 30 -32 59.5t-69.5 49t-107.5 51.5q-48 -29 -86.5 -77.5t-38.5 -103.5zM719 1032q0 -50 44.5 -89 t125.5 -75q28 24 58 75.5t30 111.5q0 44 -31 69t-90 25q-66 0 -101.5 -34t-35.5 -83z" />
<glyph unicode="9" horiz-adv-x="1298" d="M154 49l153 346q86 -39 215 -39q231 0 328 168h-4q-72 -28 -172 -28q-104 0 -185.5 37t-130.5 99t-74.5 138t-25.5 160q0 85 25 167.5t74.5 154.5t117.5 127t161 86.5t198 31.5q111 0 210 -34.5t178.5 -101.5t126 -179t46.5 -256q0 -112 -29 -226.5t-82 -220t-133 -197.5 t-177.5 -160t-220.5 -107.5t-257 -39.5q-94 0 -179.5 18.5t-124.5 36.5zM678 963q0 -138 172 -138q117 0 117 113q0 91 -45 134.5t-113 43.5q-60 0 -95.5 -48.5t-35.5 -104.5z" />
<glyph unicode=":" horiz-adv-x="735" d="M170 0l78 391h393l-78 -391h-393zM303 672l76 391h393l-76 -391h-393z" />
<glyph unicode=";" horiz-adv-x="710" d="M23 -238l282 637h410l-381 -637h-311zM362 672l78 391h377l-76 -391h-379z" />
<glyph unicode="&#x3c;" d="M186 463v258l1069 471v-350l-651 -250v-4l651 -246v-352z" />
<glyph unicode="=" d="M236 176v318h1064v-318h-1064zM236 686v318h1064v-318h-1064z" />
<glyph unicode="&#x3e;" d="M281 -10v352l651 246v4l-651 250v350l1069 -471v-258z" />
<glyph unicode="?" horiz-adv-x="1112" d="M295 0l70 356h378l-69 -356h-379zM311 1341q8 7 23 18t63.5 39t99.5 50t126.5 39.5t148.5 17.5q88 0 169.5 -25t148.5 -71.5t107 -122.5t40 -170q0 -73 -23 -137.5t-60 -110.5t-82 -85.5t-91 -70.5t-85.5 -57.5t-67 -54t-33.5 -53.5l-15 -68h-407l18 105q13 78 59 143 t101.5 106.5t109.5 77t90.5 70.5t36.5 70q0 30 -26.5 49.5t-61.5 19.5q-43 0 -91 -22.5t-75 -45.5l-26 -22z" />
<glyph unicode="@" horiz-adv-x="1783" d="M156 389q0 173 74 333t202 279.5t311.5 191t391.5 71.5q143 0 253 -33.5t177.5 -94t101 -139.5t33.5 -174q0 -43 -17 -149l-49 -273h154l-55 -276h-555q-113 0 -201 28t-141.5 75.5t-81 107t-27.5 127.5q0 56 18 108t60.5 101.5t106 86t161 59t217.5 22.5h35 q5 29 -13.5 49.5t-52.5 29.5t-63 12t-59 3q-108 0 -201 -33t-157.5 -88t-110.5 -126t-68 -146.5t-22 -149.5q0 -73 24 -135.5t71.5 -111.5t126.5 -77t183 -28l-59 -309q-228 0 -402 80t-270 230t-96 349zM1087 487q0 -86 103 -86h53l35 199h-47q-74 0 -109 -32t-35 -81z" />
<glyph unicode="A" horiz-adv-x="1511" d="M23 0l59 315h111l595 1158h506l146 -1158h110l-59 -315h-653l61 315h115l-2 136h-314l-55 -136h115l-64 -315h-671zM819 741h178l-6 203q-2 47 -2 96.5t1 75.5l1 25h-10q-25 -91 -72 -197z" />
<glyph unicode="B" horiz-adv-x="1488" d="M102 0l62 315h153l164 842h-155l61 316h639q257 0 395 -92.5t138 -270.5q0 -94 -58.5 -187.5t-161.5 -148.5v-4q93 -36 135 -112.5t42 -168.5q0 -97 -34.5 -178t-94 -138t-140 -96.5t-171 -58t-187.5 -18.5h-787zM764 342h160q62 0 107.5 39.5t45.5 105.5 q0 36 -25.5 65.5t-72.5 29.5h-168zM879 926h106q61 0 98 39.5t37 85.5q0 34 -22 56.5t-62 22.5h-121z" />
<glyph unicode="C" horiz-adv-x="1505" d="M197 633q0 174 69 332.5t186.5 275.5t284.5 186.5t353 69.5q68 0 143.5 -8.5t158.5 -29.5t146 -52q62 -31 98 -83q26 -38 27 -81q0 -16 -4 -33l-51 -266h-387l18 103q2 7 2 14q0 67 -160 67q-87 0 -160.5 -31t-121.5 -80.5t-82 -113t-49 -127t-15 -123.5q0 -63 15.5 -117 t47.5 -98t88 -69t132 -25q77 0 121.5 17t52.5 63l20 104h392l-43 -239q-13 -72 -58.5 -128.5t-105.5 -90.5t-135 -56t-142 -30.5t-133 -8.5q-205 0 -366.5 83t-251.5 233t-90 342z" />
<glyph unicode="D" horiz-adv-x="1624" d="M102 0l62 315h153l162 842h-153l61 316h633q327 0 510.5 -154.5t183.5 -431.5q0 -183 -63.5 -346t-175 -282.5t-272.5 -189t-347 -69.5h-754zM766 342h84q127 0 224.5 69.5t147.5 183.5t50 251q0 138 -70.5 211t-200.5 73h-86z" />
<glyph unicode="E" horiz-adv-x="1380" d="M102 0l62 315h153l164 842h-155l61 316h1165l-92 -478h-366l26 135h-202l-41 -217h389l-68 -344h-389l-45 -227h221l27 131h366l-90 -473h-1186z" />
<glyph unicode="F" horiz-adv-x="1284" d="M102 0l62 315h153l164 842h-155l61 316h1133l-93 -476h-366l20 107h-168l-47 -242h400l-70 -342h-397l-39 -205h178l-61 -315h-775z" />
<glyph unicode="G" horiz-adv-x="1574" d="M193 631q0 177 72 337t194.5 276t293 184.5t359.5 68.5q53 0 112.5 -5t131.5 -16.5t134 -33.5t112.5 -52.5t74.5 -77.5q16 -31 16 -68q0 -16 -3 -34l-54 -266h-387l21 107q3 18 -3 32t-22 22t-31.5 13t-39.5 7t-37.5 2.5t-32.5 0.5q-92 0 -169.5 -30.5t-129 -80 t-88 -113.5t-52.5 -129t-16 -128q0 -66 12.5 -116t45 -94.5t97.5 -68.5t161 -24q198 0 213 72l12 57h-217l63 315h606l-100 -507q-16 -81 -80 -143t-155.5 -96t-190.5 -50.5t-201 -16.5q-213 0 -377.5 83.5t-254.5 232.5t-90 340z" />
<glyph unicode="H" horiz-adv-x="1816" d="M102 0l62 315h153l162 842h-153l61 316h754l-62 -316h-155l-50 -256h420l49 256h-155l61 316h754l-61 -316h-156l-164 -842h156l-62 -315h-753l61 315h156l47 242h-420l-47 -242h155l-61 -315h-752z" />
<glyph unicode="I" horiz-adv-x="956" d="M102 0l62 315h153l162 842h-153l61 316h754l-62 -316h-157l-162 -842h155l-61 -315h-752z" />
<glyph unicode="J" horiz-adv-x="1218" d="M98 385q0 46 9 97.5t17 79.5l9 28h416q-27 -95 -27 -156q0 -78 58 -78q69 0 88 105l139 696h-184l61 316h760l-60 -316h-135l-139 -713q-43 -221 -195 -345t-350 -124q-91 0 -174.5 27.5t-149 78t-104.5 129.5t-39 175z" />
<glyph unicode="K" horiz-adv-x="1585" d="M102 0l62 315h153l162 842h-153l61 316h670l-60 -316h-75l-45 -242h84l215 242h-80l61 316h639l-61 -316h-115l-356 -399v-4q6 -4 15.5 -13t30.5 -40.5t31 -67.5l62 -217q19 -63 36.5 -84t63.5 -21l68 4l-58 -315q-49 -6 -176 -6q-286 0 -346 233l-69 277q-16 67 -99 67 h-14l-49 -256h133l-62 -315h-729z" />
<glyph unicode="L" horiz-adv-x="1329" d="M104 0l60 315h153l160 815h-155l65 343h754l-66 -343h-157l-152 -788h227l41 207h367l-107 -549h-1190z" />
<glyph unicode="M" horiz-adv-x="2052" d="M82 0l59 315h150l221 842h-150l62 316h659l43 -652l9 -196h4q33 87 82 196l290 652h689l-62 -316h-149l-107 -842h152l-62 -315h-696l61 315h121l62 430q4 31 16 77.5t22 77.5l9 30h-8q-41 -102 -78 -176l-221 -490h-367l-31 490q-4 32 -6 76t-2 72v28h-8 q-13 -115 -29 -185l-102 -430h121l-62 -315h-692z" />
<glyph unicode="N" horiz-adv-x="1779" d="M102 0l62 315h153l164 842h-155l61 316h592l221 -670q11 -32 20 -73t12 -66l3 -25h10q9 102 23 178l67 340h-166l60 316h764l-60 -316h-155l-226 -1157h-436l-227 668q-10 30 -19 70t-12 64l-4 25h-10q-7 -100 -21 -176l-63 -336h166l-62 -315h-762z" />
<glyph unicode="O" horiz-adv-x="1671" d="M197 639q0 170 71 328.5t189.5 274.5t280.5 185.5t337 69.5q202 0 359.5 -83.5t244 -231t86.5 -334.5q0 -139 -46.5 -272t-130 -240.5t-193 -189t-242 -126.5t-270.5 -45q-306 0 -496 186.5t-190 477.5zM641 666q0 -139 74 -224.5t194 -85.5q74 0 148 36t132 96t94 147.5 t36 183.5q0 134 -75.5 215.5t-196.5 81.5q-76 0 -149.5 -35t-130.5 -94t-91.5 -143.5t-34.5 -177.5z" />
<glyph unicode="P" horiz-adv-x="1427" d="M98 0l62 315h155l164 842h-155l61 316h750q200 0 327 -122.5t127 -324.5q0 -158 -77 -293t-210 -214t-290 -79h-230l-24 -125h157l-61 -315h-756zM848 782h121q83 0 132.5 63t49.5 154q0 60 -27 95.5t-82 35.5h-127z" />
<glyph unicode="Q" horiz-adv-x="1667" d="M195 639q0 170 71 329t187.5 274.5t274 185t323.5 69.5q160 0 294 -48.5t225.5 -134.5t142 -206t50.5 -260q0 -297 -209 -537l119 -108l-270 -252l-115 131q-85 -54 -173 -80.5t-210 -26.5q-161 0 -294.5 49.5t-224.5 137.5t-141 210.5t-50 266.5zM639 666 q0 -139 75.5 -224.5t194.5 -85.5q35 0 63 5t39 11l11 5l-158 170l264 246l156 -170q33 73 33 196q0 134 -75 215.5t-195 81.5q-77 0 -151 -35t-130.5 -94t-91.5 -143.5t-35 -177.5z" />
<glyph unicode="R" horiz-adv-x="1531" d="M98 0l62 315h155l164 842h-155l61 316h752q89 0 165.5 -24t138.5 -72t98 -128.5t36 -185.5q0 -47 -7 -95t-26.5 -105.5t-49.5 -107t-80.5 -95t-115.5 -74.5v-6q8 -7 19.5 -18.5t36 -47t34.5 -70.5l9 -28q19 -63 36 -84t62 -21l63 4l-59 -315q-88 -6 -168 -6 q-70 0 -126.5 14.5t-92 37t-62.5 55t-40.5 61.5t-24.5 65l-63 213q-10 32 -26 47t-50 15h-47l-37 -187h129l-60 -315h-731zM856 823h92q82 0 136.5 49t54.5 132q0 57 -28 91.5t-79 34.5h-117z" />
<glyph unicode="S" horiz-adv-x="1325" d="M152 385l30 172h393l-18 -94q-2 -10 -2 -19q0 -88 184 -88q84 0 125 33.5t41 79.5q0 26 -33.5 48t-87 40.5t-118.5 40.5t-130 56t-118.5 79t-87 117t-33.5 162q0 101 35 183.5t95 138t142.5 93t174.5 54t194 16.5q51 0 103.5 -5t115.5 -17.5t114.5 -37t92.5 -59t58 -88.5 q9 -30 9 -63q0 -28 -6 -58l-43 -211h-391l19 93q7 38 -26.5 51.5t-96.5 13.5q-78 0 -114 -23.5t-36 -62.5q0 -34 33.5 -59.5t87.5 -44.5t119 -40t130.5 -53.5t119.5 -75.5t87.5 -114.5t33.5 -163.5q0 -100 -35.5 -183.5t-97.5 -142t-146.5 -99t-182 -60t-204.5 -19.5 q-58 0 -120 9.5t-127.5 28.5t-121 52t-97.5 76.5t-60 106.5q-10 36 -10 76q0 29 6 61z" />
<glyph unicode="T" horiz-adv-x="1460" d="M223 934l105 539h1370l-105 -539h-368l37 196h-95l-157 -815h155l-61 -315h-754l62 315h155l158 815h-98l-37 -196h-367z" />
<glyph unicode="U" horiz-adv-x="1703" d="M274 1157l62 316h749l-61 -316h-152l-116 -608q-4 -28 -4 -43q0 -150 170 -150q201 0 237 193l117 608h-152l60 316h749l-59 -316h-156l-119 -616q-50 -263 -228 -414.5t-451 -151.5q-100 0 -190 17.5t-168 55.5t-135 93.5t-89.5 136.5t-32.5 179q0 57 12 118l113 582 h-156z" />
<glyph unicode="V" horiz-adv-x="1523" d="M248 1157l61 316h676l-61 -316h-115l35 -500q2 -32 2 -63v-20q-1 -40 -4 -70l-2 -29h8q26 98 65 182l228 500h-115l61 316h701l-62 -316h-114l-625 -1157h-450l-175 1157h-114z" />
<glyph unicode="W" horiz-adv-x="2162" d="M260 1157l59 316h701l-59 -316h-170l-7 -510q0 -36 -3 -79.5t-6 -69.5l-3 -25h8q21 92 58 174l350 826h334l28 -826q1 -29 1 -55v-26q-1 -38 -4 -66l-3 -27h10q19 92 52 174l192 510h-168l60 316h725l-62 -316h-115l-501 -1157h-482l-22 621q-1 16 -1 34q0 22 2 48 q2 46 6 74l3 28h-8q-29 -104 -66 -184l-260 -621h-483l-51 1157h-115z" />
<glyph unicode="X" horiz-adv-x="1517" d="M68 0l61 315h109l444 457l-248 385h-131l62 316h645l-62 -316h-96l70 -110q11 -17 21.5 -35.5t14.5 -28.5l5 -10h4q24 31 63 74l105 110h-86l61 316h627l-62 -316h-108l-434 -446l253 -396h123l-59 -315h-647l61 315h105l-78 117q-11 16 -22 36t-16 32l-5 12h-4 q-31 -41 -68 -80l-106 -117h92l-62 -315h-632z" />
<glyph unicode="Y" horiz-adv-x="1396" d="M246 1157l61 316h611l-60 -316h-82l58 -184l20 -78h4q16 31 49 78l129 184h-80l60 316h645l-62 -316h-118l-447 -563l-55 -279h156l-60 -315h-753l59 315h156l55 279l-227 563h-119z" />
<glyph unicode="Z" horiz-adv-x="1382" d="M98 0l52 268l714 795q16 18 36.5 35.5t33.5 25.5l12 9v4q-49 -7 -90 -7h-166l-39 -196h-366l104 539h1163l-51 -263l-719 -800q-16 -18 -37 -35.5t-34 -26.5l-13 -8v-4q52 6 93 6h200l41 207h367l-107 -549h-1194z" />
<glyph unicode="[" horiz-adv-x="798" d="M121 -195l342 1745h579l-57 -290h-229l-226 -1164h230l-60 -291h-579z" />
<glyph unicode="\" horiz-adv-x="1001" d="M369 1542h336l213 -1628h-336z" />
<glyph unicode="]" horiz-adv-x="796" d="M20 -195l56 291h229l225 1164h-229l59 290h580l-340 -1745h-580z" />
<glyph unicode="^" d="M-10 487l418 986h262l420 -986h-353l-198 566l-197 -566h-352z" />
<glyph unicode="_" horiz-adv-x="1228" d="M-82 -315l57 315h1276l-59 -315h-1274z" />
<glyph unicode="`" horiz-adv-x="976" d="M119 1894h395l168 -329h-305z" />
<glyph unicode="a" horiz-adv-x="1216" d="M92 250q0 87 45.5 157t116 113t162.5 71.5t179 40t171 11.5q10 37 10 64q0 53 -104 53q-57 0 -135 -24t-127 -48l-50 -24l-81 303q10 5 27.5 13t71.5 28.5t108 36.5t129.5 29t142.5 13q56 0 111.5 -8t116.5 -31.5t106.5 -59.5t75.5 -97.5t30 -140.5q0 -66 -30.5 -201.5 t-30.5 -179.5q0 -66 73 -66l35 2l-59 -305q-21 -6 -152 -6q-9 0 -32.5 -0.5t-35.5 -0.5t-35.5 1.5t-38 4t-36 8t-35.5 13.5t-31.5 20t-29.5 28t-23.5 38t-19.5 48h-4q-5 -7 -14.5 -18.5t-42 -41t-68 -52.5t-91 -41.5t-112.5 -18.5q-120 0 -206.5 72t-86.5 196zM502 326 q0 -33 19 -49.5t44 -16.5q47 0 90.5 44t63.5 112l10 37h-33q-21 0 -50 -5.5t-63.5 -18.5t-57.5 -40t-23 -63z" />
<glyph unicode="b" horiz-adv-x="1353" d="M135 0l225 1169h-129l60 304h555l-76 -383l-22 -95h4q49 44 118 68t134 24q194 0 304.5 -128t110.5 -345q0 -138 -50 -259.5t-132 -203.5t-187 -129t-214 -47q-82 0 -159.5 28.5t-127.5 92.5h-4q0 -20 -4 -47l-9 -49h-397zM645 473q0 -64 33.5 -105.5t99.5 -41.5 q78 0 143.5 70.5t65.5 185.5q0 68 -36 108.5t-97 40.5q-25 0 -58 -14.5t-68 -42.5t-59 -81t-24 -120z" />
<glyph unicode="c" horiz-adv-x="1196" d="M135 457q0 86 28 174t86.5 170t139.5 145.5t195.5 102t246.5 38.5q64 0 127.5 -8.5t130 -30.5t113.5 -56q48 -32 72 -88q16 -36 17 -79q0 -23 -5 -47l-31 -162h-360l12 52q7 29 -18 48t-84 19q-58 0 -105 -24t-75 -61t-43 -79t-15 -82q0 -30 8 -55.5t28 -51.5t60.5 -41 t98.5 -15q50 0 102 11.5t91 28t70.5 33t48.5 27.5l16 12l104 -309q-7 -6 -20 -16.5t-58.5 -37t-96.5 -47t-133 -37t-169 -16.5q-143 0 -256 39.5t-183 107.5t-106.5 153.5t-36.5 181.5z" />
<glyph unicode="d" horiz-adv-x="1409" d="M141 451q0 138 49 258t131 202t192 129t230 47q53 0 97.5 -9.5t70 -22.5t43.5 -26t24 -23l7 -9h4q2 27 6 43l25 129h-127l57 304h557l-200 -1035q0 -1 -2.5 -11.5t-4.5 -26t-2 -29.5q0 -68 70 -68l39 2l-57 -305q-84 -10 -166 -10q-267 0 -305 166h-5 q-129 -181 -335 -181q-175 0 -286.5 130t-111.5 346zM573 485q0 -74 33.5 -116.5t87.5 -42.5q30 0 66.5 15t71.5 43t58 77t23 108q0 72 -31.5 117t-93.5 45q-80 0 -147.5 -69t-67.5 -177z" />
<glyph unicode="e" horiz-adv-x="1165" d="M143 477q0 166 80.5 306t224 222t318.5 82q217 0 341 -116.5t124 -298.5q0 -50 -10.5 -101.5t-20.5 -77.5l-10 -26h-621q-1 -72 43.5 -106.5t118.5 -34.5q67 0 144 25t121 50l44 25l107 -313q-7 -6 -21 -15t-60 -33t-96 -42t-128 -33t-158 -15q-134 0 -239 39.5 t-170 108.5t-98.5 159t-33.5 195zM608 651h205q4 37 4 60q0 90 -76 90q-94 0 -133 -150z" />
<glyph unicode="f" horiz-adv-x="847" d="M186 0l148 760h-129l59 303h129l8 43q16 84 53.5 150t88.5 108t106.5 71t119 43t114 19.5t102.5 5.5q36 0 71 -2.5t52 -4.5l16 -3l-67 -330q-46 8 -99 8q-63 0 -94 -17.5t-39 -57.5l-6 -33h203l-57 -303h-203l-150 -760h-426z" />
<glyph unicode="g" horiz-adv-x="1372" d="M92 -313l160 290q4 -3 12 -7.5t35.5 -16t58.5 -20.5t82.5 -16t106.5 -7q96 0 153.5 36.5t79.5 123.5l25 84h-2q-106 -115 -236 -115q-106 0 -187 36.5t-130 100t-73.5 144t-24.5 174.5q0 89 24 175.5t73 162t116 132.5t159 90t197 33q61 0 112.5 -14.5t81 -35.5 t50.5 -41.5t29 -35.5l7 -14h5q0 50 42.5 83.5t92.5 33.5h370l-61 -303h-61q-44 0 -50 -37l-122 -612q-23 -116 -73.5 -209.5t-115 -154.5t-144.5 -101.5t-160.5 -58t-164.5 -17.5q-94 0 -176.5 12t-133 29t-88.5 34.5t-53 29.5zM582 530q0 -61 29 -100t96 -39q82 0 136 71 t54 152q0 70 -37.5 95.5t-99.5 25.5q-82 0 -130 -56t-48 -149z" />
<glyph unicode="h" horiz-adv-x="1413" d="M135 0l225 1169h-129l60 304h559l-94 -469q-4 -23 -11 -45t-11 -33l-5 -11h4q5 7 15 18.5t44 41t71.5 52.5t96.5 41.5t121 18.5q84 0 152.5 -31.5t113 -101.5t44.5 -168q0 -76 -34 -229.5t-34 -185.5q0 -68 72 -68l37 2l-58 -305q-37 -6 -139 -6q-41 0 -70.5 1.5 t-68.5 7.5t-66.5 16t-56.5 29.5t-47 47t-29.5 68t-11.5 92.5q0 80 30.5 222.5t30.5 164.5q0 59 -74 59q-86 0 -143.5 -75.5t-79.5 -188.5l-86 -438h-428z" />
<glyph unicode="i" horiz-adv-x="784" d="M190 760l58 303h557l-121 -625q-8 -36 -8 -69q0 -66 74 -66l32 2l-57 -305q-51 -6 -119 -6q-49 0 -81.5 1.5t-75 7t-70.5 16t-58 30t-47.5 47t-29 68.5t-11.5 94q0 60 19 150l67 352h-129zM406 1161l59 312h414l-60 -312h-413z" />
<glyph unicode="j" horiz-adv-x="745" d="M-117 -422l64 324q20 -2 45 -2q176 0 192 92l148 768h-131l57 303h559l-203 -1055q-17 -87 -56 -157.5t-91 -116.5t-109.5 -79.5t-120.5 -50.5t-114.5 -24.5t-99.5 -7.5q-37 0 -72 1.5t-51 2.5zM418 1161l61 312h412l-60 -312h-413z" />
<glyph unicode="k" horiz-adv-x="1294" d="M135 0l223 1169h-129l58 304h557l-154 -801h96l95 88h-105l58 303h581l-59 -303h-90l-213 -209v-4q30 -33 63 -103l29 -67q29 -72 98 -72l57 2l-57 -307q-43 -6 -149 -6q-38 0 -71 3.5t-58 8t-47.5 15t-37 17.5t-29.5 23l-22.5 24t-18 28.5t-14 28t-12.5 30.5t-12 29 l-41 114q-21 60 -61 60h-39l-72 -375h-424z" />
<glyph unicode="l" horiz-adv-x="737" d="M186 283q0 63 15 151l143 735h-129l59 304h555l-190 -1004q-12 -47 -12 -84q0 -30 15.5 -44.5t57.5 -14.5l41 2l-67 -334q-51 -6 -117 -6q-64 0 -112.5 5.5t-99.5 24t-84 50t-54 86t-21 129.5z" />
<glyph unicode="m" horiz-adv-x="2009" d="M186 0l140 717q1 6 1 12q0 31 -38 31h-84l57 303h381q67 0 101 -26t34 -70q0 -15 -3 -32.5t-6 -27.5l-3 -10h4q6 8 17 20.5t46.5 45.5t72 58t90 45.5t104.5 20.5q84 0 154 -51.5t92 -154.5h4q137 206 342 206q124 0 208.5 -77.5t84.5 -221.5q0 -78 -34 -230.5t-34 -184.5 q0 -70 72 -70l36 2l-57 -305q-37 -6 -137 -6q-40 0 -69.5 1.5t-69 7t-67 16t-57 29.5t-48 46t-30 67t-11.5 91q0 80 32.5 229t32.5 176q0 21 -9.5 32t-35.5 11q-130 0 -186 -280l-84 -420h-428l125 627q10 34 1 53.5t-42 19.5q-34 0 -62.5 -18t-48 -45.5t-36.5 -70.5 t-27 -82t-21 -91l-78 -393h-426z" />
<glyph unicode="n" horiz-adv-x="1464" d="M186 0l140 715q4 21 -6 33t-31 12h-84l57 303h383q64 0 98.5 -26t34.5 -74q0 -16 -3.5 -35.5t-6.5 -31.5l-4 -11h4q5 8 14.5 21.5t42.5 48.5t71 61.5t100.5 48.5t129.5 22q137 0 225.5 -78t88.5 -229q0 -73 -33 -224t-33 -187q0 -66 74 -66l35 2l-60 -305q-35 -6 -141 -6 q-41 0 -70.5 1.5t-68.5 7.5t-66.5 16.5t-56 30t-46 47.5t-29 69.5t-11.5 93.5q0 75 30.5 218.5t30.5 162.5q0 17 -4 28.5t-21 22t-48 10.5q-86 0 -142 -74.5t-80 -189.5l-88 -438h-426z" />
<glyph unicode="o" d="M137 457q0 137 58 256.5t153.5 200.5t220 127t256.5 46q157 0 282 -58t197 -169t72 -256q0 -137 -58 -256.5t-154 -200t-220.5 -126.5t-257.5 -46q-156 0 -280 58t-196.5 168.5t-72.5 255.5zM569 477q0 -72 41 -110.5t107 -38.5q89 0 158 67t69 183q0 74 -40.5 115.5 t-104.5 41.5q-85 0 -157.5 -71.5t-72.5 -186.5z" />
<glyph unicode="p" horiz-adv-x="1404" d="M111 -410l215 1125q1 6 1 11q0 34 -36 34h-84l57 303h371q66 0 95.5 -22t29.5 -54q0 -15 -3 -28.5t-6 -20.5l-3 -6h4q58 77 138 116t165 39q192 0 303.5 -128t111.5 -345q0 -138 -50 -259.5t-132 -203.5t-187 -129t-214 -47q-144 0 -260 101h-4q-3 -37 -13 -90l-71 -396 h-428zM698 475q0 -67 33 -108t100 -41q79 0 144 70.5t65 185.5q0 68 -35 108.5t-96 40.5q-26 0 -59.5 -14t-68.5 -42t-59 -80.5t-24 -119.5z" />
<glyph unicode="q" horiz-adv-x="1355" d="M141 451q0 138 49.5 258.5t132 202.5t191 128.5t225.5 46.5q58 0 107.5 -11.5t78.5 -28.5t50 -34t29 -29l8 -11h4q2 51 12 90h399l-227 -1176h129l-57 -297h-557l78 406l20 88h-4l-11.5 -11.5t-34 -26.5t-55.5 -33t-75.5 -26t-95.5 -12q-174 0 -285 130.5t-111 345.5z M573 485q0 -74 33.5 -116.5t87.5 -42.5q31 0 67 14.5t71 42.5t58 77t23 109q0 71 -32.5 116.5t-92.5 45.5q-81 0 -148 -69t-67 -177z" />
<glyph unicode="r" horiz-adv-x="999" d="M188 0l138 715q4 18 -4.5 31.5t-32.5 13.5h-84l61 303h379q135 0 135 -100q0 -60 -24 -134h4q57 114 157 184t220 70l45 -2l-82 -419q-18 6 -86 6q-272 0 -328 -295l-70 -373h-428z" />
<glyph unicode="s" horiz-adv-x="1087" d="M98 283l23 108h354l-4 -24q-1 -8 -1 -14q0 -29 24 -43q30 -17 88 -17q108 0 108 45q0 21 -26 38t-67 31t-91 30.5t-99.5 41t-90.5 56.5t-67 83t-26 115q0 88 46.5 157.5t124 111.5t170 63.5t192.5 21.5q81 0 154.5 -14t137.5 -43.5t96 -83.5q23 -39 23 -87q0 -19 -4 -40 l-22 -123h-355l5 27q4 28 -13.5 37.5t-52.5 9.5q-90 0 -90 -45q0 -26 35 -45.5t87.5 -32.5t114 -35.5t114 -51t87.5 -83t35 -127.5q0 -108 -74 -194.5t-199 -133.5t-276 -47q-65 0 -129.5 8.5t-131.5 30.5t-114 56q-48 32 -73 88q-17 38 -17 82q0 21 4 43z" />
<glyph unicode="t" horiz-adv-x="876" d="M186 760l58 303h145l55 285h408l-55 -285h211l-58 -303h-211l-55 -291q-8 -40 -8 -66q0 -75 147 -75l56 4l-66 -336q-63 -6 -108 -6q-213 0 -341 89.5t-128 246.5q0 40 12 98l67 336h-129z" />
<glyph unicode="u" horiz-adv-x="1460" d="M188 760l62 303h557l-115 -586q-10 -40 -10 -67q0 -31 13.5 -46.5t49.5 -15.5q74 0 137 77t81 173l30 162h-131l62 303h557l-123 -625q-8 -40 -8 -71t17 -48.5t65 -17.5l26 2l-57 -303q-5 -2 -84.5 -5t-128.5 -3q-53 0 -89.5 6.5t-74 26t-62 61.5t-36.5 107h-4 q-144 -218 -365 -218q-138 0 -229.5 77.5t-91.5 223.5q0 59 12 121l71 363h-131z" />
<glyph unicode="v" horiz-adv-x="1316" d="M164 760l61 303h580l-62 -303h-59l21 -277q3 -33 3.5 -72.5t-0.5 -62.5l-1 -24h8q26 83 61 159l127 277h-59l61 303h602l-59 -303h-115l-420 -760h-510l-124 760h-115z" />
<glyph unicode="w" horiz-adv-x="1820" d="M178 760l62 303h594l-60 -303h-94l-14 -256l-13 -160h9q24 88 53 160l225 559h336v-559l-6 -160h8q24 88 47 160l88 256h-94l61 303h619l-62 -303h-116l-318 -760h-497l8 412q1 34 4 73t6 61l2 23h-10q-20 -79 -49 -157l-152 -412h-498l-22 760h-117z" />
<glyph unicode="x" horiz-adv-x="1189" d="M68 0l59 303h104l242 238l-117 184q-10 20 -26 27.5t-47 7.5h-72l61 303h246q65 0 94.5 -15t53.5 -67l47 -104q8 -19 15.5 -43.5t11.5 -39.5l3 -14h5q30 51 63 94l152 189h364l-61 -303h-84l-252 -250l94 -133q35 -47 50.5 -60.5t43.5 -13.5h66l-58 -303q-45 -6 -122 -6 q-72 0 -120 9.5t-80.5 33.5t-49.5 47.5t-41 67.5l-17 30q-9 17 -17.5 41.5t-12.5 40.5l-4 15h-5q-28 -58 -63 -99l-143 -180h-383z" />
<glyph unicode="y" horiz-adv-x="1329" d="M-59 -336l180 291q6 -5 18 -12.5t58 -20t102 -12.5q114 0 162 53l-185 797h-112l57 303h602l-59 -303h-70l27 -287q2 -29 2 -55v-18q-1 -35 -3 -60l-3 -25h10q31 84 66 158l131 287h-62l58 303h583l-57 -303h-100l-465 -819q-62 -109 -133 -184t-147.5 -114.5t-149.5 -56 t-158 -16.5q-62 0 -121.5 9.5t-99.5 23.5t-71 28t-45 23z" />
<glyph unicode="z" horiz-adv-x="1155" d="M82 0l49 258l535 451q17 15 35 27.5t27 17.5l9 6v4q-59 -4 -92 -4h-74l-20 -109h-354l82 412h987l-52 -260l-526 -449q-16 -15 -33.5 -27.5t-26.5 -18.5l-10 -5v-4q60 4 93 4h86l20 109h354l-81 -412h-1008z" />
<glyph unicode="{" horiz-adv-x="831" d="M141 500l72 368q7 0 19 0.5t43.5 10t58 27t53 57.5t37.5 96l43 223q14 72 54.5 126.5t98.5 86.5t131.5 51t153.5 19.5t164 -6.5l-57 -302q-69 18 -136 -4t-77 -73l-56 -271q-10 -48 -36.5 -89t-58 -65.5t-61 -42t-49.5 -24.5l-20 -6v-4q5 -1 14 -4.5t32 -19.5t40.5 -38 t32 -64t14.5 -95q0 -39 -8 -80l-39 -197q-11 -60 34.5 -76.5t147.5 -5.5l-57 -301q-55 -4 -100 -4q-68 0 -128.5 12.5t-114.5 39t-88.5 68.5t-50 101.5t0.5 137.5l31 163q6 24 6 52q0 38 -15 65.5t-36 40t-42 19.5t-36 8h-15z" />
<glyph unicode="|" horiz-adv-x="780" d="M340 -344v1997h350v-1997h-350z" />
<glyph unicode="}" horiz-adv-x="833" d="M25 -203l59 301q96 -14 149 7.5t66 84.5l55 269q10 48 37 89t58 64.5t61 40t50 23.5l20 6v4q-5 1 -14.5 4.5t-32.5 19.5t-40.5 38.5t-32 65.5t-14.5 97q0 48 25 165.5t25 127.5q0 31 -33 46t-75 13.5t-81 -6.5l60 302q64 6 130.5 3.5t130.5 -25t114 -55.5t81 -88t31 -122 q0 -40 -20.5 -141t-20.5 -130q0 -39 14.5 -67t35.5 -40t42.5 -19t36.5 -7h14l-69 -368q-7 0 -19 -0.5t-44 -10.5t-58.5 -28t-53 -58t-36.5 -96l-47 -233q-18 -89 -76 -151t-140 -90.5t-183 -39t-205 3.5z" />
<glyph unicode="~" horiz-adv-x="1280" d="M182 379q0 217 96 332.5t271 115.5q63 0 114 -15t82.5 -36.5t57 -43.5t51.5 -37t53 -15q41 0 70 30.5t29 108.5h325q0 -217 -95 -332.5t-271 -115.5q-62 0 -112.5 15t-82.5 36.5t-58 43.5t-52.5 37t-53.5 15q-39 0 -67.5 -31t-28.5 -108h-328z" />
<glyph unicode="&#xa1;" horiz-adv-x="657" d="M29 -410l233 996h363l-152 -996h-444zM274 707l68 356h379l-68 -356h-379z" />
<glyph unicode="&#xa2;" horiz-adv-x="1277" d="M219 676q0 114 36.5 215t94.5 173t132.5 127.5t149 87t146.5 44.5l33 172h262l-35 -190q77 -25 137.5 -71t92 -94t52 -92.5t26.5 -73.5l6 -28l-381 -137q-1 5 -2.5 13.5t-9.5 30t-20.5 38t-36 30t-54.5 13.5q-75 0 -139 -68.5t-64 -177.5q0 -68 36.5 -107.5t92.5 -39.5 q37 0 69 12.5t52 30.5t34.5 35.5t20.5 30.5l6 12l359 -152q-3 -7 -9 -19t-27.5 -47.5t-47.5 -68t-69.5 -73.5t-91.5 -72.5t-116 -57t-141 -33.5l-33 -164h-264l39 193q-154 57 -245 189t-91 319z" />
<glyph unicode="&#xa3;" horiz-adv-x="1329" d="M88 0l62 330h155l53 264h-155l53 268h154l39 195q39 196 194 318t358 122q80 0 155 -21t124 -51.5t86.5 -60.5t54.5 -51l17 -21l-258 -260q-10 10 -26.5 25t-62.5 40t-85 25q-42 0 -78.5 -26.5t-44.5 -73.5l-31 -160h293l-53 -268h-291l-53 -264h213l36 178h367l-96 -508 h-1180z" />
<glyph unicode="&#xa5;" horiz-adv-x="1396" d="M199 311l43 228h333l11 49l-29 102h-287l45 228h179l-148 555h453l30 -220l37 -321h4q72 167 146 323l104 218h492l-365 -555h183l-46 -228h-290l-66 -102l-10 -49h338l-43 -228h-338l-62 -311h-442l61 311h-333z" />
<glyph unicode="&#xa7;" horiz-adv-x="1171" d="M80 68l207 239q4 -4 12.5 -10.5t37.5 -23.5t61 -30t82 -23.5t102 -10.5q233 0 233 246q0 27 -2.5 58t-6 56.5t-12 73t-14.5 77.5t-20 101.5t-23 116.5h305q76 -332 76 -510q0 -115 -34 -214.5t-99 -176t-168.5 -120.5t-234.5 -44q-89 0 -173.5 20t-141.5 48.5t-101 57.5 t-65 49zM317 942q0 115 34 214.5t99.5 176t169 120.5t234.5 44q89 0 173.5 -20t141.5 -48.5t101 -57t65 -48.5l21 -20l-207 -240q-4 4 -12.5 10.5t-37.5 23.5t-61 30t-82 23.5t-102 10.5q-233 0 -233 -246q0 -24 1.5 -47t5.5 -53.5t7 -53t11.5 -67t13.5 -71t18 -90 t20 -101.5h-305q-76 332 -76 510z" />
<glyph unicode="&#xa8;" horiz-adv-x="978" d="M-66 1569l66 325h299l-63 -325h-302zM461 1569l63 325h301l-63 -325h-301z" />
<glyph unicode="&#xa9;" horiz-adv-x="1648" d="M227 733q0 154 58.5 293.5t157 240.5t234.5 160.5t286 59.5q153 0 290.5 -59.5t236.5 -160.5t157.5 -240.5t58.5 -293.5t-58.5 -294.5t-157.5 -242t-237 -161.5t-290 -60q-150 0 -286 60t-234.5 161.5t-157 242t-58.5 294.5zM459 733q0 -150 66 -276t182 -198.5 t256 -72.5q143 0 261 72.5t185.5 198t67.5 276.5q0 150 -67.5 274.5t-185.5 196.5t-261 72q-140 0 -256 -72t-182 -197t-66 -274zM614 727q0 161 105 272t248 111q74 0 135.5 -24.5t96.5 -59t58.5 -69t32.5 -59.5l8 -24l-204 -79q-1 4 -3.5 11t-12.5 24t-22 30t-34 24 t-47 11q-48 0 -84.5 -48t-36.5 -120q0 -81 33.5 -124.5t87.5 -43.5q40 0 69.5 25t39.5 50l10 25l204 -79q-3 -10 -9 -25.5t-31.5 -56.5t-59 -72t-95.5 -56.5t-136 -25.5q-143 0 -248 111t-105 272z" />
<glyph unicode="&#xaa;" horiz-adv-x="860" d="M209 551l35 180h653l-35 -180h-653zM283 950q0 51 16.5 92.5t42 68t62.5 46t70.5 29.5t74 16t65.5 7t52 1h30l6 29q10 47 -65 47q-36 0 -80 -12t-70 -24l-26 -11l-60 186q15 8 42 19t109.5 30t162.5 19q136 0 204 -57t68 -160q0 -30 -6 -68l-78 -407h-260l16 92h-4 q-3 -4 -8 -11.5t-23 -26.5t-38 -33t-52.5 -26t-66.5 -12q-79 0 -131.5 46t-52.5 120zM528 1001q0 -36 50 -36q27 0 51 21.5t30 51.5l7 35h-19q-119 0 -119 -72z" />
<glyph unicode="&#xab;" horiz-adv-x="1456" d="M160 575l391 424h395l-416 -438l269 -403h-371zM752 575l440 424h403l-473 -438l269 -403h-373z" />
<glyph unicode="&#xac;" horiz-adv-x="1361" d="M252 686v318h1063v-752h-328v434h-735z" />
<glyph unicode="&#xad;" horiz-adv-x="921" d="M205 406l71 368h666l-72 -368h-665z" />
<glyph unicode="&#xae;" horiz-adv-x="1648" d="M227 733q0 154 58.5 293.5t157 240.5t234.5 160.5t286 59.5q153 0 290.5 -59.5t236.5 -160.5t157.5 -240.5t58.5 -293.5t-58.5 -294.5t-157.5 -242t-237 -161.5t-290 -60q-150 0 -286 60t-234.5 161.5t-157 242t-58.5 294.5zM459 733q0 -150 66 -276t182 -198.5 t256 -72.5q143 0 261 72.5t185.5 198t67.5 276.5q0 150 -67.5 274.5t-185.5 196.5t-261 72q-140 0 -256 -72t-182 -197t-66 -274zM696 383v711h334q115 0 182.5 -64t67.5 -172q0 -76 -40.5 -123.5t-78.5 -58.5v-4q9 -6 27 -41l129 -248h-242l-100 242h-57v-242h-222z M918 772h55q40 0 61 22.5t21 63.5q0 84 -78 84h-59v-170z" />
<glyph unicode="&#xaf;" horiz-adv-x="978" d="M66 1599l53 271h583l-55 -271h-581z" />
<glyph unicode="&#xb0;" horiz-adv-x="888" d="M258 1094q0 105 61 200.5t159 153t202 57.5q165 0 272 -98.5t107 -245.5q0 -107 -62.5 -202t-160.5 -150t-203 -55q-165 0 -270 96.5t-105 243.5zM561 1120q0 -35 25 -56.5t65 -21.5q36 0 69.5 28.5t33.5 62.5q0 38 -26 61t-66 23q-39 0 -70 -31t-31 -66z" />
<glyph unicode="&#xb1;" d="M201 432v316h403v434h330v-434h401v-316h-401v-432h-330v432h-403zM217 -119h1104v-311h-1104v311z" />
<glyph unicode="&#xb2;" horiz-adv-x="870" d="M244 866q0 77 17 144t46 114.5t66.5 88t79.5 68.5t83.5 51t79 41t66.5 34t46 33.5t17 36.5q0 36 -53 36q-35 0 -75.5 -20.5t-63.5 -40.5l-23 -20l-178 180q7 7 19 19.5t52.5 44t83.5 55.5t107 43.5t127 19.5q56 0 111 -15.5t104 -46t79 -83.5t30 -121q0 -57 -24.5 -106.5 t-64 -85t-87.5 -66t-95.5 -53t-87.5 -42t-65 -38t-25 -35.5h199l14 80h211l-59 -316h-737z" />
<glyph unicode="&#xb3;" horiz-adv-x="831" d="M250 987l178 205q2 -3 6.5 -7.5t20 -16t33 -20.5t45.5 -16.5t59 -7.5q44 0 69 17t25 43q0 35 -92 35h-59l-13 122l162 158q9 11 23 23.5t24 19.5l10 6v8q-40 -8 -73 -8h-90l-19 -90h-211l62 316h667l-35 -193l-206 -188q75 -30 120 -85.5t45 -121.5q0 -60 -29 -120 t-79.5 -109t-129 -80t-169.5 -31q-71 0 -132 14.5t-98.5 35t-64.5 41.5t-38 35z" />
<glyph unicode="&#xb4;" horiz-adv-x="976" d="M29 1565l295 329h428l-385 -329h-338z" />
<glyph unicode="&#xb6;" horiz-adv-x="1439" d="M233 930q0 111 45 211t124.5 173t193 116t244.5 43h786l-72 -369h-524l-235 -1206h-291l119 596q-73 0 -143.5 33t-125 89.5t-88 139t-33.5 174.5zM922 -102l217 1112h288l-217 -1112h-288z" />
<glyph unicode="&#xb7;" horiz-adv-x="626" d="M203 414l76 391h376l-73 -391h-379z" />
<glyph unicode="&#xb8;" horiz-adv-x="976" d="M82 -475l31 174q45 -18 104 -18q102 0 102 55q0 45 -102 45h-57l157 285l162 -41l-4 -15l-61 -106q75 -5 125.5 -48.5t50.5 -109.5q0 -65 -34 -114t-89.5 -75.5t-115.5 -39.5t-122 -13q-33 0 -69.5 5t-57.5 11z" />
<glyph unicode="&#xb9;" horiz-adv-x="819" d="M252 866l45 236h199l43 225q3 14 9 31t10 27l5 10h-4q-27 -29 -45 -43l-53 -33l-137 188l348 267h260l-129 -672h203l-45 -236h-709z" />
<glyph unicode="&#xba;" horiz-adv-x="940" d="M217 551l37 180h717l-37 -180h-717zM303 1096q0 115 63 207.5t160.5 141t206.5 48.5q152 0 249 -83t97 -222q0 -114 -63.5 -207t-161 -141.5t-205.5 -48.5q-151 0 -248.5 83.5t-97.5 221.5zM594 1114q0 -36 22 -56t56 -20q46 0 81 33.5t35 93.5q0 37 -21.5 59.5 t-53.5 22.5q-43 0 -81 -37.5t-38 -95.5z" />
<glyph unicode="&#xbb;" horiz-adv-x="1452" d="M86 158l473 438l-268 403h371l268 -417l-443 -424h-401zM735 158l414 438l-268 403h372l269 -417l-392 -424h-395z" />
<glyph unicode="&#xbc;" horiz-adv-x="2203" d="M229 565l45 236h199l43 225q3 14 9 31t11 27l5 10h-4q-27 -29 -45 -43l-54 -33l-137 188l348 267h260l-129 -672h203l-45 -236h-709zM608 0l973 1473h303l-973 -1473h-303zM1372 172l33 193l420 542h381l-101 -516h101l-41 -219h-101l-32 -172h-303l34 172h-391z M1665 391h139l39 197q4 21 12.5 48t14.5 44l6 16h-8q-31 -61 -60 -102l-143 -199v-4z" />
<glyph unicode="&#xbd;" horiz-adv-x="2199" d="M225 565l45 236h199l43 225q3 14 9 31t11 27l5 10h-5q-27 -29 -45 -43l-53 -33l-137 188l348 267h260l-129 -672h203l-45 -236h-709zM614 0l973 1473h303l-972 -1473h-304zM1389 0q0 98 27.5 179t72 133t98 93t106.5 67.5t97.5 48.5t72 44t27.5 45q0 37 -53 37 q-35 0 -75.5 -20.5t-63.5 -40.5l-23 -21l-178 180q7 7 19 19.5t52.5 44t83.5 55.5t107 44t127 20q56 0 111 -15.5t104 -46t79 -83.5t30 -121q0 -57 -24.5 -106.5t-64 -85t-87.5 -66t-95.5 -53t-87.5 -42t-65 -38t-25 -35.5h199l14 79h211l-59 -315h-737z" />
<glyph unicode="&#xbe;" horiz-adv-x="2172" d="M211 686l178 205q2 -3 6.5 -7.5t20 -16t33 -20.5t45.5 -16.5t59 -7.5q44 0 69 17t25 43q0 35 -92 35h-59l-13 122l162 158q9 11 23 23.5t24 18.5l10 7v8q-40 -8 -73 -8h-90l-19 -90h-211l62 316h667l-34 -193l-207 -188q75 -30 120.5 -85.5t45.5 -121.5q0 -60 -29 -120 t-80 -109t-129.5 -80t-169.5 -31q-71 0 -132 14.5t-98.5 35.5t-64.5 41.5t-38 35.5zM590 0l973 1473h303l-973 -1473h-303zM1354 172l32 193l420 542h381l-100 -516h100l-41 -219h-100l-33 -172h-303l35 172h-391zM1647 391h139l39 197q4 21 12.5 48t14.5 44l6 16h-9 q-30 -61 -59 -102l-143 -199v-4z" />
<glyph unicode="&#xbf;" horiz-adv-x="1114" d="M84 -41q0 73 23 137.5t60.5 110.5t83 85.5t92.5 70.5t86 57.5t66.5 54t32.5 53.5l11 58h409l-16 -94q-11 -66 -46 -123t-79 -94.5t-93 -73t-89 -61t-66.5 -55.5t-26.5 -60q0 -31 27 -50.5t62 -19.5q43 0 91 22.5t74 44.5l27 23l197 -311q-8 -7 -23 -18t-63 -39t-99 -50 t-126.5 -39.5t-149.5 -17.5q-87 0 -168.5 25t-148.5 71.5t-107.5 122.5t-40.5 170zM578 707l67 356h379l-68 -356h-378z" />
<glyph unicode="&#xc0;" horiz-adv-x="1507" d="M20 0l60 315h110l596 1158h506l146 -1158h110l-59 -315h-653l61 315h115l-2 136h-314l-55 -136h115l-64 -315h-672zM670 1894h395l168 -329h-305zM817 741h178l-6 203q-2 47 -2 96.5t1 75.5l1 25h-10q-25 -91 -72 -197z" />
<glyph unicode="&#xc1;" horiz-adv-x="1511" d="M23 0l59 315h111l595 1158h506l146 -1158h110l-59 -315h-653l61 315h115l-2 136h-314l-55 -136h115l-64 -315h-671zM819 741h178l-6 203q-2 47 -2 96.5t1 75.5l1 25h-10q-25 -91 -72 -197zM854 1565l295 329h428l-385 -329h-338z" />
<glyph unicode="&#xc2;" horiz-adv-x="1511" d="M23 0l59 315h111l595 1158h506l146 -1158h110l-59 -315h-653l61 315h115l-2 136h-314l-55 -136h115l-64 -315h-671zM625 1565l278 329h406l147 -329h-311l-60 170h-4l-123 -170h-333zM819 741h178l-6 203q-2 47 -2 96.5t1 75.5l1 25h-10q-25 -91 -72 -197z" />
<glyph unicode="&#xc3;" horiz-adv-x="1511" d="M23 0l59 315h111l595 1158h506l146 -1158h110l-59 -315h-653l61 315h115l-2 136h-314l-55 -136h115l-64 -315h-671zM627 1563q31 158 115 248t204 90q42 0 75 -12t52.5 -28.5t36 -33.5t35 -29t39.5 -12q64 0 82 108h270q-28 -156 -112.5 -247t-202.5 -91q-50 0 -89 18.5 t-59 40t-44.5 40t-49.5 18.5q-60 0 -84 -110h-268zM819 741h178l-6 203q-2 47 -2 96.5t1 75.5l1 25h-10q-25 -91 -72 -197z" />
<glyph unicode="&#xc4;" horiz-adv-x="1511" d="M23 0l59 315h111l595 1158h506l146 -1158h110l-59 -315h-653l61 315h115l-2 136h-314l-55 -136h115l-64 -315h-671zM639 1569l66 325h299l-64 -325h-301zM819 741h178l-6 203q-2 47 -2 96.5t1 75.5l1 25h-10q-25 -91 -72 -197zM1165 1569l64 325h301l-64 -325h-301z" />
<glyph unicode="&#xc5;" horiz-adv-x="1511" d="M23 0l59 315h111l595 1158h506l146 -1158h110l-59 -315h-653l61 315h115l-2 136h-314l-55 -136h115l-64 -315h-671zM819 741h178l-6 203q-2 47 -2 96.5t1 75.5l1 25h-10q-25 -91 -72 -197zM834 1692q0 54 24.5 96t65.5 66t86.5 35.5t93.5 11.5q92 0 157.5 -40.5 t65.5 -121.5q0 -52 -26 -93t-68 -63.5t-87.5 -33.5t-90.5 -11q-92 0 -156.5 39t-64.5 115zM1010 1700q0 -53 57 -53q34 0 60 25t26 61q0 26 -15.5 41.5t-43.5 15.5q-35 0 -59.5 -25t-24.5 -65z" />
<glyph unicode="&#xc6;" horiz-adv-x="2117" d="M27 0l59 315h104l506 842h-129l62 316h1661l-92 -478h-343l27 135h-211l-43 -217h377l-70 -344h-374l-45 -227h233l25 135h342l-93 -477h-1175l59 315h162l51 263h-327l-148 -263h129l-59 -315h-688zM975 897h207l47 233h-119z" />
<glyph unicode="&#xc7;" horiz-adv-x="1505" d="M197 633q0 174 69 332.5t186.5 275.5t284.5 186.5t353 69.5q68 0 143.5 -8.5t158.5 -29.5t146 -52t98.5 -82.5t22.5 -114.5l-51 -266h-387l18 103q17 81 -158 81q-87 0 -160.5 -31t-121.5 -80.5t-82 -113t-49 -127t-15 -123.5q0 -63 15.5 -117t47.5 -98t88 -69t132 -25 q77 0 121.5 17t52.5 63l20 104h392l-43 -239q-13 -72 -58.5 -128.5t-105.5 -90.5t-135 -56t-142 -30.5t-133 -8.5h-24l-43 -71q76 -5 126 -48.5t50 -109.5q0 -65 -33.5 -114t-89 -75.5t-115 -39.5t-121.5 -13q-34 0 -70.5 5t-56.5 11l-20 5l31 174q43 -18 104 -18 q102 0 102 55q0 45 -102 45h-57l119 217q-231 55 -369.5 225.5t-138.5 409.5z" />
<glyph unicode="&#xc8;" horiz-adv-x="1380" d="M102 0l62 315h153l164 842h-155l61 316h1165l-92 -478h-366l26 135h-202l-41 -217h389l-68 -344h-389l-45 -227h221l27 131h366l-90 -473h-1186zM651 1894h396l167 -329h-305z" />
<glyph unicode="&#xc9;" horiz-adv-x="1380" d="M102 0l62 315h153l164 842h-155l61 316h1165l-92 -478h-366l26 135h-202l-41 -217h389l-68 -344h-389l-45 -227h221l27 131h366l-90 -473h-1186zM831 1565l295 329h428l-385 -329h-338z" />
<glyph unicode="&#xca;" horiz-adv-x="1380" d="M102 0l62 315h153l164 842h-155l61 316h1165l-92 -478h-366l26 135h-202l-41 -217h389l-68 -344h-389l-45 -227h221l27 131h366l-90 -473h-1186zM604 1565l279 329h405l148 -329h-312l-59 170h-4l-123 -170h-334z" />
<glyph unicode="&#xcb;" horiz-adv-x="1380" d="M102 0l62 315h153l164 842h-155l61 316h1165l-92 -478h-366l26 135h-202l-41 -217h389l-68 -344h-389l-45 -227h221l27 131h366l-90 -473h-1186zM618 1569l66 325h299l-63 -325h-302zM1145 1569l63 325h301l-63 -325h-301z" />
<glyph unicode="&#xcc;" horiz-adv-x="956" d="M102 0l62 315h153l162 842h-153l61 316h754l-62 -316h-157l-162 -842h155l-61 -315h-752zM399 1894h396l168 -329h-306z" />
<glyph unicode="&#xcd;" horiz-adv-x="956" d="M102 0l62 315h153l162 842h-153l61 316h754l-62 -316h-157l-162 -842h155l-61 -315h-752zM582 1565l295 329h428l-385 -329h-338z" />
<glyph unicode="&#xce;" horiz-adv-x="956" d="M102 0l62 315h153l162 842h-153l61 316h754l-62 -316h-157l-162 -842h155l-61 -315h-752zM352 1565l279 329h405l148 -329h-312l-59 170h-4l-123 -170h-334z" />
<glyph unicode="&#xcf;" horiz-adv-x="956" d="M102 0l62 315h153l162 842h-153l61 316h754l-62 -316h-157l-162 -842h155l-61 -315h-752zM369 1569l65 325h299l-63 -325h-301zM895 1569l63 325h302l-64 -325h-301z" />
<glyph unicode="&#xd0;" horiz-adv-x="1617" d="M102 0l62 315h153l48 240h-140l68 342h137l51 260h-155l61 316h627q327 0 511.5 -155t184.5 -431q0 -245 -108 -447t-306 -321t-446 -119h-748zM766 342h80q126 0 223 69.5t147 183.5t50 251q0 138 -70.5 211t-200.5 73h-80l-43 -233h195l-66 -342h-194z" />
<glyph unicode="&#xd1;" horiz-adv-x="1779" d="M102 0l62 315h153l164 842h-155l61 316h592l221 -670q11 -32 20 -73t12 -66l3 -25h10q9 102 23 178l67 340h-166l60 316h764l-60 -316h-155l-226 -1157h-436l-227 668q-10 30 -19 70t-12 64l-4 25h-10q-7 -100 -21 -176l-63 -336h166l-62 -315h-762zM772 1563 q31 158 115 248t205 90q51 0 89.5 -18t57 -39.5t42 -39.5t48.5 -18q64 0 82 108h270q-28 -156 -112.5 -247t-202.5 -91q-50 0 -89 18.5t-59 40t-44.5 40t-49.5 18.5q-60 0 -84 -110h-268z" />
<glyph unicode="&#xd2;" horiz-adv-x="1671" d="M197 639q0 170 71 328.5t189.5 274.5t280.5 185.5t337 69.5q202 0 359.5 -83.5t244 -231t86.5 -334.5q0 -139 -46.5 -272t-130 -240.5t-193 -189t-242 -126.5t-270.5 -45q-306 0 -496 186.5t-190 477.5zM641 666q0 -139 74 -224.5t194 -85.5q74 0 148 36t132 96t94 147.5 t36 183.5q0 134 -75.5 215.5t-196.5 81.5q-76 0 -149.5 -35t-130.5 -94t-91.5 -143.5t-34.5 -177.5zM758 1894h395l168 -329h-305z" />
<glyph unicode="&#xd3;" horiz-adv-x="1671" d="M197 639q0 170 71 328.5t189.5 274.5t280.5 185.5t337 69.5q202 0 359.5 -83.5t244 -231t86.5 -334.5q0 -139 -46.5 -272t-130 -240.5t-193 -189t-242 -126.5t-270.5 -45q-306 0 -496 186.5t-190 477.5zM641 666q0 -139 74 -224.5t194 -85.5q74 0 148 36t132 96t94 147.5 t36 183.5q0 134 -75.5 215.5t-196.5 81.5q-76 0 -149.5 -35t-130.5 -94t-91.5 -143.5t-34.5 -177.5zM940 1565l295 329h428l-385 -329h-338z" />
<glyph unicode="&#xd4;" horiz-adv-x="1671" d="M197 639q0 170 71 328.5t189.5 274.5t280.5 185.5t337 69.5q202 0 359.5 -83.5t244 -231t86.5 -334.5q0 -139 -46.5 -272t-130 -240.5t-193 -189t-242 -126.5t-270.5 -45q-306 0 -496 186.5t-190 477.5zM641 666q0 -139 74 -224.5t194 -85.5q74 0 148 36t132 96t94 147.5 t36 183.5q0 134 -75.5 215.5t-196.5 81.5q-76 0 -149.5 -35t-130.5 -94t-91.5 -143.5t-34.5 -177.5zM711 1565l278 329h406l147 -329h-311l-60 170h-4l-123 -170h-333z" />
<glyph unicode="&#xd5;" horiz-adv-x="1671" d="M197 639q0 170 71 328.5t189.5 274.5t280.5 185.5t337 69.5q202 0 359.5 -83.5t244 -231t86.5 -334.5q0 -139 -46.5 -272t-130 -240.5t-193 -189t-242 -126.5t-270.5 -45q-306 0 -496 186.5t-190 477.5zM641 666q0 -139 74 -224.5t194 -85.5q74 0 148 36t132 96t94 147.5 t36 183.5q0 134 -75.5 215.5t-196.5 81.5q-76 0 -149.5 -35t-130.5 -94t-91.5 -143.5t-34.5 -177.5zM715 1563q31 158 115 248t204 90q42 0 75 -12t52.5 -28.5t36 -33.5t35 -29t39.5 -12q64 0 82 108h270q-28 -156 -112.5 -247t-202.5 -91q-50 0 -89 18.5t-59 40t-44.5 40 t-49.5 18.5q-60 0 -84 -110h-268z" />
<glyph unicode="&#xd6;" horiz-adv-x="1671" d="M197 639q0 170 71 328.5t189.5 274.5t280.5 185.5t337 69.5q202 0 359.5 -83.5t244 -231t86.5 -334.5q0 -139 -46.5 -272t-130 -240.5t-193 -189t-242 -126.5t-270.5 -45q-306 0 -496 186.5t-190 477.5zM641 666q0 -139 74 -224.5t194 -85.5q74 0 148 36t132 96t94 147.5 t36 183.5q0 134 -75.5 215.5t-196.5 81.5q-76 0 -149.5 -35t-130.5 -94t-91.5 -143.5t-34.5 -177.5zM727 1569l66 325h299l-64 -325h-301zM1253 1569l64 325h301l-64 -325h-301z" />
<glyph unicode="&#xd7;" d="M201 223l348 367l-348 368l223 224l342 -359l344 359l225 -224l-352 -368l352 -367l-225 -223l-344 358l-342 -358z" />
<glyph unicode="&#xd8;" horiz-adv-x="1671" d="M197 639q0 170 71 328.5t189.5 274.5t280.5 185.5t337 69.5q225 0 389 -102l123 131l129 -115l-117 -125q166 -180 166 -438q0 -139 -46.5 -272t-130 -240.5t-193 -189t-242 -126.5t-270.5 -45q-234 0 -402 111l-135 -145l-129 116l133 144q-153 180 -153 438zM641 666 q0 -72 21 -131l514 550q-57 31 -129 31q-76 0 -149.5 -35t-130.5 -94t-91.5 -143.5t-34.5 -177.5zM768 395q59 -39 141 -39q74 0 148 36t132 96t94 147.5t36 183.5q0 68 -27 137z" />
<glyph unicode="&#xd9;" horiz-adv-x="1703" d="M274 1157l62 316h749l-61 -316h-152l-116 -608q-4 -28 -4 -43q0 -150 170 -150q201 0 237 193l117 608h-152l60 316h749l-59 -316h-156l-119 -616q-50 -263 -228 -414.5t-451 -151.5q-100 0 -190 17.5t-168 55.5t-135 93.5t-89.5 136.5t-32.5 179q0 57 12 118l113 582 h-156zM776 1894h395l168 -329h-305z" />
<glyph unicode="&#xda;" horiz-adv-x="1703" d="M274 1157l62 316h749l-61 -316h-152l-116 -608q-4 -28 -4 -43q0 -150 170 -150q201 0 237 193l117 608h-152l60 316h749l-59 -316h-156l-119 -616q-50 -263 -228 -414.5t-451 -151.5q-100 0 -190 17.5t-168 55.5t-135 93.5t-89.5 136.5t-32.5 179q0 57 12 118l113 582 h-156zM958 1565l295 329h428l-385 -329h-338z" />
<glyph unicode="&#xdb;" horiz-adv-x="1703" d="M274 1157l62 316h749l-61 -316h-152l-116 -608q-4 -28 -4 -43q0 -150 170 -150q201 0 237 193l117 608h-152l60 316h749l-59 -316h-156l-119 -616q-50 -263 -228 -414.5t-451 -151.5q-100 0 -190 17.5t-168 55.5t-135 93.5t-89.5 136.5t-32.5 179q0 57 12 118l113 582 h-156zM729 1565l279 329h405l148 -329h-312l-59 170h-4l-123 -170h-334z" />
<glyph unicode="&#xdc;" horiz-adv-x="1703" d="M274 1157l62 316h749l-61 -316h-152l-116 -608q-4 -28 -4 -43q0 -150 170 -150q201 0 237 193l117 608h-152l60 316h749l-59 -316h-156l-119 -616q-50 -263 -228 -414.5t-451 -151.5q-100 0 -190 17.5t-168 55.5t-135 93.5t-89.5 136.5t-32.5 179q0 57 12 118l113 582 h-156zM745 1569l66 325h299l-63 -325h-302zM1272 1569l63 325h301l-63 -325h-301z" />
<glyph unicode="&#xdd;" horiz-adv-x="1396" d="M246 1157l61 316h611l-60 -316h-82l58 -184l20 -78h4q16 31 49 78l129 184h-80l60 316h645l-62 -316h-118l-447 -563l-55 -279h156l-60 -315h-753l59 315h156l55 279l-227 563h-119zM815 1565l295 329h428l-385 -329h-338z" />
<glyph unicode="&#xde;" horiz-adv-x="1402" d="M102 0l60 315h155l162 842h-155l61 316h754l-62 -316h-166l-16 -90h250q195 0 295 -76t100 -209q0 -173 -135.5 -278t-366.5 -105h-272l-16 -84h165l-61 -315h-752zM817 666h139q79 0 109.5 19.5t30.5 57.5q0 29 -23 43.5t-82 14.5h-147z" />
<glyph unicode="&#xdf;" horiz-adv-x="1357" d="M133 0l213 1098q24 128 114 220.5t209.5 135.5t254.5 43q134 0 243.5 -43.5t177.5 -131.5t68 -206q0 -61 -18.5 -111t-45.5 -82.5t-54 -59.5t-45.5 -55t-18.5 -56q0 -25 16.5 -53t40 -56.5t47 -62t40 -82t16.5 -103.5q0 -116 -66 -210t-180 -146.5t-252 -52.5 q-56 0 -113.5 8.5t-87.5 17.5l-30 8l69 338q69 -20 143 -20q91 0 91 59q0 28 -17 56.5t-41.5 55.5t-49 58t-41.5 75t-17 95q0 54 19 102t46.5 81.5t55 62t46.5 55t19 49.5q0 58 -94 58q-108 0 -127 -98l-203 -1047h-428z" />
<glyph unicode="&#xe0;" horiz-adv-x="1216" d="M92 250q0 87 45.5 157t116 113t162.5 71.5t179 40t171 11.5q10 37 10 64q0 53 -104 53q-57 0 -135 -24t-127 -48l-50 -24l-81 303q10 5 27.5 13t71.5 28.5t108 36.5t129.5 29t142.5 13q56 0 111.5 -8t116.5 -31.5t106.5 -59.5t75.5 -97.5t30 -140.5q0 -66 -30.5 -201.5 t-30.5 -179.5q0 -66 73 -66l35 2l-59 -305q-21 -6 -152 -6q-9 0 -32.5 -0.5t-35.5 -0.5t-35.5 1.5t-38 4t-36 8t-35.5 13.5t-31.5 20t-29.5 28t-23.5 38t-19.5 48h-4q-5 -7 -14.5 -18.5t-42 -41t-68 -52.5t-91 -41.5t-112.5 -18.5q-120 0 -206.5 72t-86.5 196zM420 1473h395 l168 -330h-305zM502 326q0 -33 19 -49.5t44 -16.5q47 0 90.5 44t63.5 112l10 37h-33q-21 0 -50 -5.5t-63.5 -18.5t-57.5 -40t-23 -63z" />
<glyph unicode="&#xe1;" horiz-adv-x="1216" d="M92 250q0 87 45.5 157t116 113t162.5 71.5t179 40t171 11.5q10 37 10 64q0 53 -104 53q-57 0 -135 -24t-127 -48l-50 -24l-81 303q10 5 27.5 13t71.5 28.5t108 36.5t129.5 29t142.5 13q56 0 111.5 -8t116.5 -31.5t106.5 -59.5t75.5 -97.5t30 -140.5q0 -66 -30.5 -201.5 t-30.5 -179.5q0 -66 73 -66l35 2l-59 -305q-21 -6 -152 -6q-9 0 -32.5 -0.5t-35.5 -0.5t-35.5 1.5t-38 4t-36 8t-35.5 13.5t-31.5 20t-29.5 28t-23.5 38t-19.5 48h-4q-5 -7 -14.5 -18.5t-42 -41t-68 -52.5t-91 -41.5t-112.5 -18.5q-120 0 -206.5 72t-86.5 196zM502 326 q0 -33 19 -49.5t44 -16.5q47 0 90.5 44t63.5 112l10 37h-33q-21 0 -50 -5.5t-63.5 -18.5t-57.5 -40t-23 -63zM600 1143l295 330h428l-385 -330h-338z" />
<glyph unicode="&#xe2;" horiz-adv-x="1216" d="M92 250q0 87 45.5 157t116 113t162.5 71.5t179 40t171 11.5q10 37 10 64q0 53 -104 53q-57 0 -135 -24t-127 -48l-50 -24l-81 303q10 5 27.5 13t71.5 28.5t108 36.5t129.5 29t142.5 13q56 0 111.5 -8t116.5 -31.5t106.5 -59.5t75.5 -97.5t30 -140.5q0 -66 -30.5 -201.5 t-30.5 -179.5q0 -66 73 -66l35 2l-59 -305q-21 -6 -152 -6q-9 0 -32.5 -0.5t-35.5 -0.5t-35.5 1.5t-38 4t-36 8t-35.5 13.5t-31.5 20t-29.5 28t-23.5 38t-19.5 48h-4q-5 -7 -14.5 -18.5t-42 -41t-68 -52.5t-91 -41.5t-112.5 -18.5q-120 0 -206.5 72t-86.5 196zM373 1143 l278 330h406l147 -330h-311l-59 170h-5l-122 -170h-334zM502 326q0 -33 19 -49.5t44 -16.5q47 0 90.5 44t63.5 112l10 37h-33q-21 0 -50 -5.5t-63.5 -18.5t-57.5 -40t-23 -63z" />
<glyph unicode="&#xe3;" horiz-adv-x="1216" d="M92 250q0 87 45.5 157t116 113t162.5 71.5t179 40t171 11.5q10 37 10 64q0 53 -104 53q-57 0 -135 -24t-127 -48l-50 -24l-81 303q10 5 27.5 13t71.5 28.5t108 36.5t129.5 29t142.5 13q56 0 111.5 -8t116.5 -31.5t106.5 -59.5t75.5 -97.5t30 -140.5q0 -66 -30.5 -201.5 t-30.5 -179.5q0 -66 73 -66l35 2l-59 -305q-21 -6 -152 -6q-9 0 -32.5 -0.5t-35.5 -0.5t-35.5 1.5t-38 4t-36 8t-35.5 13.5t-31.5 20t-29.5 28t-23.5 38t-19.5 48h-4q-5 -7 -14.5 -18.5t-42 -41t-68 -52.5t-91 -41.5t-112.5 -18.5q-120 0 -206.5 72t-86.5 196zM375 1141 q31 158 115 248t204 90q42 0 75 -12t52.5 -28.5t36 -33.5t35 -29t39.5 -12q64 0 82 109h270q-28 -156 -112.5 -247t-202.5 -91q-41 0 -74 12t-53.5 29t-38 34t-36.5 29t-40 12q-60 0 -84 -110h-268zM502 326q0 -33 19 -49.5t44 -16.5q47 0 90.5 44t63.5 112l10 37h-33 q-21 0 -50 -5.5t-63.5 -18.5t-57.5 -40t-23 -63z" />
<glyph unicode="&#xe4;" horiz-adv-x="1216" d="M92 250q0 87 45.5 157t116 113t162.5 71.5t179 40t171 11.5q10 37 10 64q0 53 -104 53q-57 0 -135 -24t-127 -48l-50 -24l-81 303q10 5 27.5 13t71.5 28.5t108 36.5t129.5 29t142.5 13q56 0 111.5 -8t116.5 -31.5t106.5 -59.5t75.5 -97.5t30 -140.5q0 -66 -30.5 -201.5 t-30.5 -179.5q0 -66 73 -66l35 2l-59 -305q-21 -6 -152 -6q-9 0 -32.5 -0.5t-35.5 -0.5t-35.5 1.5t-38 4t-36 8t-35.5 13.5t-31.5 20t-29.5 28t-23.5 38t-19.5 48h-4q-5 -7 -14.5 -18.5t-42 -41t-68 -52.5t-91 -41.5t-112.5 -18.5q-120 0 -206.5 72t-86.5 196zM387 1147 l66 326h299l-64 -326h-301zM502 326q0 -33 19 -49.5t44 -16.5q47 0 90.5 44t63.5 112l10 37h-33q-21 0 -50 -5.5t-63.5 -18.5t-57.5 -40t-23 -63zM913 1147l64 326h301l-64 -326h-301z" />
<glyph unicode="&#xe5;" horiz-adv-x="1216" d="M92 250q0 87 45.5 157t116 113t162.5 71.5t179 40t171 11.5q10 37 10 64q0 53 -104 53q-57 0 -135 -24t-127 -48l-50 -24l-81 303q10 5 27.5 13t71.5 28.5t108 36.5t129.5 29t142.5 13q56 0 111.5 -8t116.5 -31.5t106.5 -59.5t75.5 -97.5t30 -140.5q0 -66 -30.5 -201.5 t-30.5 -179.5q0 -66 73 -66l35 2l-59 -305q-21 -6 -152 -6q-9 0 -32.5 -0.5t-35.5 -0.5t-35.5 1.5t-38 4t-36 8t-35.5 13.5t-31.5 20t-29.5 28t-23.5 38t-19.5 48h-4q-5 -7 -14.5 -18.5t-42 -41t-68 -52.5t-91 -41.5t-112.5 -18.5q-120 0 -206.5 72t-86.5 196zM502 326 q0 -33 19 -49.5t44 -16.5q47 0 90.5 44t63.5 112l10 37h-33q-21 0 -50 -5.5t-63.5 -18.5t-57.5 -40t-23 -63zM582 1270q0 54 24.5 96t65.5 66t86.5 35.5t93.5 11.5q92 0 157.5 -40.5t65.5 -121.5q0 -52 -26 -93t-68 -63.5t-87.5 -33.5t-90.5 -11q-92 0 -156.5 39t-64.5 115z M758 1278q0 -53 57 -53q34 0 60 25t26 61q0 26 -15.5 41.5t-43.5 15.5q-35 0 -59.5 -25t-24.5 -65z" />
<glyph unicode="&#xe6;" horiz-adv-x="1736" d="M96 283q0 84 46.5 150t117 104.5t162 64t171 34.5t155.5 9h16q10 64 -19.5 89.5t-93.5 25.5q-68 0 -141 -21.5t-112 -42.5l-40 -22l-88 293q10 5 28 13t72 28.5t108 36.5t127.5 29t137.5 13q84 0 156.5 -20.5t140.5 -77.5h4q77 56 142 77t155 21q216 0 339.5 -117 t123.5 -296q0 -53 -11 -106.5t-21 -81.5l-11 -27h-633q2 -59 58 -101.5t137 -42.5q60 0 132.5 25.5t115.5 50.5l43 25l104 -303q-7 -6 -21 -15t-60.5 -33t-96 -42t-124.5 -33t-150 -15q-130 0 -242.5 41.5t-189.5 112.5h-5q-6 -10 -20 -25t-45 -37.5t-68.5 -41t-95.5 -32 t-121 -13.5q-165 0 -274 84.5t-109 218.5zM506 326q0 -33 19 -49.5t44 -16.5q47 0 90.5 44t63.5 112l10 37h-33q-21 0 -50 -5.5t-63.5 -18.5t-57.5 -40t-23 -63zM1184 651h205q4 37 4 60q0 90 -76 90q-94 0 -133 -150z" />
<glyph unicode="&#xe7;" horiz-adv-x="1196" d="M135 457q0 86 28 174t86.5 170t139 145.5t195 102t245.5 38.5q64 0 127.5 -8.5t130.5 -30.5t115 -55.5t72.5 -89t11.5 -125.5l-33 -162h-358l10 52q7 29 -18 48t-84 19q-62 0 -110.5 -25.5t-75 -65t-39.5 -79.5t-13 -76q0 -30 8 -55.5t28 -51.5t60.5 -41t98.5 -15 q50 0 102 11.5t90.5 28t70 33t47.5 27.5l17 12l107 -309q-7 -6 -20 -16.5t-59 -37t-97 -47t-133.5 -37t-169.5 -16.5h-37l-43 -71q76 -5 126 -48.5t50 -109.5q0 -65 -33.5 -114t-88.5 -75.5t-115 -39.5t-123 -13q-33 0 -70 5t-57 11l-21 5l33 174q43 -18 102 -18 q105 0 105 55q0 45 -103 45h-59l121 219q-180 49 -273.5 174t-93.5 283z" />
<glyph unicode="&#xe8;" horiz-adv-x="1165" d="M143 477q0 166 80.5 306t224 222t318.5 82q217 0 341 -116.5t124 -298.5q0 -50 -10.5 -101.5t-20.5 -77.5l-10 -26h-621q-1 -72 43.5 -106.5t118.5 -34.5q67 0 144 25t121 50l44 25l107 -313q-7 -6 -21 -15t-60 -33t-96 -42t-128 -33t-158 -15q-134 0 -239 39.5 t-170 108.5t-98.5 159t-33.5 195zM434 1473h395l168 -330h-305zM608 651h205q4 37 4 60q0 90 -76 90q-94 0 -133 -150z" />
<glyph unicode="&#xe9;" horiz-adv-x="1165" d="M143 477q0 166 80.5 306t224 222t318.5 82q217 0 341 -116.5t124 -298.5q0 -50 -10.5 -101.5t-20.5 -77.5l-10 -26h-621q-1 -72 43.5 -106.5t118.5 -34.5q67 0 144 25t121 50l44 25l107 -313q-7 -6 -21 -15t-60 -33t-96 -42t-128 -33t-158 -15q-134 0 -239 39.5 t-170 108.5t-98.5 159t-33.5 195zM608 651h205q4 37 4 60q0 90 -76 90q-94 0 -133 -150zM616 1143l295 330h428l-385 -330h-338z" />
<glyph unicode="&#xea;" horiz-adv-x="1165" d="M143 477q0 166 80.5 306t224 222t318.5 82q217 0 341 -116.5t124 -298.5q0 -50 -10.5 -101.5t-20.5 -77.5l-10 -26h-621q-1 -72 43.5 -106.5t118.5 -34.5q67 0 144 25t121 50l44 25l107 -313q-7 -6 -21 -15t-60 -33t-96 -42t-128 -33t-158 -15q-134 0 -239 39.5 t-170 108.5t-98.5 159t-33.5 195zM389 1143l279 330h405l148 -330h-312l-59 170h-4l-123 -170h-334zM608 651h205q4 37 4 60q0 90 -76 90q-94 0 -133 -150z" />
<glyph unicode="&#xeb;" horiz-adv-x="1165" d="M143 477q0 166 80.5 306t224 222t318.5 82q217 0 341 -116.5t124 -298.5q0 -50 -10.5 -101.5t-20.5 -77.5l-10 -26h-621q-1 -72 43.5 -106.5t118.5 -34.5q67 0 144 25t121 50l44 25l107 -313q-7 -6 -21 -15t-60 -33t-96 -42t-128 -33t-158 -15q-134 0 -239 39.5 t-170 108.5t-98.5 159t-33.5 195zM403 1147l66 326h299l-63 -326h-302zM608 651h205q4 37 4 60q0 90 -76 90q-94 0 -133 -150zM930 1147l63 326h301l-63 -326h-301z" />
<glyph unicode="&#xec;" horiz-adv-x="784" d="M190 760l58 303h557l-121 -625q-8 -36 -8 -69q0 -66 74 -66l32 2l-57 -305q-53 -8 -121 -8q-48 0 -81 1.5t-75 7.5t-70.5 16.5t-58 30t-47 47.5t-28.5 69t-11 94q0 60 19 150l67 352h-129zM225 1473h396l167 -330h-305z" />
<glyph unicode="&#xed;" horiz-adv-x="784" d="M190 760l58 303h557l-121 -625q-8 -36 -8 -69q0 -66 74 -66l32 2l-57 -305q-53 -8 -121 -8q-48 0 -81 1.5t-75 7.5t-70.5 16.5t-58 30t-47 47.5t-28.5 69t-11 94q0 60 19 150l67 352h-129zM408 1143l294 330h428l-385 -330h-337z" />
<glyph unicode="&#xee;" horiz-adv-x="784" d="M178 1143l279 330h405l148 -330h-312l-59 170h-4l-123 -170h-334zM190 760l58 303h557l-121 -625q-8 -36 -8 -69q0 -66 74 -66l32 2l-57 -305q-53 -8 -121 -8q-48 0 -81 1.5t-75 7.5t-70.5 16.5t-58 30t-47 47.5t-28.5 69t-11 94q0 60 19 150l67 352h-129z" />
<glyph unicode="&#xef;" horiz-adv-x="784" d="M190 760l58 303h557l-121 -625q-8 -36 -8 -69q0 -66 74 -66l32 2l-57 -305q-53 -8 -121 -8q-48 0 -81 1.5t-75 7.5t-70.5 16.5t-58 30t-47 47.5t-28.5 69t-11 94q0 60 19 150l67 352h-129zM223 1147l66 326h299l-64 -326h-301zM688 1147l64 326h301l-64 -326h-301z" />
<glyph unicode="&#xf0;" horiz-adv-x="1243" d="M147 424q0 99 42 193.5t115.5 167.5t181.5 118t231 45q24 0 53.5 -4.5t46.5 -9.5l17 -4q-54 83 -103 112l-457 -168l58 236l182 64q-92 44 -156 53l172 303q262 -68 431 -191l411 150l-55 -234l-191 -69q162 -202 162 -479q0 -89 -20 -184.5t-68 -194.5t-117 -176.5 t-177.5 -127t-239.5 -49.5q-125 0 -225 35.5t-163.5 97t-97 142.5t-33.5 174zM580 428q0 -48 19 -74t69 -26q75 0 123.5 63.5t48.5 143.5q0 92 -97 92q-46 0 -79.5 -18t-51 -48.5t-25 -63t-7.5 -69.5z" />
<glyph unicode="&#xf1;" horiz-adv-x="1464" d="M186 0l140 715q4 21 -6 33t-31 12h-84l57 303h383q64 0 98.5 -26t34.5 -74q0 -16 -3.5 -35.5t-6.5 -31.5l-4 -11h4q5 8 14.5 21.5t42.5 48.5t71 61.5t100.5 48.5t129.5 22q137 0 225.5 -78t88.5 -229q0 -73 -33 -224t-33 -187q0 -66 74 -66l35 2l-60 -305q-35 -6 -141 -6 q-41 0 -70.5 1.5t-68.5 7.5t-66.5 16.5t-56 30t-46 47.5t-29 69.5t-11.5 93.5q0 75 30.5 218.5t30.5 162.5q0 17 -4 28.5t-21 22t-48 10.5q-86 0 -142 -74.5t-80 -189.5l-88 -438h-426zM545 1141q31 158 115 248t204 90q42 0 75 -12t52.5 -28.5t36 -33.5t35 -29t39.5 -12 q64 0 82 109h270q-28 -156 -112.5 -247t-202.5 -91q-41 0 -74 12t-53.5 29t-38 34t-36.5 29t-40 12q-60 0 -84 -110h-268z" />
<glyph unicode="&#xf2;" d="M137 457q0 137 58 256.5t153.5 200.5t220 127t256.5 46q157 0 282 -58t197 -169t72 -256q0 -137 -58 -256.5t-154 -200t-220.5 -126.5t-257.5 -46q-156 0 -280 58t-196.5 168.5t-72.5 255.5zM496 1473h395l168 -330h-305zM569 477q0 -72 41 -110.5t107 -38.5q89 0 158 67 t69 183q0 74 -40.5 115.5t-104.5 41.5q-85 0 -157.5 -71.5t-72.5 -186.5z" />
<glyph unicode="&#xf3;" d="M137 457q0 137 58 256.5t153.5 200.5t220 127t256.5 46q157 0 282 -58t197 -169t72 -256q0 -137 -58 -256.5t-154 -200t-220.5 -126.5t-257.5 -46q-156 0 -280 58t-196.5 168.5t-72.5 255.5zM569 477q0 -72 41 -110.5t107 -38.5q89 0 158 67t69 183q0 74 -40.5 115.5 t-104.5 41.5q-85 0 -157.5 -71.5t-72.5 -186.5zM678 1143l295 330h428l-385 -330h-338z" />
<glyph unicode="&#xf4;" d="M137 457q0 137 58 256.5t153.5 200.5t220 127t256.5 46q157 0 282 -58t197 -169t72 -256q0 -137 -58 -256.5t-154 -200t-220.5 -126.5t-257.5 -46q-156 0 -280 58t-196.5 168.5t-72.5 255.5zM449 1143l278 330h406l147 -330h-311l-60 170h-4l-123 -170h-333zM569 477 q0 -72 41 -110.5t107 -38.5q89 0 158 67t69 183q0 74 -40.5 115.5t-104.5 41.5q-85 0 -157.5 -71.5t-72.5 -186.5z" />
<glyph unicode="&#xf5;" d="M137 457q0 137 58 256.5t153.5 200.5t220 127t256.5 46q157 0 282 -58t197 -169t72 -256q0 -137 -58 -256.5t-154 -200t-220.5 -126.5t-257.5 -46q-156 0 -280 58t-196.5 168.5t-72.5 255.5zM451 1141q31 158 115 248t204 90q42 0 75 -12t52.5 -28.5t36 -33.5t35 -29 t39.5 -12q64 0 82 109h270q-28 -156 -113 -247t-203 -91q-41 0 -73.5 12t-53.5 29t-38 34t-36 29t-40 12q-60 0 -84 -110h-268zM569 477q0 -72 41 -110.5t107 -38.5q89 0 158 67t69 183q0 74 -40.5 115.5t-104.5 41.5q-85 0 -157.5 -71.5t-72.5 -186.5z" />
<glyph unicode="&#xf6;" d="M137 457q0 137 58 256.5t153.5 200.5t220 127t256.5 46q157 0 282 -58t197 -169t72 -256q0 -137 -58 -256.5t-154 -200t-220.5 -126.5t-257.5 -46q-156 0 -280 58t-196.5 168.5t-72.5 255.5zM465 1147l65 326h299l-63 -326h-301zM569 477q0 -72 41 -110.5t107 -38.5 q89 0 158 67t69 183q0 74 -40.5 115.5t-104.5 41.5q-85 0 -157.5 -71.5t-72.5 -186.5zM991 1147l64 326h301l-64 -326h-301z" />
<glyph unicode="&#xf7;" d="M190 432v316h1158v-316h-1158zM596 -43v319h348v-319h-348zM596 905v320h348v-320h-348z" />
<glyph unicode="&#xf8;" d="M137 457q0 137 58 256.5t153.5 200.5t220 127t256.5 46q175 0 305 -71l123 131l101 -82l-117 -125q139 -130 139 -336q0 -137 -58 -256.5t-154 -200t-220.5 -126.5t-257.5 -46q-166 0 -295 66l-129 -137l-98 86l119 125q-146 133 -146 342zM569 477q0 -27 6 -51l281 299 q-30 10 -57 10q-85 0 -157.5 -71.5t-72.5 -186.5zM666 334q24 -6 51 -6q89 0 158 67t69 183q0 24 -6 45z" />
<glyph unicode="&#xf9;" horiz-adv-x="1460" d="M188 760l62 303h557l-115 -586q-10 -40 -10 -67q0 -31 13.5 -46.5t49.5 -15.5q74 0 137 77t81 173l30 162h-131l62 303h557l-123 -625q-8 -40 -8 -71t17 -48.5t65 -17.5l26 2l-57 -303q-5 -2 -84.5 -5t-128.5 -3q-53 0 -89.5 6.5t-74 26t-62 61.5t-36.5 107h-4 q-144 -218 -365 -218q-138 0 -229.5 77.5t-91.5 223.5q0 59 12 121l71 363h-131zM526 1473h396l168 -330h-306z" />
<glyph unicode="&#xfa;" horiz-adv-x="1460" d="M188 760l62 303h557l-115 -586q-10 -40 -10 -67q0 -31 13.5 -46.5t49.5 -15.5q74 0 137 77t81 173l30 162h-131l62 303h557l-123 -625q-8 -40 -8 -71t17 -48.5t65 -17.5l26 2l-57 -303q-5 -2 -84.5 -5t-128.5 -3q-53 0 -89.5 6.5t-74 26t-62 61.5t-36.5 107h-4 q-144 -218 -365 -218q-138 0 -229.5 77.5t-91.5 223.5q0 59 12 121l71 363h-131zM709 1143l295 330h428l-385 -330h-338z" />
<glyph unicode="&#xfb;" horiz-adv-x="1460" d="M188 760l62 303h557l-115 -586q-10 -40 -10 -67q0 -31 13.5 -46.5t49.5 -15.5q74 0 137 77t81 173l30 162h-131l62 303h557l-123 -625q-8 -40 -8 -71t17 -48.5t65 -17.5l26 2l-57 -303q-5 -2 -84.5 -5t-128.5 -3q-53 0 -89.5 6.5t-74 26t-62 61.5t-36.5 107h-4 q-144 -218 -365 -218q-138 0 -229.5 77.5t-91.5 223.5q0 59 12 121l71 363h-131zM479 1143l279 330h405l148 -330h-312l-59 170h-4l-123 -170h-334z" />
<glyph unicode="&#xfc;" horiz-adv-x="1460" d="M188 760l62 303h557l-115 -586q-10 -40 -10 -67q0 -31 13.5 -46.5t49.5 -15.5q74 0 137 77t81 173l30 162h-131l62 303h557l-123 -625q-8 -40 -8 -71t17 -48.5t65 -17.5l26 2l-57 -303q-5 -2 -84.5 -5t-128.5 -3q-53 0 -89.5 6.5t-74 26t-62 61.5t-36.5 107h-4 q-144 -218 -365 -218q-138 0 -229.5 77.5t-91.5 223.5q0 59 12 121l71 363h-131zM494 1147l65 326h299l-63 -326h-301zM1020 1147l63 326h301l-63 -326h-301z" />
<glyph unicode="&#xfd;" horiz-adv-x="1329" d="M-59 -336l180 291q6 -5 18 -12.5t58 -20t102 -12.5q114 0 162 53l-185 797h-112l57 303h602l-59 -303h-70l27 -287q3 -38 2 -73t-3 -60l-3 -25h10q31 84 66 158l131 287h-62l58 303h583l-57 -303h-100l-465 -819q-62 -109 -133 -184t-147.5 -114.5t-149.5 -56t-158 -16.5 q-62 0 -121.5 9.5t-99.5 23.5t-71 28t-45 23zM676 1143l295 330h428l-385 -330h-338z" />
<glyph unicode="&#xfe;" horiz-adv-x="1351" d="M53 -410l309 1579h-137l58 304h559l-80 -400q-2 -14 -6 -29t-8 -24l-3 -8h5q97 75 249 75q193 0 305.5 -128.5t112.5 -344.5q0 -138 -50.5 -259.5t-133 -203.5t-188 -129t-214.5 -47q-62 0 -135.5 20.5t-124.5 57.5h-4q-4 -35 -14 -88l-74 -375h-426zM643 475 q0 -67 33 -108t100 -41q79 0 144 70.5t65 185.5q0 68 -35 108.5t-96 40.5q-19 0 -44.5 -8t-55 -27.5t-54 -48t-41 -73.5t-16.5 -99z" />
<glyph unicode="&#xff;" horiz-adv-x="1329" d="M-59 -336l180 291q6 -5 18 -12.5t58 -20t102 -12.5q114 0 162 53l-185 797h-112l57 303h602l-59 -303h-70l27 -287q3 -38 2 -73t-3 -60l-3 -25h10q31 84 66 158l131 287h-62l58 303h583l-57 -303h-100l-465 -819q-62 -109 -133 -184t-147.5 -114.5t-149.5 -56t-158 -16.5 q-62 0 -121.5 9.5t-99.5 23.5t-71 28t-45 23zM461 1147l65 326h299l-63 -326h-301zM987 1147l64 326h301l-64 -326h-301z" />
<glyph unicode="&#x152;" horiz-adv-x="2125" d="M193 641q0 136 49 266t135 234t196 183t239 122t257 43q115 0 209 -8t152 -8h866l-92 -478h-342l26 135h-213l-45 -221h377l-65 -340h-377l-43 -227h233l27 135h342l-94 -477h-854q-42 0 -119 -7t-164 -7q-199 0 -359 84.5t-250.5 234.5t-90.5 336zM641 662 q0 -141 81.5 -232.5t207.5 -91.5q42 0 80 3t56 6l17 3l148 772q-52 15 -146 15q-80 0 -160.5 -38t-143 -101.5t-101.5 -152t-39 -183.5z" />
<glyph unicode="&#x153;" horiz-adv-x="1964" d="M139 457q0 138 53.5 257t144 200t211.5 127t255 46q226 0 387 -124h4q154 124 358 124q231 0 354.5 -116t123.5 -312q0 -41 -10 -89t-20 -76l-11 -27h-621q-1 -73 44 -107t122 -34q63 0 139 25t121 50l45 25l107 -313q-8 -6 -22.5 -15t-61 -33t-95.5 -42t-121 -33 t-141 -15q-241 0 -401 134h-4q-180 -134 -387 -134q-252 0 -413 131.5t-161 350.5zM571 477q0 -72 41 -110.5t107 -38.5q89 0 158 67t69 183q0 74 -40.5 115.5t-104.5 41.5q-99 0 -164.5 -69.5t-65.5 -188.5zM1409 651h205q4 37 4 60q0 90 -76 90q-94 0 -133 -150z" />
<glyph unicode="&#x178;" horiz-adv-x="1396" d="M246 1157l61 316h611l-60 -316h-82l58 -184l20 -78h4q16 31 49 78l129 184h-80l60 316h645l-62 -316h-118l-447 -563l-55 -279h156l-60 -315h-753l59 315h156l55 279l-227 563h-119zM600 1569l66 325h299l-64 -325h-301zM1126 1569l64 325h301l-64 -325h-301z" />
<glyph unicode="&#x2c6;" horiz-adv-x="983" d="M-78 1565l279 329h405l148 -329h-312l-59 170h-4l-123 -170h-334z" />
<glyph unicode="&#x2dc;" horiz-adv-x="978" d="M-86 1563q31 158 115 248t204 90q42 0 75 -12t52.5 -28.5t36 -33.5t35 -29t39.5 -12q64 0 82 108h270q-28 -156 -112.5 -247t-202.5 -91q-50 0 -89 18.5t-59 40t-44.5 40t-49.5 18.5q-60 0 -84 -110h-268z" />
<glyph unicode="&#x2000;" horiz-adv-x="950" />
<glyph unicode="&#x2001;" horiz-adv-x="1901" />
<glyph unicode="&#x2002;" horiz-adv-x="950" />
<glyph unicode="&#x2003;" horiz-adv-x="1901" />
<glyph unicode="&#x2004;" horiz-adv-x="633" />
<glyph unicode="&#x2005;" horiz-adv-x="475" />
<glyph unicode="&#x2006;" horiz-adv-x="316" />
<glyph unicode="&#x2007;" horiz-adv-x="316" />
<glyph unicode="&#x2008;" horiz-adv-x="237" />
<glyph unicode="&#x2009;" horiz-adv-x="380" />
<glyph unicode="&#x200a;" horiz-adv-x="105" />
<glyph unicode="&#x2010;" horiz-adv-x="921" d="M205 406l71 368h666l-72 -368h-665z" />
<glyph unicode="&#x2011;" horiz-adv-x="921" d="M205 406l71 368h666l-72 -368h-665z" />
<glyph unicode="&#x2012;" horiz-adv-x="921" d="M205 406l71 368h666l-72 -368h-665z" />
<glyph unicode="&#x2013;" horiz-adv-x="1542" d="M211 432l61 316h1287l-62 -316h-1286z" />
<glyph unicode="&#x2014;" horiz-adv-x="1951" d="M211 432l61 316h1696l-61 -316h-1696z" />
<glyph unicode="&#x2018;" horiz-adv-x="593" d="M233 928l318 579h297l-232 -579h-383z" />
<glyph unicode="&#x2019;" horiz-adv-x="573" d="M244 928l233 579h381l-317 -579h-297z" />
<glyph unicode="&#x201a;" horiz-adv-x="620" d="M4 -182l234 581h380l-317 -581h-297z" />
<glyph unicode="&#x201c;" horiz-adv-x="1054" d="M233 928l318 579h297l-232 -579h-383zM694 928l318 579h297l-234 -579h-381z" />
<glyph unicode="&#x201d;" horiz-adv-x="1034" d="M244 928l233 579h381l-317 -579h-297zM705 928l231 579h383l-318 -579h-296z" />
<glyph unicode="&#x201e;" horiz-adv-x="1081" d="M4 -182l234 581h380l-317 -581h-297zM465 -182l231 581h383l-317 -581h-297z" />
<glyph unicode="&#x2022;" horiz-adv-x="980" d="M197 596q0 171 119.5 291.5t289.5 120.5q171 0 291.5 -120.5t120.5 -291.5t-120.5 -291.5t-291.5 -120.5q-170 0 -289.5 120.5t-119.5 291.5z" />
<glyph unicode="&#x2026;" horiz-adv-x="2050" d="M115 0l73 391h377l-73 -391h-377zM840 0l73 391h377l-73 -391h-377zM1565 0l73 391h377l-73 -391h-377z" />
<glyph unicode="&#x202f;" horiz-adv-x="380" />
<glyph unicode="&#x2039;" horiz-adv-x="829" d="M160 575l391 424h395l-416 -438l269 -403h-371z" />
<glyph unicode="&#x203a;" horiz-adv-x="829" d="M113 158l415 438l-268 403h373l266 -417l-389 -424h-397z" />
<glyph unicode="&#x205f;" horiz-adv-x="475" />
<glyph unicode="&#x20ac;" horiz-adv-x="1298" d="M164 459l47 213h113q5 79 16 116h-107l48 216h129q109 225 308.5 359t450.5 134q76 0 154.5 -12.5t118.5 -25.5l41 -13l-164 -342q-88 26 -164 26q-194 0 -266 -126h389l-94 -216h-393q-6 -16 -13 -57.5t-6 -58.5h369l-90 -213h-242q32 -64 90 -86.5t139 -22.5 q43 0 93.5 9t80.5 19l29 9l-4 -375q-97 -37 -242 -37q-239 0 -418 130.5t-235 353.5h-178z" />
<glyph unicode="&#x2122;" horiz-adv-x="2166" d="M313 1241v223h836v-223h-287v-692h-258v692h-291zM1188 549l72 915h241l150 -358l26 -90h4q15 59 27 90l150 358h241l68 -915h-260l-21 356l2 66h-4l-104 -256h-201l-104 256h-5q1 -4 1.5 -10.5t1.5 -25t0 -30.5l-25 -356h-260z" />
<glyph unicode="&#x25fc;" horiz-adv-x="1064" d="M0 0v1065h1065v-1065h-1065z" />
</font>
</defs>
</svg>
