<?xml version="1.0" standalone="no"?>
<!DOCTYPE svg PUBLIC "-//W3C//DTD SVG 1.1//EN" "http://www.w3.org/Graphics/SVG/1.1/DTD/svg11.dtd" >
<svg xmlns="http://www.w3.org/2000/svg">
<metadata></metadata>
<defs>
<font id="museo_slab1000" horiz-adv-x="1306" >
<font-face units-per-em="2048" ascent="1536" descent="-512" />
<missing-glyph horiz-adv-x="512" />
<glyph unicode="&#xfb01;" horiz-adv-x="1607" d="M66 760v303h129v39q0 73 19 133.5t50 101t75.5 71.5t89 48.5t97 28.5t94 14.5t85.5 3.5q37 0 72.5 -2.5t52.5 -4.5l16 -3v-330q-46 8 -105 8q-64 0 -91 -14.5t-27 -44.5v-49h819v-760h119v-303h-666v303h119v457h-391v-457h139v-303h-686v303h119v457h-129zM1022 1161 v312h412v-312h-412z" />
<glyph unicode="&#xfb02;" horiz-adv-x="1603" d="M66 760v303h129v18q0 116 51.5 203t143 138t208 75.5t256.5 24.5q131 0 272 -18.5t216 -37.5l75 -18v-991q0 -77 18.5 -103t71.5 -26l41 2v-336q-47 -6 -125 -6q-48 0 -86 3t-84.5 14t-82 30t-70.5 52.5t-58 79.5t-37 114t-14 153v756q-82 16 -164 16q-102 0 -153 -31.5 t-51 -82.5v-29h202v-303h-202v-457h139v-303h-686v303h119v457h-129z" />
<glyph unicode="&#xfb03;" horiz-adv-x="2426" d="M66 760v303h129v39q0 73 19 133.5t50 101t75.5 71.5t89 48.5t97 28.5t94 14.5t85.5 3.5q37 0 72.5 -2.5t52.5 -4.5l16 -3v-330q-46 8 -105 8q-64 0 -91 -14.5t-27 -44.5v-49h391v39q0 73 19 133.5t50 101t75.5 71.5t89 48.5t97 28.5t94 14.5t85.5 3.5q37 0 72.5 -2.5 t51.5 -4.5l17 -3v-330q-45 8 -104 8q-64 0 -91.5 -14.5t-27.5 -44.5v-49h819v-760h119v-303h-666v303h119v457h-391v-457h139v-303h-686v303h119v457h-391v-457h139v-303h-686v303h119v457h-129zM1841 1161v312h412v-312h-412z" />
<glyph unicode="&#xfb04;" horiz-adv-x="2422" d="M66 760v303h129v39q0 73 19 133.5t50 101t75.5 71.5t89 48.5t97 28.5t94 14.5t85.5 3.5q37 0 72.5 -2.5t52.5 -4.5l16 -3v-330q-46 8 -105 8q-64 0 -91 -14.5t-27 -44.5v-49h391v18q0 116 51.5 203t143 138t208 75.5t256.5 24.5q131 0 272 -18.5t216 -37.5l75 -18v-991 q0 -77 19 -103t72 -26l40 2v-336q-46 -6 -124 -6q-48 0 -86 3t-84.5 14t-82 30t-71 52.5t-58.5 79.5t-37 114t-14 153v756q-81 16 -163 16q-102 0 -153.5 -32t-51.5 -82v-29h203v-303h-203v-457h139v-303h-686v303h119v457h-391v-457h139v-303h-686v303h119v457h-129z" />
<glyph horiz-adv-x="0" />
<glyph horiz-adv-x="682" />
<glyph unicode=" "  horiz-adv-x="512" />
<glyph unicode="&#x09;" horiz-adv-x="512" />
<glyph unicode="&#xa0;" horiz-adv-x="512" />
<glyph unicode="!" horiz-adv-x="659" d="M109 1473h444l-43 -994h-360zM139 0v356h379v-356h-379z" />
<glyph unicode="&#x22;" horiz-adv-x="917" d="M92 967v540h293v-540h-293zM530 967v540h295v-540h-295z" />
<glyph unicode="#" horiz-adv-x="1449" d="M68 358l49 291h178l22 123h-174l50 291h174l71 410h324l-72 -410h176l72 410h326l-72 -410h190l-47 -291h-190l-23 -123h185l-50 -291h-184l-61 -358h-326l62 358h-177l-61 -358h-324l62 358h-180zM621 649h176l22 123h-176z" />
<glyph unicode="$" horiz-adv-x="1234" d="M63 223l213 303q8 -6 22 -16t55 -36t80.5 -45.5t90.5 -35.5t92 -16q48 0 84.5 17.5t36.5 49.5q0 26 -27.5 49.5t-73 40.5t-103.5 39.5t-118.5 45.5t-118.5 59.5t-103.5 80t-73 109.5t-27.5 146q0 166 110 284t285 154v223h261v-215q73 -10 139.5 -31t109 -43.5t75 -44 t46.5 -35.5l15 -14l-168 -327q-7 5 -19 14t-50 31.5t-75.5 40t-89 31.5t-96.5 14t-79 -15t-34 -49q0 -30 27.5 -55t73 -42t103.5 -38.5t118.5 -42.5t118.5 -55.5t103.5 -75.5t73 -105t27.5 -143q0 -166 -112 -296t-307 -163v-217h-261v217q-77 13 -149 39t-119.5 54 t-84.5 54t-54 43z" />
<glyph unicode="%" horiz-adv-x="1867" d="M70 1120q0 155 116 266t281 111t282 -111.5t117 -265.5q0 -158 -116.5 -267.5t-282.5 -109.5t-281.5 109.5t-115.5 267.5zM174 0l1143 1473h366l-1142 -1473h-367zM373 1122q0 -37 28 -62.5t66 -25.5q39 0 66.5 25t27.5 63q0 34 -28 59t-66 25q-37 0 -65.5 -25t-28.5 -59 zM1006 350q0 155 116.5 267t282.5 112q164 0 280.5 -112.5t116.5 -266.5q0 -156 -116 -265.5t-281 -109.5q-167 0 -283 109t-116 266zM1309 354q0 -38 28.5 -63t67.5 -25q38 0 66 25.5t28 62.5q0 34 -28.5 59t-65.5 25q-38 0 -67 -25t-29 -59z" />
<glyph unicode="&#x26;" horiz-adv-x="1456" d="M57 424q0 120 68 212t180 138v4q-8 3 -20.5 9.5t-45 33t-57 59.5t-45 92t-20.5 128q0 86 30.5 155t81 113.5t119.5 74t140.5 42t148.5 12.5q55 0 112 -6t87 -12l30 -6l-96 -336q-28 6 -63 6q-70 0 -112 -29.5t-42 -89.5q0 -53 30 -84t64 -31h178v185h424v-185h178v-342 h-178v-131q0 -88 -40.5 -170.5t-114.5 -147.5t-190.5 -104t-256.5 -39q-134 0 -246.5 36t-187 97.5t-115.5 143t-41 172.5zM498 469q0 -55 41.5 -84t111.5 -29q79 0 126.5 34t47.5 73v104h-207q-26 0 -50 -6t-47 -29.5t-23 -62.5z" />
<glyph unicode="'" horiz-adv-x="485" d="M92 967v540h301v-540h-301z" />
<glyph unicode="(" horiz-adv-x="755" d="M94 717q0 435 260 833h346q-231 -389 -231 -831q0 -463 231 -914h-346q-260 404 -260 912z" />
<glyph unicode=")" horiz-adv-x="757" d="M55 -195q232 447 232 914q0 445 -232 831h346q263 -402 263 -833q0 -503 -263 -912h-346z" />
<glyph unicode="*" horiz-adv-x="1036" d="M66 1010l112 350l178 -88l-24 201h368l-28 -201l182 90l115 -348l-203 -35v-4l145 -144l-299 -217l-94 179h-4l-92 -181l-297 217l139 144v4z" />
<glyph unicode="+" d="M86 432v316h401v434h332v-434h402v-316h-402v-432h-332v432h-401z" />
<glyph unicode="," horiz-adv-x="636" d="M-2 -238l166 637h399l-258 -637h-307z" />
<glyph unicode="-" horiz-adv-x="915" d="M125 406v368h666v-368h-666z" />
<glyph unicode="." horiz-adv-x="610" d="M109 0v391h393v-391h-393z" />
<glyph unicode="/" horiz-adv-x="1007" d="M66 -86l526 1628h350l-526 -1628h-350z" />
<glyph unicode="0" horiz-adv-x="1294" d="M78 739q0 131 17.5 241t59 207.5t106 164.5t162.5 106t224 39t224 -39t162.5 -106t106.5 -164.5t59.5 -207.5t17.5 -241t-17.5 -241.5t-59.5 -208.5t-106.5 -166.5t-162.5 -108t-224 -39.5t-224 39.5t-162.5 108t-106 166.5t-59 208.5t-17.5 241.5zM522 739 q0 -383 125 -383t125 383q0 377 -125 377t-125 -377z" />
<glyph unicode="1" horiz-adv-x="1167" d="M39 1085l418 388h370v-1131h312v-342h-1041v342h308v485l2 123h-5q-20 -44 -53 -73l-65 -56z" />
<glyph unicode="2" horiz-adv-x="1267" d="M66 180q0 113 34.5 209t90 163t122.5 123.5t134 99t122.5 79.5t90 76t34.5 78q0 37 -10.5 60.5t-29.5 33t-33.5 12t-34.5 2.5q-32 0 -65 -16.5t-57 -39.5t-43.5 -46t-29.5 -40l-10 -16l-299 205q3 7 8.5 19t28 46.5t49.5 66.5t73.5 70.5t99 66t128 46.5t158.5 19 q71 0 141.5 -15t140.5 -50.5t123 -87t86 -132t33 -178.5q0 -84 -33 -159t-85.5 -129.5t-116.5 -103t-128 -87t-118 -73t-89 -70.5t-38 -70h286v166h347v-508h-1090q-20 110 -20 180z" />
<glyph unicode="3" horiz-adv-x="1226" d="M61 166l193 307q5 -5 15.5 -13t41.5 -28t63.5 -35.5t78 -28t88.5 -12.5q84 0 126 33t42 82q0 52 -46.5 85.5t-144.5 33.5q-6 0 -14.5 -0.5t-23.5 -1.5t-27 -2l-88 190l210 279q16 20 35 39.5t30 29.5l11 9v4q-53 -7 -100 -7h-113v-118h-346v461h1006v-306l-236 -301 q145 -41 219 -142.5t74 -231.5q0 -77 -20.5 -150t-65.5 -140t-111 -117t-164.5 -80t-218.5 -30q-96 0 -184 19.5t-145.5 48t-101 56.5t-63.5 47z" />
<glyph unicode="4" horiz-adv-x="1316" d="M35 340v258l516 875h534v-803h164v-330h-164v-340h-426v340h-624zM434 670h225v288q0 30 4.5 72.5t8.5 69.5l4 28h-8q-31 -81 -70 -153l-164 -301v-4z" />
<glyph unicode="5" horiz-adv-x="1239" d="M57 162l183 317q6 -5 17 -13.5t45 -29.5t68.5 -37t84 -29.5t94.5 -13.5q76 0 127 33.5t51 97.5q0 58 -48 93.5t-153 35.5q-56 0 -103.5 -11t-66.5 -21l-20 -11l-225 84l53 816h911v-461h-348v118h-209l-10 -126l-10 -62h4q32 14 141 14q249 0 388.5 -132t139.5 -337 q0 -222 -162.5 -367t-428.5 -145q-92 0 -179.5 19.5t-147 46.5t-106 54.5t-68.5 46.5z" />
<glyph unicode="6" horiz-adv-x="1290" d="M70 666q0 170 49 319.5t141 264t234 181t317 66.5q88 0 170.5 -16.5t120.5 -32.5l39 -16l-107 -357q-94 41 -213 41q-197 0 -266 -153h4q74 24 176 24q114 0 211 -45.5t158.5 -118t96 -160.5t34.5 -176q0 -94 -37.5 -184.5t-106 -164t-175 -118.5t-232.5 -45 q-94 0 -181 25t-166.5 79.5t-138.5 133.5t-93.5 195.5t-34.5 257.5zM502 565q0 -82 55 -145.5t123 -63.5q53 0 88 34.5t35 86.5q0 26 -10 52.5t-32 53t-64 43.5t-99 17q-53 0 -74.5 -17t-21.5 -61z" />
<glyph unicode="7" horiz-adv-x="1183" d="M61 1012v461h1098v-302l-598 -1171h-448l522 1034q16 30 31.5 55t23.5 35l8 9v4q-48 -7 -116 -7h-152v-118h-369z" />
<glyph unicode="8" horiz-adv-x="1269" d="M66 422q0 60 22 119.5t57.5 106t64.5 77t58 53.5q-71 60 -108 126.5t-37 156.5q0 82 31 158t90.5 139t158.5 101t224 38q146 0 266 -48.5t193 -145.5t73 -226q0 -170 -145 -334q186 -123 186 -315q0 -66 -21 -129.5t-67 -122.5t-111.5 -103.5t-161 -71t-208.5 -26.5 q-140 0 -252 40.5t-178 106.5t-100.5 143t-34.5 157zM459 455q0 -59 47.5 -102.5t116.5 -43.5q78 0 120.5 33.5t42.5 93.5q0 12 -4 23.5t-13 22t-18 19.5t-26 19.5t-29.5 18t-36 18.5t-37.5 17.5t-42.5 19t-42.5 18.5q-31 -29 -54.5 -70.5t-23.5 -86.5zM506 1059 q0 -56 52.5 -95.5t156.5 -80.5q1 2 8 14.5t11.5 21t11.5 25t11 30.5t7.5 32.5t3.5 35.5q0 52 -37 83.5t-102 31.5q-62 0 -92.5 -27.5t-30.5 -70.5z" />
<glyph unicode="9" horiz-adv-x="1282" d="M57 985q0 94 37 184.5t104 164t171.5 118.5t228.5 45q94 0 181 -24.5t166.5 -79t138.5 -133.5t93.5 -195.5t34.5 -257.5q0 -135 -30.5 -258.5t-92.5 -228t-149.5 -181.5t-208 -120.5t-260.5 -43.5q-88 0 -170.5 16.5t-120.5 32.5l-39 17l107 356q94 -41 213 -41 q202 0 274 170h-4q-82 -30 -184 -30q-112 0 -207 44.5t-155.5 115.5t-94 157t-33.5 172zM479 995q0 -26 10 -52.5t32 -53t64 -43.5t99 -17q52 0 74 19.5t22 64.5q0 81 -55 142t-123 61q-53 0 -88 -34.5t-35 -86.5z" />
<glyph unicode=":" horiz-adv-x="731" d="M168 0v395h395v-395h-395zM168 670v393h395v-393h-395z" />
<glyph unicode=";" horiz-adv-x="698" d="M72 -238l143 637h403l-237 -637h-309zM229 670v393h379v-393h-379z" />
<glyph unicode="&#x3c;" d="M96 463v258l1069 471v-350l-649 -250v-4l649 -246v-352z" />
<glyph unicode="=" d="M121 176v318h1065v-318h-1065zM121 686v318h1065v-318h-1065z" />
<glyph unicode="&#x3e;" d="M139 -10v352l649 246v4l-649 250v350l1069 -471v-258z" />
<glyph unicode="?" horiz-adv-x="1093" d="M53 1317q7 8 20 20.5t57 45t93 57t126.5 45t158.5 20.5q74 0 145 -15.5t137 -49.5t116 -82t80 -118.5t30 -154.5q0 -66 -19 -124t-49.5 -99t-67.5 -77t-74 -65.5t-67.5 -56t-49.5 -56.5t-19 -60v-68h-408v105q0 72 32 132t77 100t90.5 74.5t77.5 71.5t32 76 q0 41 -27.5 61.5t-70.5 20.5q-42 0 -88.5 -22t-72.5 -44l-25 -22zM276 0v356h379v-356h-379z" />
<glyph unicode="@" horiz-adv-x="1769" d="M63 489q0 162 62 304t172.5 246.5t272.5 164.5t354 60q128 0 231.5 -27t174.5 -75t119.5 -115t70.5 -144.5t22 -165.5v-336h154v-276h-590q-119 0 -214 32t-152 84.5t-87 116t-30 131.5q0 67 29 128t85 111.5t151.5 81t217.5 30.5h45q0 27 -20.5 46.5t-54.5 29t-68 14 t-70 4.5q-108 0 -197 -39t-145 -103t-86.5 -144t-30.5 -165q0 -86 30.5 -163t88.5 -139.5t153 -99t214 -36.5v-315q-210 0 -382 58.5t-285 160.5t-174 240.5t-61 299.5zM981 502q0 -101 119 -101h51v199h-47q-123 0 -123 -98z" />
<glyph unicode="A" horiz-adv-x="1511" d="M20 0v315h111l371 1158h506l370 -1158h113v-315h-666v315h115l-29 136h-313l-29 -136h115v-315h-664zM664 741h180l-47 203q-11 48 -20.5 97.5t-12.5 74.5l-4 25h-10q-10 -91 -37 -197z" />
<glyph unicode="B" horiz-adv-x="1476" d="M98 0v315h156v842h-156v316h697q75 0 109.5 -1t79 -6.5t85.5 -17.5q131 -40 208 -136t77 -227q0 -95 -44 -180.5t-128 -132.5v-4q231 -72 231 -330q0 -167 -102.5 -278t-251.5 -144q-80 -16 -219 -16h-742zM696 342h158q59 0 89 35t30 92q0 113 -115 113h-162v-240z M696 926h119q51 0 75.5 28.5t24.5 73.5q0 47 -26 74.5t-80 27.5h-113v-204z" />
<glyph unicode="C" horiz-adv-x="1536" d="M55 737q0 217 104.5 392t282 271.5t392.5 96.5q62 0 133.5 -7t158.5 -28t155.5 -52t115.5 -85.5t47 -122.5v-258h-391v113q0 71 -199 71q-159 0 -250.5 -92t-91.5 -272q0 -206 101 -313t266 -107q34 0 64 3t59.5 10.5t47 22.5t17.5 36v112h393v-262q0 -65 -45 -117.5 t-112.5 -84t-153.5 -52.5t-161.5 -29t-143.5 -8q-168 0 -315 58.5t-250.5 160t-163.5 242.5t-60 301z" />
<glyph unicode="D" horiz-adv-x="1624" d="M98 0v315h156v842h-156v316h658q202 0 299 -29q229 -62 368.5 -248t139.5 -459q0 -244 -117 -425t-316 -259q-146 -53 -370 -53h-662zM696 342h54q134 0 213 43q69 46 106 137t37 213q0 139 -49.5 232t-132.5 133q-63 30 -174 30h-54v-788z" />
<glyph unicode="E" horiz-adv-x="1376" d="M98 0v315h156v842h-156v316h1168v-478h-369v135h-201v-217h389v-344h-389v-227h222v131h368v-473h-1188z" />
<glyph unicode="F" horiz-adv-x="1275" d="M98 0v315h156v842h-156v316h1135v-476h-369v107h-168v-242h398v-342h-398v-205h178v-315h-776z" />
<glyph unicode="G" horiz-adv-x="1576" d="M55 750q0 219 102.5 389.5t284.5 264t412 93.5q103 0 208 -19.5t194 -54.5t145.5 -91t56.5 -122v-266h-393v107q0 77 -182 77q-371 0 -371 -360q0 -192 101.5 -308t297.5 -116q72 0 129.5 17t57.5 55v57h-213v315h606v-524q0 -76 -69.5 -135.5t-174.5 -91t-208 -47 t-191 -15.5q-225 0 -406 99.5t-284 277t-103 398.5z" />
<glyph unicode="H" horiz-adv-x="1812" d="M98 0v315h156v842h-156v316h754v-316h-156v-256h420v256h-155v316h753v-316h-155v-842h155v-315h-753v315h155v242h-420v-242h156v-315h-754z" />
<glyph unicode="I" horiz-adv-x="950" d="M98 0v315h156v842h-156v316h754v-316h-156v-842h156v-315h-754z" />
<glyph unicode="J" horiz-adv-x="1214" d="M18 442v148h420v-115q0 -25 0.5 -39t4.5 -31.5t11.5 -26.5t22 -15.5t35.5 -6.5q44 0 57 27.5t13 91.5v682h-172v316h749v-316h-135v-688q0 -119 -43.5 -215t-116.5 -155.5t-163 -91.5t-187 -32q-96 0 -183 28.5t-158 83.5t-113 147t-42 208z" />
<glyph unicode="K" horiz-adv-x="1585" d="M98 0v315h156v842h-156v316h670v-316h-72v-242h95l167 242h-90v316h645v-316h-114l-283 -373v-4q3 -1 8.5 -4t21 -14.5t30 -26.5t33.5 -42t34 -60l123 -273q20 -45 84 -45h61v-315h-299q-89 0 -135.5 26t-72.5 83l-193 421q-11 25 -33 33t-65 8h-17v-256h133v-315h-731z " />
<glyph unicode="L" horiz-adv-x="1331" d="M100 0v315h156v815h-156v343h754v-343h-156v-788h228v207h368v-549h-1194z" />
<glyph unicode="M" horiz-adv-x="2054" d="M72 0v315h151l72 842h-156v316h674l168 -652q12 -46 22.5 -94.5t15.5 -74.5l5 -25h4q16 88 45 194l168 652h674v-316h-156l72 -842h151v-315h-704v315h121l-21 430q-1 12 -1 27q0 22 2 50q3 46 7 78l3 30h-9q-23 -104 -43 -176l-127 -490h-366l-127 490q-10 33 -21 77 t-16 71l-6 28h-8q1 -13 3 -34q3 -20 5 -70q1 -28 1 -50q0 -17 -1 -31l-19 -430h121v-315h-704z" />
<glyph unicode="N" horiz-adv-x="1777" d="M98 0v315h156v842h-156v316h607l339 -654q16 -32 33 -74.5t26 -68.5l9 -27h10q-14 111 -14 185v323h-166v316h764v-316h-156v-1157h-446l-344 649q-16 31 -33 73.5t-26 69.5l-9 27h-10q14 -110 14 -186v-318h166v-315h-764z" />
<glyph unicode="O" horiz-adv-x="1675" d="M55 745q0 157 58.5 295.5t160.5 239t248.5 159t315.5 58.5t315.5 -58.5t248.5 -159t160 -239t58 -295.5q0 -214 -99 -390t-278.5 -278t-404.5 -102q-169 0 -315.5 60t-248.5 163t-160.5 245t-58.5 302zM512 745q0 -165 95.5 -277t230.5 -112t230 111.5t95 277.5 q0 158 -95 264.5t-230 106.5t-230.5 -106.5t-95.5 -264.5z" />
<glyph unicode="P" horiz-adv-x="1425" d="M98 0v315h156v842h-156v316h756q163 0 244 -31q136 -47 218.5 -180t82.5 -304q0 -168 -81 -304t-216 -183q-89 -31 -236 -31h-170v-125h156v-315h-754zM696 782h105q68 0 112 33q54 41 54 141q0 98 -52 142q-38 32 -108 32h-111v-348z" />
<glyph unicode="Q" horiz-adv-x="1695" d="M55 741q0 159 58 298.5t160.5 240.5t251.5 159t323 58q222 0 399 -90t279 -256t102 -379q0 -242 -147 -436l151 -111l-243 -274l-146 133q-169 -109 -399 -109q-172 0 -320 59.5t-250.5 162t-160.5 243.5t-58 301zM512 741q0 -163 98 -274t238 -111q28 0 50.5 3t31.5 7 l8 3l-184 157l233 269l178 -172q19 57 19 129q0 151 -97.5 257.5t-238.5 106.5q-142 0 -239 -106t-97 -269z" />
<glyph unicode="R" horiz-adv-x="1554" d="M98 0v315h156v842h-156v316h678q214 0 307 -27q143 -40 227.5 -153t84.5 -271q0 -128 -56 -232.5t-155 -173.5v-4q3 -1 8 -3t19 -10.5t26.5 -19t27 -28t23.5 -37.5l70 -152q20 -47 92 -47h53v-315h-297q-85 0 -133 25.5t-76 83.5l-168 337q-15 32 -34.5 44t-69.5 12h-29 v-187h133v-315h-731zM696 823h109q56 0 92 23q64 39 64 137q0 72 -43.5 109.5t-145.5 37.5h-76v-307z" />
<glyph unicode="S" horiz-adv-x="1298" d="M68 354v189h393v-92q0 -44 49.5 -69.5t124.5 -25.5q71 0 112 22.5t41 59.5q0 25 -16 45t-50.5 37.5t-65 29.5t-84 30t-83.5 30q-49 19 -85.5 35.5t-79 40t-72.5 48t-60 57.5t-48 70.5t-29 85.5t-11 104q0 102 32.5 181t85.5 128t127.5 81t150.5 44t162 12 q101 0 193.5 -19t167 -55t119 -94t44.5 -131v-229h-391v78q0 33 -36.5 51t-96.5 18q-113 0 -113 -65q0 -21 13.5 -40.5t31 -33.5t52 -30t60 -25.5t70.5 -24.5q61 -21 97.5 -34.5t91 -38t87.5 -46.5t71.5 -56.5t59.5 -71.5t35.5 -87.5t14.5 -109.5q0 -104 -35.5 -187.5 t-93.5 -136.5t-137 -89t-161 -50.5t-171 -14.5q-112 0 -213 25t-180.5 71t-126.5 119.5t-47 163.5z" />
<glyph unicode="T" horiz-adv-x="1456" d="M43 934v539h1370v-539h-366v196h-97v-815h156v-315h-754v315h156v815h-96v-196h-369z" />
<glyph unicode="U" horiz-adv-x="1701" d="M53 1157v316h748v-316h-152v-590q0 -71 29 -127q22 -39 68.5 -61.5t107.5 -22.5q113 0 168 80q31 47 31 131v590h-152v316h750v-316h-156v-588q0 -113 -35 -218t-96 -177q-85 -99 -222.5 -149t-289.5 -50q-157 0 -291 50.5t-219 140.5q-135 144 -135 403v588h-154z" />
<glyph unicode="V" horiz-adv-x="1521" d="M20 1157v316h691v-316h-117l131 -500q12 -36 19.5 -81.5t9.5 -73.5l2 -27h10q4 100 31 182l131 500h-117v316h690v-316h-115l-399 -1157h-452l-400 1157h-115z" />
<glyph unicode="W" horiz-adv-x="2158" d="M33 1157v316h710v-316h-168l93 -510q6 -36 11 -79.5t7 -69.5l2 -25h8q9 92 27 174l188 826h334l191 -826q8 -36 14.5 -79.5t9.5 -69.5l2 -25h8q5 92 19 174l94 510h-170v316h713v-316h-115l-276 -1157h-484l-141 621q-8 36 -15 82t-9 74l-3 28h-8q-10 -104 -28 -184 l-142 -621h-483l-275 1157h-114z" />
<glyph unicode="X" horiz-adv-x="1515" d="M63 0v315h107l356 441l-333 401h-119v316h659v-316h-94l92 -110q14 -17 26.5 -35.5t18.5 -28.5l6 -10h4q19 31 52 74l88 110h-92v316h618v-316h-106l-353 -430l344 -412h111v-315h-662v315h105l-103 123q-14 17 -26.5 35.5t-18.5 28.5l-6 10h-4q-20 -33 -51 -74l-92 -123 h98v-315h-625z" />
<glyph unicode="Y" horiz-adv-x="1394" d="M20 1157v316h627v-316h-80l95 -184q11 -22 19.5 -41.5t11.5 -27.5l3 -9h4q10 31 35 78l94 184h-79v316h624v-316h-119l-337 -563v-279h155v-315h-754v315h156v279l-336 563h-119z" />
<glyph unicode="Z" horiz-adv-x="1376" d="M94 0v268l578 795q13 18 29.5 35.5t26.5 25.5l11 9v4q-49 -7 -90 -7h-180v-196h-369v539h1164v-263l-582 -800q-13 -18 -30 -35.5t-28 -26.5l-10 -8v-4q50 6 91 6h217v207h368v-549h-1196z" />
<glyph unicode="[" horiz-adv-x="788" d="M154 -195v1745h581v-290h-229v-1164h229v-291h-581z" />
<glyph unicode="\" horiz-adv-x="1007" d="M66 1542h350l526 -1628h-352z" />
<glyph unicode="]" horiz-adv-x="788" d="M53 96h230v1164h-230v290h582v-1745h-582v291z" />
<glyph unicode="^" d="M109 487l417 986h262l420 -986h-352l-199 566l-196 -566h-352z" />
<glyph unicode="_" horiz-adv-x="1226" d="M-25 0h1276v-315h-1276v315z" />
<glyph unicode="`" horiz-adv-x="976" d="M158 1894h411l234 -329h-324z" />
<glyph unicode="a" horiz-adv-x="1216" d="M35 295q0 63 22 115t57.5 87.5t84.5 62.5t98 42.5t104 25t96.5 12.5t80.5 3h61v47q0 34 -33.5 51t-81.5 17q-59 0 -131 -25t-115 -51l-42 -25l-144 287q8 6 22.5 15.5t62.5 34t100.5 43.5t133.5 34.5t164 15.5q233 0 362.5 -115.5t129.5 -328.5v-295q0 -21 12 -33t33 -12 h66v-303h-351q-74 0 -110.5 41t-36.5 90v2l2 17h-4q-3 -7 -10 -18t-33 -40t-57.5 -51.5t-85.5 -40.5t-115 -18q-143 0 -242.5 88t-99.5 225zM446 336q0 -35 20.5 -55.5t51.5 -20.5q47 0 87 42t40 110v41h-24q-89 0 -132 -35t-43 -82z" />
<glyph unicode="b" horiz-adv-x="1347" d="M2 1169v304h557v-394l-4 -92h4q4 4 12 11t34 24t54.5 30t72.5 24t89 11q218 0 352 -154.5t134 -402.5t-142.5 -401.5t-359.5 -153.5q-56 0 -105 12.5t-78.5 30.5t-51 35.5t-30.5 30.5l-8 12h-4q2 -36 2 -63v-33h-399v1169h-129zM547 522q0 -80 43 -138t123 -58 q68 0 116 52.5t48 143.5q0 94 -45.5 151.5t-120.5 57.5q-69 0 -116.5 -53.5t-47.5 -155.5z" />
<glyph unicode="c" horiz-adv-x="1173" d="M35 528q0 112 42.5 213.5t118 178t187.5 122t242 45.5q94 0 179 -16t157 -48.5t114.5 -88.5t42.5 -129v-189h-358v60q0 59 -117 59q-98 0 -139 -53t-41 -137q0 -115 60.5 -167t158.5 -52q176 0 311 108l140 -297q-180 -162 -480 -162q-121 0 -231.5 38t-197 106.5 t-138 175t-51.5 233.5z" />
<glyph unicode="d" horiz-adv-x="1388" d="M41 532q0 253 136.5 404t365.5 151q49 0 92.5 -9.5t69.5 -23t45.5 -27t27.5 -23.5l8 -9h5q-5 27 -5 64v110h-129v304h557v-1125q0 -20 12 -32.5t34 -12.5h65v-303h-352q-72 0 -110 33.5t-38 72.5l4 48h-4q-3 -7 -9.5 -19t-32.5 -43t-58.5 -54.5t-89.5 -43t-123 -19.5 q-212 0 -341.5 154t-129.5 403zM469 530q0 -90 46 -147t118 -57q69 0 117.5 51.5t48.5 146.5q0 89 -42 148t-120 59q-71 0 -119.5 -53.5t-48.5 -147.5z" />
<glyph unicode="e" horiz-adv-x="1157" d="M37 541q0 108 37.5 206.5t106.5 174t176 120.5t237 45q238 0 377 -142t139 -361q0 -26 -2 -55.5t-4 -45.5l-2 -16h-635q39 -141 201 -141q63 0 135.5 23t113.5 46l41 23l150 -293q-7 -6 -21 -16t-61 -36t-98 -46t-131 -36t-162 -16q-119 0 -219 32t-169 86.5t-117 127 t-70.5 153.5t-22.5 167zM475 651h197v11q0 57 -19 96q-21 43 -73 43q-90 0 -105 -150z" />
<glyph unicode="f" horiz-adv-x="872" d="M66 760v303h129v39q0 73 19 133.5t50 101t75.5 71.5t89 48.5t97 28.5t94 14.5t85.5 3.5q37 0 72.5 -2.5t52.5 -4.5l16 -3v-330q-46 8 -105 8q-64 0 -91 -14.5t-27 -44.5v-49h202v-303h-202v-457h139v-303h-686v303h119v457h-129z" />
<glyph unicode="g" horiz-adv-x="1368" d="M43 569q0 99 29 189.5t85.5 165t151.5 119t215 44.5q85 0 169 -35t126 -110h4q-2 8 -2 25q0 45 32.5 70.5t86.5 25.5h367v-303h-66q-19 0 -32 -10t-13 -27v-602q0 -118 -37 -213t-97.5 -157t-143 -103.5t-170 -59.5t-181.5 -18q-108 0 -224 28t-198 70l117 307 q15 -7 41.5 -18t106 -29t155.5 -18q205 0 205 174l4 63h-4q-92 -108 -246 -108q-120 0 -214.5 46.5t-151 123t-86 169t-29.5 191.5zM471 586q0 -51 13.5 -92.5t50.5 -72t94 -30.5q63 0 107 38t44 136q0 53 -13.5 88.5t-39 52t-51.5 23t-60 6.5q-71 0 -108 -43t-37 -106z" />
<glyph unicode="h" horiz-adv-x="1445" d="M49 1169v304h557v-453q0 -24 -1.5 -47t-2.5 -34l-2 -11h4q103 159 311 159q55 0 105 -10.5t100 -38.5t86.5 -71t59 -113t22.5 -160v-391h119v-303h-547v610q0 52 -19 72t-61 20q-48 0 -83 -20.5t-54 -56.5t-28 -77t-9 -89v-156h119v-303h-666v303h119v866h-129z" />
<glyph unicode="i" horiz-adv-x="800" d="M66 760v303h557v-760h118v-303h-665v303h119v457h-129zM203 1161v312h411v-312h-411z" />
<glyph unicode="j" horiz-adv-x="739" d="M-39 -90q18 -2 45 -2q29 0 55.5 4t55.5 14t46 32t17 54v748h-131v303h559v-1073q0 -86 -27 -155t-74 -113t-102 -75t-119 -46.5t-116.5 -22t-103.5 -6.5q-28 0 -54 1.5t-38 2.5l-13 2v332zM188 1161v312h412v-312h-412z" />
<glyph unicode="k" horiz-adv-x="1368" d="M49 1169v304h557v-797h127l66 84h-105v303h606v-303h-124l-150 -187v-4q6 -3 15.5 -9t33.5 -31t41 -58l70 -135q21 -33 71 -33h46v-303h-308q-54 0 -86 14.5t-55 57.5l-154 295q-15 32 -47 32h-47v-96h66v-303h-613v303h119v866h-129z" />
<glyph unicode="l" horiz-adv-x="729" d="M-14 1169v304h557v-1016q0 -79 17.5 -104t74.5 -25l37 2v-336q-52 -6 -115 -6q-50 0 -90 3t-88 14t-83.5 30t-71 52.5t-58.5 79.5t-37 114t-14 153v735h-129z" />
<glyph unicode="m" horiz-adv-x="2013" d="M66 760v303h380q75 0 115.5 -33.5t40.5 -95.5l-4 -39h4q5 8 14 21t40.5 46t66 58t89 46t110.5 21q81 0 151 -43t111 -143h4q42 83 132 134.5t202 51.5q66 0 122 -19.5t104.5 -62.5t76.5 -122.5t28 -188.5v-391h121v-303h-547v623q0 39 -14 58t-51 19q-38 0 -63.5 -19.5 t-38 -58.5t-17 -82t-4.5 -104v-133h119v-303h-547v623q0 40 -15.5 58.5t-52.5 18.5q-28 0 -49.5 -11t-34 -34t-20.5 -46.5t-11 -62t-4 -65t-1 -69.5v-109h118v-303h-665v303h119v414q0 43 -45 43h-84z" />
<glyph unicode="n" horiz-adv-x="1464" d="M66 760v303h383q74 0 113.5 -33.5t39.5 -91.5l-4 -53h4q2 4 5.5 11.5t17 28.5t30.5 40t46 42t62.5 40t81.5 28.5t101 11.5q57 0 106 -10.5t97 -38.5t81.5 -71t54 -113t20.5 -160v-391h118v-303h-546v606q0 53 -19.5 74.5t-62.5 21.5q-89 0 -130.5 -70.5t-41.5 -172.5 v-156h118v-303h-665v303h119v412q0 21 -12 33t-33 12h-84z" />
<glyph unicode="o" horiz-adv-x="1302" d="M35 526q0 166 82.5 295t222 197.5t309.5 68.5q172 0 312.5 -68.5t223.5 -197.5t83 -295q0 -123 -48.5 -227.5t-132 -174.5t-196 -109.5t-240.5 -39.5q-171 0 -310.5 66.5t-222.5 193.5t-83 291zM467 526q0 -94 53 -146t131 -52t131.5 52t53.5 146q0 96 -54 152.5 t-131 56.5t-130.5 -56.5t-53.5 -152.5z" />
<glyph unicode="p" horiz-adv-x="1396" d="M53 760v303h369q139 0 139 -100q0 -13 -2 -21h4q4 6 12 15.5t36.5 34.5t62 44.5t89.5 35t118 15.5q207 0 341 -154.5t134 -397.5q0 -248 -141.5 -404t-348.5 -156q-47 0 -91 9t-73 22t-51 26t-33 22l-10 9h-4q4 -26 4 -79v-90h121v-304h-666v304h119v821q0 21 -12 33 t-33 12h-84zM596 530q0 -86 41.5 -145t120.5 -59q73 0 120.5 52t47.5 146q0 91 -45.5 149t-118.5 58q-68 0 -117 -52.5t-49 -148.5z" />
<glyph unicode="q" horiz-adv-x="1345" d="M41 535q0 247 135.5 399.5t349.5 152.5q59 0 110 -12t82.5 -29t54.5 -34t33 -29l9 -12h4q-4 20 -4 51v41h399v-1169h119v-304h-665v304h118v100l5 90h-5q-4 -4 -10.5 -11.5t-31.5 -26.5t-54 -33t-77 -26t-101 -12q-204 0 -337.5 156.5t-133.5 403.5zM469 530 q0 -91 46 -147.5t120 -56.5q69 0 116.5 51.5t47.5 146.5q0 87 -42 146t-120 59q-74 0 -121 -52t-47 -147z" />
<glyph unicode="r" horiz-adv-x="1015" d="M66 0v303h137v412q0 21 -12 33t-33 12h-84v303h381q157 0 157 -141v-52l-4 -45h4q33 107 128.5 182.5t209.5 75.5l37 -2v-419q-31 6 -78 6q-141 0 -209.5 -64.5t-68.5 -202.5v-98h137v-303h-702z" />
<glyph unicode="s" horiz-adv-x="1069" d="M43 236v155h354v-47q0 -51 107 -51q56 0 77 12t21 35q0 13 -5.5 22t-22.5 17t-33 13t-54 16.5t-67 21.5q-59 19 -100.5 36.5t-90.5 46.5t-79.5 62t-51 82.5t-20.5 108.5q0 72 31 129.5t79.5 92.5t113 58t127 32t126.5 9q75 0 146.5 -12.5t138.5 -38.5t108 -74.5 t41 -113.5v-152h-354v37q0 37 -64 37q-69 0 -69 -43q0 -11 5 -20.5t16 -17t20.5 -13.5t28.5 -12t29 -9t32 -8.5t29 -7.5q58 -15 101.5 -29t96.5 -40.5t86.5 -58.5t56.5 -81.5t23 -110.5q0 -86 -44 -154t-116.5 -108.5t-159.5 -61t-180 -20.5q-81 0 -163.5 15.5t-155.5 46 t-118.5 82.5t-45.5 117z" />
<glyph unicode="t" horiz-adv-x="878" d="M37 760v303h143v285h414v-285h209v-303h-209v-320q0 -31 17.5 -52.5t46.5 -31.5t55.5 -14t54.5 -4h47v-342q-45 -6 -108 -6q-45 0 -88.5 3.5t-99 14.5t-103 28.5t-95 48.5t-81 72t-54 101.5t-20.5 134.5v367h-129z" />
<glyph unicode="u" horiz-adv-x="1445" d="M39 760v303h557v-619q0 -53 18.5 -74.5t59.5 -21.5q80 0 123 74.5t43 183.5v154h-129v303h557v-713q0 -45 45 -45h78v-305h-377q-75 0 -114.5 33.5t-39.5 97.5l4 51h-4q-3 -8 -9 -22t-33 -50t-61 -63t-97 -49.5t-138 -22.5q-71 0 -130.5 19.5t-111.5 62.5t-82 122.5 t-30 189.5v391h-129z" />
<glyph unicode="v" horiz-adv-x="1314" d="M16 760v303h590v-303h-59l74 -277q9 -34 17 -73.5t12 -62.5l3 -23h9q12 83 32 159l74 277h-59v303h589v-303h-112l-275 -760h-508l-274 760h-113z" />
<glyph unicode="w" horiz-adv-x="1812" d="M27 760v303h606v-303h-94l36 -256l19 -160h8q9 88 23 160l112 559h336l113 -559q6 -32 11.5 -72t8.5 -64l2 -24h11q8 88 16 160l37 256h-94v303h608v-303h-117l-170 -760h-498l-71 412q-6 34 -11 73t-7 61l-1 23h-10q-4 -81 -18 -157l-72 -412h-498l-170 760h-116z" />
<glyph unicode="x" horiz-adv-x="1202" d="M61 760v303h410l96 -174l49 -98h5q24 55 49 98l100 174h367v-303h-111l-174 -217l197 -240h84v-303h-355l-119 188q-12 19 -24.5 44t-18.5 40l-6 15h-4q-24 -56 -49 -99l-108 -188h-383v303h127l184 229l-178 228h-138z" />
<glyph unicode="y" horiz-adv-x="1314" d="M4 -340l127 299q7 -5 20.5 -13.5t61.5 -22t104 -13.5q54 0 100.5 17t57.5 46l-346 787h-113v303h613v-303h-70l82 -287q10 -32 17 -71.5t8 -63.5l2 -23h8q12 86 37 158l75 287h-61v303h571v-303h-100l-305 -819q-143 -371 -551 -371q-58 0 -114 9.5t-95 22.5t-69.5 26 t-45.5 22z" />
<glyph unicode="z" horiz-adv-x="1150" d="M72 651v412h981v-260l-443 -441l-69 -59v-4q59 4 100 4h96v109h355v-412h-1016v258l454 442q16 16 33 31t26 22l9 7v4q-57 -4 -98 -4h-74v-109h-354z" />
<glyph unicode="{" horiz-adv-x="823" d="M41 500v368q7 0 19 0.5t42 10t52.5 27t41.5 57.5t19 96v184q0 80 31 140t76.5 93.5t109 54t116 26.5t109.5 6l107 -4v-302q-27 5 -62 5q-55 0 -96 -14.5t-41 -45.5v-254q0 -59 -18 -107.5t-43.5 -75.5t-51 -45.5t-43.5 -25.5l-18 -6v-4q7 -2 19 -6t42 -22.5t52.5 -44.5 t41.5 -75t19 -110v-270q0 -32 41 -47t96 -15l62 4v-301q-46 -4 -107 -4q-46 0 -90 5t-97 16.5t-96 35t-80 57.5t-58 87t-21 119v202q0 53 -18 91.5t-43.5 56t-51 27t-43.5 10.5h-18z" />
<glyph unicode="|" horiz-adv-x="649" d="M150 -344v1997h350v-1997h-350z" />
<glyph unicode="}" horiz-adv-x="823" d="M59 98q27 -4 62 -4q55 0 96 15t41 47v270q0 61 18 110t43.5 75t51 44t43.5 23l18 6v4q-7 2 -19 6.5t-42 24.5t-52.5 46t-41.5 75t-19 108v254q0 31 -41 45.5t-96 14.5l-62 -5v302q46 4 107 4q57 0 109.5 -6t116 -26.5t109 -54t76.5 -93.5t31 -140v-184q0 -56 18 -96 t43.5 -57.5t51 -27t43.5 -10.5h18v-368q-7 0 -19 -0.5t-42 -10t-52.5 -27t-41.5 -56t-19 -91.5v-202q0 -66 -21 -119t-58 -87t-80 -57.5t-96 -35t-97 -16.5t-90 -5l-107 4v301z" />
<glyph unicode="~" horiz-adv-x="1308" d="M82 379q0 217 95.5 332.5t273.5 115.5q63 0 113.5 -15t82 -36.5t57 -43.5t52 -37t53.5 -15q39 0 68.5 31t29.5 108h324q0 -217 -95.5 -332.5t-271.5 -115.5q-76 0 -135.5 23t-90 50.5t-65.5 50.5t-67 23q-39 0 -67.5 -31t-28.5 -108h-328z" />
<glyph unicode="&#xa1;" horiz-adv-x="649" d="M102 -410l41 992h363l41 -992h-445zM135 705v356h379v-356h-379z" />
<glyph unicode="&#xa2;" horiz-adv-x="1234" d="M61 737q0 139 63 263.5t162 205.5t214 113v176h264v-176q141 -36 250 -134t149 -235l-379 -147q-12 50 -50.5 90.5t-96.5 40.5q-63 0 -105.5 -52.5t-42.5 -148.5t41 -144t103 -48q58 0 97 38t54 93l379 -148q-16 -53 -49.5 -109.5t-82.5 -111t-119 -95t-148 -52.5v-181 h-264v181q-86 24 -164.5 77t-140 127.5t-98 172.5t-36.5 204z" />
<glyph unicode="&#xa3;" horiz-adv-x="1325" d="M78 0v330h158v264h-154v268h154v170q0 207 148 336t378 129q72 0 143 -18t120 -43.5t88 -51t58 -43.5l19 -18l-221 -285q-4 3 -10.5 9t-28 20.5t-43 25.5t-53 20t-60.5 9q-36 0 -66 -27t-30 -73v-160h293v-268h-293v-252h215v166h369v-508h-1184z" />
<glyph unicode="&#xa5;" horiz-adv-x="1396" d="M66 1473h477l65 -220l88 -321h4q43 167 88 321l66 220h477l-258 -555h182v-228h-290l-47 -102v-49h337v-228h-337v-311h-443v311h-334v228h334v49l-45 102h-289v228h178z" />
<glyph unicode="&#xa7;" horiz-adv-x="1191" d="M66 55l165 283q6 -5 16 -14t43.5 -31.5t69 -40t87.5 -31.5t102 -14q89 0 141.5 40t52.5 142q0 69 -31.5 165t-142.5 384h318q124 -355 152 -450t28 -179q0 -195 -131 -315.5t-383 -120.5q-89 0 -171.5 18.5t-137.5 45.5t-97 54t-61 45zM125 1061q0 195 131 315.5 t383 120.5q89 0 171.5 -18.5t137.5 -45.5t97 -54t61 -45l20 -19l-165 -283q-6 5 -16 14t-43.5 31.5t-69 40t-87.5 31.5t-102 14q-89 0 -141.5 -40t-52.5 -142q0 -69 31.5 -165t142.5 -384h-318q-124 355 -152 450t-28 179z" />
<glyph unicode="&#xa8;" horiz-adv-x="978" d="M78 1569v325h299v-325h-299zM602 1569v325h301v-325h-301z" />
<glyph unicode="&#xa9;" horiz-adv-x="1611" d="M68 733q0 154 58 293.5t156.5 240.5t234.5 160.5t286 59.5q153 0 290.5 -59.5t236.5 -160.5t157.5 -240.5t58.5 -293.5t-58.5 -294.5t-157.5 -242t-237 -161.5t-290 -60q-120 0 -232 38.5t-202.5 108.5t-158.5 163t-105 209t-37 239zM299 733q0 -150 66 -276t182 -198.5 t256 -72.5q143 0 261 72.5t185.5 198t67.5 276.5q0 150 -67.5 274.5t-185.5 196.5t-261 72q-140 0 -256 -72t-182 -197t-66 -274zM455 727q0 161 104.5 272t247.5 111q74 0 136 -24.5t96.5 -59t58.5 -69t32 -59.5l9 -24l-205 -79q-1 4 -3.5 11t-12.5 24t-22 30t-34 24 t-47 11q-48 0 -84.5 -48t-36.5 -120q0 -81 33.5 -124.5t87.5 -43.5q40 0 69.5 25t39.5 50l10 25l205 -79q-3 -10 -9 -25.5t-31.5 -56.5t-59.5 -72t-96 -56.5t-136 -25.5q-143 0 -247.5 111t-104.5 272z" />
<glyph unicode="&#xaa;" horiz-adv-x="854" d="M92 991q0 49 18.5 87t51 61t67 38t78 22t73 9t60.5 2h21v29q0 47 -76 47q-36 0 -77.5 -13t-65.5 -27l-23 -13l-86 178q5 3 13.5 8.5t37 20t60 25t81 19.5t99.5 9q158 0 239.5 -76.5t81.5 -208.5v-407h-260v92h-4q-2 -4 -6.5 -11.5t-21 -26.5t-36 -33t-53 -26t-71.5 -12 q-81 0 -141 57.5t-60 149.5zM100 551v180h654v-180h-654zM332 1014q0 -49 57 -49q27 0 47.5 21.5t20.5 51.5v35h-19q-106 0 -106 -59z" />
<glyph unicode="&#xab;" horiz-adv-x="1421" d="M45 578l336 421h381l-336 -421l336 -420h-381zM633 578l336 421h383l-336 -421l336 -420h-383z" />
<glyph unicode="&#xac;" horiz-adv-x="1263" d="M51 686v318h1065v-752h-330v434h-735z" />
<glyph unicode="&#xad;" horiz-adv-x="915" d="M125 406v368h666v-368h-666z" />
<glyph unicode="&#xae;" horiz-adv-x="1611" d="M68 733q0 154 58 293.5t156.5 240.5t234.5 160.5t286 59.5q153 0 290.5 -59.5t236.5 -160.5t157.5 -240.5t58.5 -293.5t-58.5 -294.5t-157.5 -242t-237 -161.5t-290 -60q-120 0 -232 38.5t-202.5 108.5t-158.5 163t-105 209t-37 239zM299 733q0 -150 66 -276t182 -198.5 t256 -72.5q143 0 261 72.5t185.5 198t67.5 276.5q0 150 -67.5 274.5t-185.5 196.5t-261 72q-140 0 -256 -72t-182 -197t-66 -274zM537 383v711h333q115 0 182.5 -64t67.5 -172q0 -76 -40.5 -123.5t-78.5 -58.5v-4q9 -6 27 -41l129 -248h-242l-100 242h-57v-242h-221z M758 772h55q40 0 61 22.5t21 63.5q0 84 -78 84h-59v-170z" />
<glyph unicode="&#xaf;" horiz-adv-x="978" d="M199 1599v271h583v-271h-583z" />
<glyph unicode="&#xb0;" horiz-adv-x="882" d="M43 1128q0 155 116.5 266t282.5 111q164 0 281 -111.5t117 -265.5q0 -157 -116.5 -265.5t-281.5 -108.5q-168 0 -283.5 108t-115.5 266zM348 1130q0 -37 28 -62.5t66 -25.5q37 0 66 26t29 62q0 34 -29 60.5t-66 26.5q-38 0 -66 -26.5t-28 -60.5z" />
<glyph unicode="&#xb1;" d="M86 432v316h401v434h332v-434h402v-316h-402v-432h-332v432h-401zM100 -119h1106v-311h-1106v311z" />
<glyph unicode="&#xb2;" horiz-adv-x="845" d="M49 981q0 72 22.5 133t58.5 102t79.5 75t87 57.5t79.5 44t58.5 41t22.5 41.5q0 38 -62 38q-34 0 -68 -22t-51 -44l-18 -22l-203 170q5 8 14.5 21.5t43.5 48t73.5 60.5t105.5 47.5t138 21.5q140 0 238 -74t98 -209q0 -55 -21 -102t-55.5 -79.5t-75.5 -60t-83 -49 t-77.5 -40t-59.5 -38.5t-27 -40h178v80h233v-316h-715q-14 76 -14 115z" />
<glyph unicode="&#xb3;" horiz-adv-x="823" d="M57 987l144 207q3 -3 8 -8.5t22.5 -20t36.5 -25t48 -19.5t59 -9q84 0 84 53q0 24 -27 32.5t-76 8.5h-63l-35 135l135 158q8 11 21 23.5t22 19.5l8 6v8q-40 -8 -73 -8h-74v-90h-231v316h667v-193l-166 -188q201 -49 201 -219q0 -61 -23 -118t-66.5 -105t-117 -76.5 t-164.5 -28.5q-64 0 -122.5 14.5t-96.5 35t-66.5 41.5t-41.5 35z" />
<glyph unicode="&#xb4;" horiz-adv-x="976" d="M176 1565l232 329h411l-321 -329h-322z" />
<glyph unicode="&#xb6;" horiz-adv-x="1425" d="M45 985q0 213 141.5 350.5t372.5 137.5h772v-369h-524v-1206h-289v596q-198 0 -335.5 142t-137.5 349zM934 -102v1112h291v-1112h-291z" />
<glyph unicode="&#xb7;" horiz-adv-x="624" d="M123 414v391h379v-391h-379z" />
<glyph unicode="&#xb8;" horiz-adv-x="976" d="M258 -301q45 -18 104 -18q36 0 66.5 10.5t30.5 36.5q0 53 -113 53h-57l100 282l168 -40v-15l-43 -104q91 -5 151 -53t60 -134q0 -72 -48.5 -122t-116 -70.5t-146.5 -20.5q-34 0 -73 5t-61 11l-22 5v174z" />
<glyph unicode="&#xb9;" horiz-adv-x="815" d="M29 1505l293 269h260v-672h204v-236h-710v236h200v223q0 17 2 32.5t4 22.5l3 6h-11q-10 -20 -26 -34l-47 -37z" />
<glyph unicode="&#xba;" horiz-adv-x="933" d="M82 1141q0 157 110.5 254.5t270.5 97.5q165 0 277 -97t112 -255q0 -157 -111.5 -253.5t-275.5 -96.5q-161 0 -272 96.5t-111 253.5zM106 551v180h717v-180h-717zM371 1141q0 -50 27 -76.5t67 -26.5q41 0 68.5 26.5t27.5 76.5q0 48 -28 77t-68 29q-38 0 -66 -29t-28 -77z " />
<glyph unicode="&#xbb;" horiz-adv-x="1421" d="M70 158l336 420l-336 421h383l335 -421l-335 -420h-383zM657 158l336 420l-336 421h383l336 -421l-336 -420h-383z" />
<glyph unicode="&#xbc;" horiz-adv-x="2168" d="M66 1204l292 269h260v-672h205v-236h-710v236h200v223q0 17 2.5 32.5t4.5 21.5l2 7h-11q-10 -20 -26 -34l-47 -37zM608 0l688 1473h285l-688 -1473h-285zM1303 172v193l321 542h375v-516h100v-219h-100v-172h-303v172h-393zM1548 391h148v193q0 21 3 48t6 44l3 16h-10 q-14 -61 -39 -102l-111 -195v-4z" />
<glyph unicode="&#xbd;" horiz-adv-x="2154" d="M55 1204l293 269h260v-672h205v-236h-711v236h201v223q0 17 2 32.5t4 21.5l2 7h-10q-11 -20 -27 -34l-47 -37zM610 0l688 1473h285l-688 -1473h-285zM1348 115q0 72 22.5 133t58.5 102t79.5 74.5t86.5 57.5t79 44t58.5 40.5t22.5 41.5q0 39 -61 39q-34 0 -68.5 -22 t-51.5 -44l-18 -22l-202 170q5 8 14.5 21.5t43.5 48t73.5 60.5t105.5 47.5t138 21.5q140 0 237.5 -74t97.5 -209q0 -55 -21 -102t-55.5 -79.5t-75.5 -60t-83 -49t-77.5 -40t-59.5 -38.5t-27 -40h178v79h234v-315h-715q-14 76 -14 115z" />
<glyph unicode="&#xbe;" horiz-adv-x="2142" d="M74 686l143 207q3 -3 8 -8.5t22.5 -20t36.5 -25t48 -19.5t59 -9q84 0 84 53q0 24 -26.5 32.5t-75.5 8.5h-64l-35 135l136 158q8 11 21 23.5t21 18.5l9 7v8q-41 -8 -74 -8h-74v-90h-231v316h668v-193l-166 -188q200 -49 200 -220q0 -61 -22.5 -118t-66.5 -104.5 t-116.5 -76t-164.5 -28.5q-64 0 -122.5 14.5t-96.5 35.5t-66.5 41.5t-41.5 35.5zM594 0l688 1473h285l-688 -1473h-285zM1288 172v193l322 542h375v-516h100v-219h-100v-172h-304v172h-393zM1534 391h147v193q0 21 3.5 48t6.5 44l3 16h-11q-13 -61 -38 -102l-111 -195v-4z " />
<glyph unicode="&#xbf;" horiz-adv-x="1091" d="M76 -10q0 66 19 124t49.5 99t67.5 77t74 65.5t67.5 56t49.5 56.5t19 60v58h407v-94q0 -72 -32 -132.5t-77.5 -100.5t-90.5 -74.5t-77 -71t-32 -74.5q0 -37 26.5 -60.5t71.5 -23.5q42 0 87.5 22.5t70.5 44.5l25 23l237 -287q-7 -8 -19.5 -20.5t-57 -45t-93 -57t-126 -45 t-158.5 -20.5q-74 0 -145 15.5t-137 49.5t-116 82t-80 118.5t-30 154.5zM436 707v356h379v-356h-379z" />
<glyph unicode="&#xc0;" horiz-adv-x="1507" d="M18 0v315h111l371 1158h506l370 -1158h113v-315h-666v315h115l-29 136h-313l-29 -136h115v-315h-664zM299 1894h412l233 -329h-323zM662 741h180l-47 203q-11 48 -20.5 97.5t-12.5 74.5l-4 25h-10q-10 -91 -37 -197z" />
<glyph unicode="&#xc1;" horiz-adv-x="1511" d="M20 0v315h111l371 1158h506l370 -1158h113v-315h-666v315h115l-29 136h-313l-29 -136h115v-315h-664zM557 1565l231 329h412l-321 -329h-322zM664 741h180l-47 203q-11 48 -20.5 97.5t-12.5 74.5l-4 25h-10q-10 -91 -37 -197z" />
<glyph unicode="&#xc2;" horiz-adv-x="1511" d="M20 0v315h111l371 1158h506l370 -1158h113v-315h-666v315h115l-29 136h-313l-29 -136h115v-315h-664zM334 1565l213 329h405l213 -329h-321l-92 170h-4l-93 -170h-321zM664 741h180l-47 203q-11 48 -20.5 97.5t-12.5 74.5l-4 25h-10q-10 -91 -37 -197z" />
<glyph unicode="&#xc3;" horiz-adv-x="1511" d="M20 0v315h111l371 1158h506l370 -1158h113v-315h-666v315h115l-29 136h-313l-29 -136h115v-315h-664zM307 1563q0 166 70.5 252t200.5 86q58 0 102.5 -18t66.5 -39.5t50.5 -39.5t56.5 -18q72 0 72 108h266q0 -165 -70 -251.5t-198 -86.5q-59 0 -104 18.5t-67 40t-50 40 t-56 18.5q-72 0 -72 -110h-268zM664 741h180l-47 203q-11 48 -20.5 97.5t-12.5 74.5l-4 25h-10q-10 -91 -37 -197z" />
<glyph unicode="&#xc4;" horiz-adv-x="1511" d="M20 0v315h111l371 1158h506l370 -1158h113v-315h-666v315h115l-29 136h-313l-29 -136h115v-315h-664zM338 1569v325h299v-325h-299zM664 741h180l-47 203q-11 48 -20.5 97.5t-12.5 74.5l-4 25h-10q-10 -91 -37 -197zM862 1569v325h301v-325h-301z" />
<glyph unicode="&#xc5;" horiz-adv-x="1511" d="M20 0v315h111l371 1158h506l370 -1158h113v-315h-666v315h115l-29 136h-313l-29 -136h115v-315h-664zM487 1735q0 67 41 114t98.5 66.5t123.5 19.5q67 0 125.5 -19.5t100.5 -66.5t42 -114t-42 -113t-100.5 -65t-125.5 -19q-66 0 -123.5 19t-98.5 65t-41 113zM664 741h180 l-47 203q-11 48 -20.5 97.5t-12.5 74.5l-4 25h-10q-10 -91 -37 -197zM676 1735q0 -35 20 -56.5t54 -21.5q35 0 57 21.5t22 56.5q0 37 -21.5 58.5t-57.5 21.5q-33 0 -53.5 -22t-20.5 -58z" />
<glyph unicode="&#xc6;" horiz-adv-x="2091" d="M18 0v315h103l354 842h-137v316h1640v-478h-342v135h-211v-217h375v-344h-375v-227h232v135h342v-477h-1178v315h162v263h-330l-96 -263h131v-315h-670zM778 897h205v233h-117z" />
<glyph unicode="&#xc7;" horiz-adv-x="1536" d="M55 737q0 217 104.5 392t282 271.5t392.5 96.5q62 0 133.5 -7t158.5 -28t155.5 -52t115.5 -85.5t47 -122.5v-258h-391v113q0 71 -199 71q-159 0 -250.5 -92t-91.5 -272q0 -206 101 -313t266 -107q25 0 51 2.5t60 8.5t55.5 22t21.5 39v112h393v-262q0 -62 -39.5 -112 t-99.5 -81t-139.5 -53t-150 -32t-140.5 -13l-29 -71q90 -5 149.5 -53t59.5 -134q0 -72 -48.5 -122t-116 -70.5t-146.5 -20.5q-34 0 -73 5t-61 11l-22 5v174q46 -18 105 -18q36 0 66 10.5t30 36.5q0 53 -113 53h-57l72 205q-191 29 -339 133.5t-230.5 265.5t-82.5 352z" />
<glyph unicode="&#xc8;" horiz-adv-x="1376" d="M98 0v315h156v842h-156v316h1168v-478h-369v135h-201v-217h389v-344h-389v-227h222v131h368v-473h-1188zM268 1894h412l233 -329h-323z" />
<glyph unicode="&#xc9;" horiz-adv-x="1376" d="M98 0v315h156v842h-156v316h1168v-478h-369v135h-201v-217h389v-344h-389v-227h222v131h368v-473h-1188zM524 1565l232 329h411l-321 -329h-322z" />
<glyph unicode="&#xca;" horiz-adv-x="1376" d="M98 0v315h156v842h-156v316h1168v-478h-369v135h-201v-217h389v-344h-389v-227h222v131h368v-473h-1188zM301 1565l213 329h406l213 -329h-322l-92 170h-4l-92 -170h-322z" />
<glyph unicode="&#xcb;" horiz-adv-x="1376" d="M98 0v315h156v842h-156v316h1168v-478h-369v135h-201v-217h389v-344h-389v-227h222v131h368v-473h-1188zM307 1569v325h299v-325h-299zM831 1569v325h302v-325h-302z" />
<glyph unicode="&#xcc;" horiz-adv-x="950" d="M27 1894h411l234 -329h-324zM98 0v315h156v842h-156v316h754v-316h-156v-842h156v-315h-754z" />
<glyph unicode="&#xcd;" horiz-adv-x="950" d="M98 0v315h156v842h-156v316h754v-316h-156v-842h156v-315h-754zM283 1565l231 329h412l-322 -329h-321z" />
<glyph unicode="&#xce;" horiz-adv-x="950" d="M61 1565l213 329h406l213 -329h-322l-92 170h-4l-92 -170h-322zM98 0v315h156v842h-156v316h754v-316h-156v-842h156v-315h-754z" />
<glyph unicode="&#xcf;" horiz-adv-x="950" d="M66 1569v325h299v-325h-299zM98 0v315h156v842h-156v316h754v-316h-156v-842h156v-315h-754zM590 1569v325h301v-325h-301z" />
<glyph unicode="&#xd0;" horiz-adv-x="1634" d="M98 0v315h156v240h-137v342h137v260h-156v316h701q358 0 565 -194.5t207 -539.5t-207.5 -542t-564.5 -197h-701zM696 342h88q157 0 243.5 102t86.5 295q0 191 -88.5 291t-241.5 100h-88v-233h195v-342h-195v-213z" />
<glyph unicode="&#xd1;" horiz-adv-x="1777" d="M98 0v315h156v842h-156v316h607l339 -654q16 -32 33 -74.5t26 -68.5l9 -27h10q-14 111 -14 185v323h-166v316h764v-316h-156v-1157h-446l-344 649q-16 31 -33 73.5t-26 69.5l-9 27h-10q14 -110 14 -186v-318h166v-315h-764zM453 1563q0 166 70 252t200 86q58 0 102.5 -18 t66.5 -39.5t50.5 -39.5t56.5 -18q72 0 72 108h266q0 -165 -70 -251.5t-198 -86.5q-59 0 -104 18.5t-66.5 40t-49.5 40t-56 18.5q-72 0 -72 -110h-268z" />
<glyph unicode="&#xd2;" horiz-adv-x="1675" d="M55 745q0 157 58.5 295.5t160.5 239t248.5 159t315.5 58.5t315.5 -58.5t248.5 -159t160 -239t58 -295.5q0 -214 -99 -390t-278.5 -278t-404.5 -102q-169 0 -315.5 60t-248.5 163t-160.5 245t-58.5 302zM389 1894h412l233 -329h-323zM512 745q0 -165 95.5 -277t230.5 -112 t230 111.5t95 277.5q0 158 -95 264.5t-230 106.5t-230.5 -106.5t-95.5 -264.5z" />
<glyph unicode="&#xd3;" horiz-adv-x="1675" d="M55 745q0 157 58.5 295.5t160.5 239t248.5 159t315.5 58.5t315.5 -58.5t248.5 -159t160 -239t58 -295.5q0 -214 -99 -390t-278.5 -278t-404.5 -102q-169 0 -315.5 60t-248.5 163t-160.5 245t-58.5 302zM512 745q0 -165 95.5 -277t230.5 -112t230 111.5t95 277.5 q0 158 -95 264.5t-230 106.5t-230.5 -106.5t-95.5 -264.5zM645 1565l232 329h411l-321 -329h-322z" />
<glyph unicode="&#xd4;" horiz-adv-x="1675" d="M55 745q0 157 58.5 295.5t160.5 239t248.5 159t315.5 58.5t315.5 -58.5t248.5 -159t160 -239t58 -295.5q0 -214 -99 -390t-278.5 -278t-404.5 -102q-169 0 -315.5 60t-248.5 163t-160.5 245t-58.5 302zM422 1565l213 329h405l213 -329h-321l-92 170h-4l-93 -170h-321z M512 745q0 -165 95.5 -277t230.5 -112t230 111.5t95 277.5q0 158 -95 264.5t-230 106.5t-230.5 -106.5t-95.5 -264.5z" />
<glyph unicode="&#xd5;" horiz-adv-x="1675" d="M55 745q0 157 58.5 295.5t160.5 239t248.5 159t315.5 58.5t315.5 -58.5t248.5 -159t160 -239t58 -295.5q0 -214 -99 -390t-278.5 -278t-404.5 -102q-169 0 -315.5 60t-248.5 163t-160.5 245t-58.5 302zM395 1563q0 166 70.5 252t200.5 86q58 0 102.5 -18t66.5 -39.5 t50.5 -39.5t56.5 -18q72 0 72 108h266q0 -165 -70 -251.5t-198 -86.5q-59 0 -104 18.5t-67 40t-50 40t-56 18.5q-71 0 -71 -110h-269zM512 745q0 -165 95.5 -277t230.5 -112t230 111.5t95 277.5q0 158 -95 264.5t-230 106.5t-230.5 -106.5t-95.5 -264.5z" />
<glyph unicode="&#xd6;" horiz-adv-x="1675" d="M55 745q0 157 58.5 295.5t160.5 239t248.5 159t315.5 58.5t315.5 -58.5t248.5 -159t160 -239t58 -295.5q0 -214 -99 -390t-278.5 -278t-404.5 -102q-169 0 -315.5 60t-248.5 163t-160.5 245t-58.5 302zM426 1569v325h299v-325h-299zM512 745q0 -165 95.5 -277t230.5 -112 t230 111.5t95 277.5q0 158 -95 264.5t-230 106.5t-230.5 -106.5t-95.5 -264.5zM950 1569v325h301v-325h-301z" />
<glyph unicode="&#xd7;" d="M84 223l350 367l-350 368l225 224l342 -359l344 359l226 -224l-353 -368l353 -367l-226 -223l-344 358l-342 -358z" />
<glyph unicode="&#xd8;" horiz-adv-x="1675" d="M55 745q0 157 58.5 295.5t160.5 239t248.5 159t315.5 58.5q198 0 368 -82l78 107l143 -99l-73 -102q126 -104 196 -253.5t70 -322.5q0 -214 -99 -390t-278.5 -278t-404.5 -102q-210 0 -392 95l-94 -129l-141 100l94 129q-119 105 -184.5 254t-65.5 321zM512 745 q0 -125 53 -217l404 557q-71 31 -131 31q-135 0 -230.5 -106.5t-95.5 -264.5zM686 399q72 -43 152 -43q135 0 230 111.5t95 277.5q0 127 -65 224z" />
<glyph unicode="&#xd9;" horiz-adv-x="1701" d="M53 1157v316h748v-316h-152v-590q0 -71 29 -127q22 -39 68.5 -61.5t107.5 -22.5q113 0 168 80q31 47 31 131v590h-152v316h750v-316h-156v-588q0 -113 -35 -218t-96 -177q-85 -99 -222.5 -149t-289.5 -50q-157 0 -291 50.5t-219 140.5q-135 144 -135 403v588h-154z M401 1894h412l234 -329h-324z" />
<glyph unicode="&#xda;" horiz-adv-x="1701" d="M53 1157v316h748v-316h-152v-590q0 -71 29 -127q22 -39 68.5 -61.5t107.5 -22.5q113 0 168 80q31 47 31 131v590h-152v316h750v-316h-156v-588q0 -113 -35 -218t-96 -177q-85 -99 -222.5 -149t-289.5 -50q-157 0 -291 50.5t-219 140.5q-135 144 -135 403v588h-154z M659 1565l232 329h412l-322 -329h-322z" />
<glyph unicode="&#xdb;" horiz-adv-x="1701" d="M53 1157v316h748v-316h-152v-590q0 -71 29 -127q22 -39 68.5 -61.5t107.5 -22.5q113 0 168 80q31 47 31 131v590h-152v316h750v-316h-156v-588q0 -113 -35 -218t-96 -177q-85 -99 -222.5 -149t-289.5 -50q-157 0 -291 50.5t-219 140.5q-135 144 -135 403v588h-154z M436 1565l213 329h406l213 -329h-322l-92 170h-4l-92 -170h-322z" />
<glyph unicode="&#xdc;" horiz-adv-x="1701" d="M53 1157v316h748v-316h-152v-590q0 -71 29 -127q22 -39 68.5 -61.5t107.5 -22.5q113 0 168 80q31 47 31 131v590h-152v316h750v-316h-156v-588q0 -113 -35 -218t-96 -177q-85 -99 -222.5 -149t-289.5 -50q-157 0 -291 50.5t-219 140.5q-135 144 -135 403v588h-154z M440 1569v325h299v-325h-299zM965 1569v325h301v-325h-301z" />
<glyph unicode="&#xdd;" horiz-adv-x="1394" d="M20 1157v316h627v-316h-80l95 -184q11 -22 19.5 -41.5t11.5 -27.5l3 -9h4q10 31 35 78l94 184h-79v316h624v-316h-119l-337 -563v-279h155v-315h-754v315h156v279l-336 563h-119zM510 1565l231 329h412l-322 -329h-321z" />
<glyph unicode="&#xde;" horiz-adv-x="1396" d="M98 0v315h156v842h-156v316h754v-316h-166v-90h260q217 0 330 -86.5t113 -239.5q0 -158 -113 -250t-328 -92h-262v-84h166v-315h-754zM686 666h139q71 0 98 18.5t27 52.5q0 31 -25 47.5t-91 16.5h-148v-135z" />
<glyph unicode="&#xdf;" horiz-adv-x="1398" d="M59 0v303h119v774q0 101 48 183t126.5 132.5t173 77.5t193.5 27q139 0 259 -50t195.5 -145.5t75.5 -216.5q0 -59 -18.5 -108.5t-41 -76.5t-41 -58.5t-18.5 -59.5q0 -31 24 -61t58 -59.5t68 -66t58 -97t24 -136.5q0 -182 -122.5 -279t-321.5 -97q-60 0 -113 8.5t-77 17.5 l-23 8v345q92 -27 153 -27q78 0 78 45q0 22 -24.5 48.5t-59 55.5t-69 64t-59 87.5t-24.5 113.5q0 55 19 104t41.5 77.5t41.5 64t19 67.5q0 80 -108 80q-107 0 -107 -98v-1047h-547z" />
<glyph unicode="&#xe0;" horiz-adv-x="1216" d="M35 295q0 63 22 115t57.5 87.5t84.5 62.5t98 42.5t104 25t96.5 12.5t80.5 3h61v47q0 34 -33.5 51t-81.5 17q-59 0 -131 -25t-115 -51l-42 -25l-144 287q8 6 22.5 15.5t62.5 34t100.5 43.5t133.5 34.5t164 15.5q233 0 362.5 -115.5t129.5 -328.5v-295q0 -21 12 -33t33 -12 h66v-303h-351q-74 0 -110.5 41t-36.5 90v2l2 17h-4q-3 -7 -10 -18t-33 -40t-57.5 -51.5t-85.5 -40.5t-115 -18q-143 0 -242.5 88t-99.5 225zM133 1473h412l233 -330h-323zM446 336q0 -35 20.5 -55.5t51.5 -20.5q47 0 87 42t40 110v41h-24q-89 0 -132 -35t-43 -82z" />
<glyph unicode="&#xe1;" horiz-adv-x="1216" d="M35 295q0 63 22 115t57.5 87.5t84.5 62.5t98 42.5t104 25t96.5 12.5t80.5 3h61v47q0 34 -33.5 51t-81.5 17q-59 0 -131 -25t-115 -51l-42 -25l-144 287q8 6 22.5 15.5t62.5 34t100.5 43.5t133.5 34.5t164 15.5q233 0 362.5 -115.5t129.5 -328.5v-295q0 -21 12 -33t33 -12 h66v-303h-351q-74 0 -110.5 41t-36.5 90v2l2 17h-4q-3 -7 -10 -18t-33 -40t-57.5 -51.5t-85.5 -40.5t-115 -18q-143 0 -242.5 88t-99.5 225zM389 1143l232 330h411l-321 -330h-322zM446 336q0 -35 20.5 -55.5t51.5 -20.5q47 0 87 42t40 110v41h-24q-89 0 -132 -35t-43 -82z " />
<glyph unicode="&#xe2;" horiz-adv-x="1216" d="M35 295q0 63 22 115t57.5 87.5t84.5 62.5t98 42.5t104 25t96.5 12.5t80.5 3h61v47q0 34 -33.5 51t-81.5 17q-59 0 -131 -25t-115 -51l-42 -25l-144 287q8 6 22.5 15.5t62.5 34t100.5 43.5t133.5 34.5t164 15.5q233 0 362.5 -115.5t129.5 -328.5v-295q0 -21 12 -33t33 -12 h66v-303h-351q-74 0 -110.5 41t-36.5 90v2l2 17h-4q-3 -7 -10 -18t-33 -40t-57.5 -51.5t-85.5 -40.5t-115 -18q-143 0 -242.5 88t-99.5 225zM168 1143l213 330h405l213 -330h-321l-92 170h-4l-93 -170h-321zM446 336q0 -35 20.5 -55.5t51.5 -20.5q47 0 87 42t40 110v41h-24 q-89 0 -132 -35t-43 -82z" />
<glyph unicode="&#xe3;" horiz-adv-x="1216" d="M35 295q0 63 22 115t57.5 87.5t84.5 62.5t98 42.5t104 25t96.5 12.5t80.5 3h61v47q0 34 -33.5 51t-81.5 17q-59 0 -131 -25t-115 -51l-42 -25l-144 287q8 6 22.5 15.5t62.5 34t100.5 43.5t133.5 34.5t164 15.5q233 0 362.5 -115.5t129.5 -328.5v-295q0 -21 12 -33t33 -12 h66v-303h-351q-74 0 -110.5 41t-36.5 90v2l2 17h-4q-3 -7 -10 -18t-33 -40t-57.5 -51.5t-85.5 -40.5t-115 -18q-143 0 -242.5 88t-99.5 225zM141 1141q0 166 70.5 252t200.5 86q58 0 102.5 -18t66.5 -39.5t50.5 -39.5t56.5 -18q72 0 72 109h266q0 -165 -70 -251.5 t-198 -86.5q-59 0 -104 18t-67 40t-50 40t-56 18q-71 0 -71 -110h-269zM446 336q0 -35 20.5 -55.5t51.5 -20.5q47 0 87 42t40 110v41h-24q-89 0 -132 -35t-43 -82z" />
<glyph unicode="&#xe4;" horiz-adv-x="1216" d="M35 295q0 63 22 115t57.5 87.5t84.5 62.5t98 42.5t104 25t96.5 12.5t80.5 3h61v47q0 34 -33.5 51t-81.5 17q-59 0 -131 -25t-115 -51l-42 -25l-144 287q8 6 22.5 15.5t62.5 34t100.5 43.5t133.5 34.5t164 15.5q233 0 362.5 -115.5t129.5 -328.5v-295q0 -21 12 -33t33 -12 h66v-303h-351q-74 0 -110.5 41t-36.5 90v2l2 17h-4q-3 -7 -10 -18t-33 -40t-57.5 -51.5t-85.5 -40.5t-115 -18q-143 0 -242.5 88t-99.5 225zM172 1147v326h299v-326h-299zM446 336q0 -35 20.5 -55.5t51.5 -20.5q47 0 87 42t40 110v41h-24q-89 0 -132 -35t-43 -82zM696 1147 v326h301v-326h-301z" />
<glyph unicode="&#xe5;" horiz-adv-x="1216" d="M35 295q0 63 22 115t57.5 87.5t84.5 62.5t98 42.5t104 25t96.5 12.5t80.5 3h61v47q0 34 -33.5 51t-81.5 17q-59 0 -131 -25t-115 -51l-42 -25l-144 287q8 6 22.5 15.5t62.5 34t100.5 43.5t133.5 34.5t164 15.5q233 0 362.5 -115.5t129.5 -328.5v-295q0 -21 12 -33t33 -12 h66v-303h-351q-74 0 -110.5 41t-36.5 90v2l2 17h-4q-3 -7 -10 -18t-33 -40t-57.5 -51.5t-85.5 -40.5t-115 -18q-143 0 -242.5 88t-99.5 225zM319 1313q0 67 41 114t98.5 66.5t123.5 19.5q67 0 125.5 -19.5t100.5 -66.5t42 -114t-42 -113t-100.5 -65t-125.5 -19 q-66 0 -123.5 19t-98.5 65t-41 113zM446 336q0 -35 20.5 -55.5t51.5 -20.5q47 0 87 42t40 110v41h-24q-89 0 -132 -35t-43 -82zM508 1313q0 -35 20 -56.5t54 -21.5q35 0 57.5 21.5t22.5 56.5q0 36 -22 58t-58 22q-33 0 -53.5 -22t-20.5 -58z" />
<glyph unicode="&#xe6;" horiz-adv-x="1732" d="M35 303q0 65 25.5 118.5t65.5 88t96.5 61t110.5 40t117 22t105.5 10.5t85.5 2v35q0 34 -14.5 52t-31 22t-42.5 4q-45 0 -93.5 -10.5t-86 -25t-69 -29.5t-48.5 -25l-16 -11l-144 287q8 6 23 15.5t64.5 34t103.5 43.5t136.5 34.5t166.5 15.5q178 0 293 -88h4q133 88 282 88 q231 0 374 -147t143 -369q0 -29 -3 -57t-5 -42l-3 -13h-635q38 -144 207 -144q62 0 132.5 24.5t110.5 48.5l40 24l153 -279q-7 -6 -20.5 -17t-59.5 -38t-97.5 -48t-133.5 -38t-168 -17q-247 0 -407 150h-4q-5 -6 -15.5 -16t-46.5 -36t-76 -46t-104 -36t-131 -16 q-170 0 -277.5 91.5t-107.5 236.5zM451 336q0 -35 20 -55.5t51 -20.5q47 0 87 42t40 110v41h-24q-89 0 -131.5 -34.5t-42.5 -82.5zM1057 651h196q2 64 -19 107t-73 43q-89 0 -104 -150z" />
<glyph unicode="&#xe7;" horiz-adv-x="1173" d="M35 528q0 112 42.5 213.5t118 178t187.5 122t242 45.5q94 0 179 -16t157 -48.5t114.5 -88.5t42.5 -129v-189h-358v60q0 59 -117 59q-101 0 -140.5 -50.5t-39.5 -139.5q0 -115 60.5 -167t158.5 -52q176 0 311 108l140 -297q-170 -158 -463 -162l-29 -71q91 -5 150 -53 t59 -134q0 -72 -47.5 -122t-115.5 -70.5t-148 -20.5q-34 0 -72.5 5t-60.5 11l-21 5v174q43 -18 104 -18q36 0 66.5 10.5t30.5 36.5q0 53 -113 53h-59l73 211q-196 47 -324 188.5t-128 347.5z" />
<glyph unicode="&#xe8;" horiz-adv-x="1157" d="M37 541q0 108 37.5 206.5t106.5 174t176 120.5t237 45q238 0 377 -142t139 -361q0 -26 -2 -55.5t-4 -45.5l-2 -16h-635q39 -141 201 -141q63 0 135.5 23t113.5 46l41 23l150 -293q-7 -6 -21 -16t-61 -36t-98 -46t-131 -36t-162 -16q-119 0 -219 32t-169 86.5t-117 127 t-70.5 153.5t-22.5 167zM143 1473h412l233 -330h-323zM475 651h197q2 64 -19 107t-73 43q-90 0 -105 -150z" />
<glyph unicode="&#xe9;" horiz-adv-x="1157" d="M37 541q0 108 37.5 206.5t106.5 174t176 120.5t237 45q238 0 377 -142t139 -361q0 -26 -2 -55.5t-4 -45.5l-2 -16h-635q39 -141 201 -141q63 0 135.5 23t113.5 46l41 23l150 -293q-7 -6 -21 -16t-61 -36t-98 -46t-131 -36t-162 -16q-119 0 -219 32t-169 86.5t-117 127 t-70.5 153.5t-22.5 167zM399 1143l232 330h411l-321 -330h-322zM475 651h197q2 64 -19 107t-73 43q-90 0 -105 -150z" />
<glyph unicode="&#xea;" horiz-adv-x="1157" d="M37 541q0 108 37.5 206.5t106.5 174t176 120.5t237 45q238 0 377 -142t139 -361q0 -26 -2 -55.5t-4 -45.5l-2 -16h-635q39 -141 201 -141q63 0 135.5 23t113.5 46l41 23l150 -293q-7 -6 -21 -16t-61 -36t-98 -46t-131 -36t-162 -16q-119 0 -219 32t-169 86.5t-117 127 t-70.5 153.5t-22.5 167zM176 1143l213 330h406l213 -330h-322l-92 170h-4l-92 -170h-322zM475 651h197q2 64 -19 107t-73 43q-90 0 -105 -150z" />
<glyph unicode="&#xeb;" horiz-adv-x="1157" d="M37 541q0 108 37.5 206.5t106.5 174t176 120.5t237 45q238 0 377 -142t139 -361q0 -26 -2 -55.5t-4 -45.5l-2 -16h-635q39 -141 201 -141q63 0 135.5 23t113.5 46l41 23l150 -293q-7 -6 -21 -16t-61 -36t-98 -46t-131 -36t-162 -16q-119 0 -219 32t-169 86.5t-117 127 t-70.5 153.5t-22.5 167zM182 1147v326h299v-326h-299zM475 651h197q2 64 -19 107t-73 43q-90 0 -105 -150zM707 1147v326h301v-326h-301z" />
<glyph unicode="&#xec;" horiz-adv-x="806" d="M-39 1473h412l233 -330h-323zM63 760v303h566v-760h125v-303h-678v303h125v457h-138z" />
<glyph unicode="&#xed;" horiz-adv-x="806" d="M63 760v303h566v-760h125v-303h-678v303h125v457h-138zM217 1143l232 330h411l-321 -330h-322z" />
<glyph unicode="&#xee;" horiz-adv-x="806" d="M-4 1143l213 330h405l213 -330h-321l-92 170h-4l-93 -170h-321zM63 760v303h566v-760h125v-303h-678v303h125v457h-138z" />
<glyph unicode="&#xef;" horiz-adv-x="806" d="M31 1147v326h299v-326h-299zM63 760v303h566v-760h125v-303h-678v303h125v457h-138zM494 1147v326h301v-326h-301z" />
<glyph unicode="&#xf0;" horiz-adv-x="1224" d="M47 485q0 124 56.5 229.5t160.5 169.5t232 64q32 0 64 -4t48 -8l15 -4l2 4q-17 24 -60 57.5t-76 48.5l-391 -153l11 174l190 74q-45 19 -105.5 39t-89.5 24l117 330q141 -28 283.5 -84t251.5 -123l317 133l-10 -176l-168 -70q121 -123 189.5 -283.5t68.5 -336.5 q0 -90 -18 -175t-60 -166t-104.5 -141t-157.5 -96.5t-213 -36.5q-130 0 -237.5 43.5t-175 116t-104 163t-36.5 187.5zM477 473q0 -38 8.5 -68t35.5 -53.5t71 -23.5q69 0 100 50t31 120q0 129 -115 129q-131 0 -131 -154z" />
<glyph unicode="&#xf1;" horiz-adv-x="1464" d="M66 760v303h383q74 0 113.5 -33.5t39.5 -91.5l-4 -53h4q2 4 5.5 11.5t17 28.5t30.5 40t46 42t62.5 40t81.5 28.5t101 11.5q57 0 106 -10.5t97 -38.5t81.5 -71t54 -113t20.5 -160v-391h118v-303h-546v606q0 53 -19.5 74.5t-62.5 21.5q-89 0 -130.5 -70.5t-41.5 -172.5 v-156h118v-303h-665v303h119v412q0 21 -12 33t-33 12h-84zM311 1141q0 166 70.5 252t200.5 86q58 0 102.5 -18t66.5 -39.5t50.5 -39.5t56.5 -18q72 0 72 109h266q0 -165 -70 -251.5t-198 -86.5q-59 0 -104 18t-67 40t-50 40t-56 18q-71 0 -71 -110h-269z" />
<glyph unicode="&#xf2;" horiz-adv-x="1302" d="M35 526q0 166 82.5 295t222 197.5t309.5 68.5q172 0 312.5 -68.5t223.5 -197.5t83 -295q0 -123 -48.5 -227.5t-132 -174.5t-196 -109.5t-240.5 -39.5q-171 0 -310.5 66.5t-222.5 193.5t-83 291zM201 1473h411l234 -330h-324zM467 526q0 -94 53 -146t131 -52t131.5 52 t53.5 146q0 96 -54 152.5t-131 56.5t-130.5 -56.5t-53.5 -152.5z" />
<glyph unicode="&#xf3;" horiz-adv-x="1302" d="M35 526q0 166 82.5 295t222 197.5t309.5 68.5q172 0 312.5 -68.5t223.5 -197.5t83 -295q0 -123 -48.5 -227.5t-132 -174.5t-196 -109.5t-240.5 -39.5q-171 0 -310.5 66.5t-222.5 193.5t-83 291zM459 1143l231 330h412l-322 -330h-321zM467 526q0 -94 53 -146t131 -52 t131.5 52t53.5 146q0 96 -54 152.5t-131 56.5t-130.5 -56.5t-53.5 -152.5z" />
<glyph unicode="&#xf4;" horiz-adv-x="1302" d="M35 526q0 166 82.5 295t222 197.5t309.5 68.5q172 0 312.5 -68.5t223.5 -197.5t83 -295q0 -123 -48.5 -227.5t-132 -174.5t-196 -109.5t-240.5 -39.5q-171 0 -310.5 66.5t-222.5 193.5t-83 291zM236 1143l213 330h405l213 -330h-322l-92 170h-4l-92 -170h-321zM467 526 q0 -94 53 -146t131 -52t131.5 52t53.5 146q0 96 -54 152.5t-131 56.5t-130.5 -56.5t-53.5 -152.5z" />
<glyph unicode="&#xf5;" horiz-adv-x="1302" d="M35 526q0 166 82.5 295t222 197.5t309.5 68.5q172 0 312.5 -68.5t223.5 -197.5t83 -295q0 -123 -48.5 -227.5t-132 -174.5t-196 -109.5t-240.5 -39.5q-171 0 -310.5 66.5t-222.5 193.5t-83 291zM209 1141q0 166 70 252t200 86q58 0 102.5 -18t67 -39.5t51 -39.5t56.5 -18 q71 0 71 109h267q0 -165 -70.5 -251.5t-198.5 -86.5q-48 0 -86 12t-61.5 29t-43 34t-40.5 29t-45 12q-72 0 -72 -110h-268zM467 526q0 -94 53 -146t131 -52t131.5 52t53.5 146q0 96 -54 152.5t-131 56.5t-130.5 -56.5t-53.5 -152.5z" />
<glyph unicode="&#xf6;" horiz-adv-x="1302" d="M35 526q0 166 82.5 295t222 197.5t309.5 68.5q172 0 312.5 -68.5t223.5 -197.5t83 -295q0 -123 -48.5 -227.5t-132 -174.5t-196 -109.5t-240.5 -39.5q-171 0 -310.5 66.5t-222.5 193.5t-83 291zM240 1147v326h299v-326h-299zM467 526q0 -94 53 -146t131 -52t131.5 52 t53.5 146q0 96 -54 152.5t-131 56.5t-130.5 -56.5t-53.5 -152.5zM764 1147v326h301v-326h-301z" />
<glyph unicode="&#xf7;" d="M74 432v316h1157v-316h-1157zM477 -43v319h348v-319h-348zM477 905v320h348v-320h-348z" />
<glyph unicode="&#xf8;" horiz-adv-x="1304" d="M37 526q0 166 82.5 295t222 197.5t309.5 68.5q157 0 287 -59l88 121l113 -74l-82 -114q101 -75 157 -186.5t56 -248.5q0 -123 -48.5 -227.5t-132 -174.5t-196 -109.5t-240.5 -39.5q-140 0 -272 50l-90 -125l-113 77l82 113q-105 74 -164 186t-59 250zM469 526 q0 -61 27 -110l221 307q-30 12 -64 12q-77 0 -130.5 -56.5t-53.5 -152.5zM604 334q21 -6 49 -6q78 0 131.5 52t53.5 146q0 52 -21 103z" />
<glyph unicode="&#xf9;" horiz-adv-x="1445" d="M39 760v303h557v-619q0 -53 18.5 -74.5t59.5 -21.5q80 0 123 74.5t43 183.5v154h-129v303h557v-713q0 -45 45 -45h78v-305h-377q-75 0 -114.5 33.5t-39.5 97.5l4 51h-4q-3 -8 -9 -22t-33 -50t-61 -63t-97 -49.5t-138 -22.5q-71 0 -130.5 19.5t-111.5 62.5t-82 122.5 t-30 189.5v391h-129zM231 1473h412l234 -330h-324z" />
<glyph unicode="&#xfa;" horiz-adv-x="1445" d="M39 760v303h557v-619q0 -53 18.5 -74.5t59.5 -21.5q80 0 123 74.5t43 183.5v154h-129v303h557v-713q0 -45 45 -45h78v-305h-377q-75 0 -114.5 33.5t-39.5 97.5l4 51h-4q-3 -8 -9 -22t-33 -50t-61 -63t-97 -49.5t-138 -22.5q-71 0 -130.5 19.5t-111.5 62.5t-82 122.5 t-30 189.5v391h-129zM487 1143l232 330h411l-321 -330h-322z" />
<glyph unicode="&#xfb;" horiz-adv-x="1445" d="M39 760v303h557v-619q0 -53 18.5 -74.5t59.5 -21.5q80 0 123 74.5t43 183.5v154h-129v303h557v-713q0 -45 45 -45h78v-305h-377q-75 0 -114.5 33.5t-39.5 97.5l4 51h-4q-3 -8 -9 -22t-33 -50t-61 -63t-97 -49.5t-138 -22.5q-71 0 -130.5 19.5t-111.5 62.5t-82 122.5 t-30 189.5v391h-129zM266 1143l213 330h406l213 -330h-322l-92 170h-4l-92 -170h-322z" />
<glyph unicode="&#xfc;" horiz-adv-x="1445" d="M39 760v303h557v-619q0 -53 18.5 -74.5t59.5 -21.5q80 0 123 74.5t43 183.5v154h-129v303h557v-713q0 -45 45 -45h78v-305h-377q-75 0 -114.5 33.5t-39.5 97.5l4 51h-4q-3 -8 -9 -22t-33 -50t-61 -63t-97 -49.5t-138 -22.5q-71 0 -130.5 19.5t-111.5 62.5t-82 122.5 t-30 189.5v391h-129zM270 1147v326h299v-326h-299zM795 1147v326h301v-326h-301z" />
<glyph unicode="&#xfd;" horiz-adv-x="1314" d="M4 -340l127 299q7 -5 20.5 -13.5t61.5 -22t104 -13.5q54 0 100.5 17t57.5 46l-346 787h-113v303h613v-303h-70l82 -287q10 -32 17 -71.5t8 -63.5l2 -23h8q12 86 37 158l75 287h-61v303h571v-303h-100l-305 -819q-143 -371 -551 -371q-58 0 -114 9.5t-95 22.5t-69.5 26 t-45.5 22zM469 1143l231 330h412l-321 -330h-322z" />
<glyph unicode="&#xfe;" horiz-adv-x="1341" d="M-2 1169v304h561v-383l-4 -95h4q3 4 9.5 10t29.5 22t49.5 28t70 22t91.5 10q144 0 258 -74.5t175 -200.5t61 -280t-59.5 -280t-172.5 -201.5t-258 -75.5q-51 0 -96 8t-72.5 19.5t-48 23t-28.5 19.5l-9 8h-4q4 -37 4 -90v-69h119v-304h-666v304h119v1275h-133zM547 526 q0 -106 43 -152t106 -46q46 0 81.5 18t56 48.5t30.5 66t10 74.5q0 83 -42 141.5t-127 58.5q-158 0 -158 -209z" />
<glyph unicode="&#xff;" horiz-adv-x="1314" d="M4 -340l127 299q7 -5 20.5 -13.5t61.5 -22t104 -13.5q54 0 100.5 17t57.5 46l-346 787h-113v303h613v-303h-70l82 -287q10 -32 17 -71.5t8 -63.5l2 -23h8q12 86 37 158l75 287h-61v303h571v-303h-100l-305 -819q-143 -371 -551 -371q-58 0 -114 9.5t-95 22.5t-69.5 26 t-45.5 22zM252 1147v326h299v-326h-299zM776 1147v326h301v-326h-301z" />
<glyph unicode="&#x152;" horiz-adv-x="2115" d="M51 739q0 155 65 294.5t174 239t257.5 158t308.5 58.5q86 0 162 -8t117 -8h868v-478h-342v135h-213v-221h375v-340h-375v-227h233v135h342v-477h-888q-41 0 -117 -7t-162 -7q-160 0 -308.5 59t-257.5 159.5t-174 240.5t-65 294zM498 739q0 -164 106 -282.5t252 -118.5 q42 0 79.5 3t54.5 6l16 3v772q-56 15 -150 15q-147 0 -252.5 -117t-105.5 -281z" />
<glyph unicode="&#x153;" horiz-adv-x="1957" d="M37 528q0 163 80 291.5t216 198t302 69.5q72 0 129 -9t104.5 -28.5t78.5 -37.5t77 -49h4q42 32 66.5 47.5t70.5 37t103 30.5t131 9q240 0 376 -144t136 -378l-8 -98h-635q39 -141 198 -141q64 0 137.5 23t114.5 46l41 23l150 -293q-7 -6 -21 -16t-60.5 -36t-98 -46 t-133 -36t-166.5 -16q-78 0 -139 10.5t-109.5 34.5t-74 41t-69.5 52h-4q-49 -36 -77.5 -53.5t-78.5 -41t-108 -33.5t-131 -10q-168 0 -305 68t-217 195.5t-80 289.5zM465 528q0 -92 54.5 -146t131.5 -54t131 54t54 144q0 94 -53.5 151.5t-131.5 57.5q-77 0 -131.5 -57 t-54.5 -150zM1276 651h197q2 63 -19.5 106.5t-73.5 43.5q-89 0 -104 -150z" />
<glyph unicode="&#x178;" horiz-adv-x="1394" d="M20 1157v316h627v-316h-80l95 -184q11 -22 19.5 -41.5t11.5 -27.5l3 -9h4q10 31 35 78l94 184h-79v316h624v-316h-119l-337 -563v-279h155v-315h-754v315h156v279l-336 563h-119zM293 1569v325h299v-325h-299zM817 1569v325h301v-325h-301z" />
<glyph unicode="&#x2c6;" horiz-adv-x="983" d="M76 1565l213 329h405l213 -329h-321l-92 170h-5l-92 -170h-321z" />
<glyph unicode="&#x2dc;" horiz-adv-x="978" d="M47 1563q0 166 70 252t200 86q58 0 102.5 -18t67 -39.5t51 -39.5t56.5 -18q72 0 72 108h266q0 -165 -70 -251.5t-198 -86.5q-59 0 -104 18.5t-67 40t-50 40t-56 18.5q-72 0 -72 -110h-268z" />
<glyph unicode="&#x2000;" horiz-adv-x="967" />
<glyph unicode="&#x2001;" horiz-adv-x="1935" />
<glyph unicode="&#x2002;" horiz-adv-x="967" />
<glyph unicode="&#x2003;" horiz-adv-x="1935" />
<glyph unicode="&#x2004;" horiz-adv-x="645" />
<glyph unicode="&#x2005;" horiz-adv-x="483" />
<glyph unicode="&#x2006;" horiz-adv-x="322" />
<glyph unicode="&#x2007;" horiz-adv-x="322" />
<glyph unicode="&#x2008;" horiz-adv-x="241" />
<glyph unicode="&#x2009;" horiz-adv-x="387" />
<glyph unicode="&#x200a;" horiz-adv-x="107" />
<glyph unicode="&#x2010;" horiz-adv-x="915" d="M125 406v368h666v-368h-666z" />
<glyph unicode="&#x2011;" horiz-adv-x="915" d="M125 406v368h666v-368h-666z" />
<glyph unicode="&#x2012;" horiz-adv-x="915" d="M125 406v368h666v-368h-666z" />
<glyph unicode="&#x2013;" horiz-adv-x="1538" d="M125 432v316h1288v-316h-1288z" />
<glyph unicode="&#x2014;" horiz-adv-x="1947" d="M125 432v316h1698v-316h-1698z" />
<glyph unicode="&#x2018;" horiz-adv-x="569" d="M51 928l205 579h283l-121 -579h-367z" />
<glyph unicode="&#x2019;" horiz-adv-x="552" d="M63 928l121 579h369l-207 -579h-283z" />
<glyph unicode="&#x201a;" horiz-adv-x="581" d="M31 -182l121 581h354l-205 -581h-270z" />
<glyph unicode="&#x201c;" horiz-adv-x="1032" d="M51 928l205 579h287l-121 -579h-371zM512 928l205 579h284l-120 -579h-369z" />
<glyph unicode="&#x201d;" horiz-adv-x="1015" d="M63 928l121 579h371l-205 -579h-287zM524 928l121 579h371l-207 -579h-285z" />
<glyph unicode="&#x201e;" horiz-adv-x="1026" d="M31 -182l121 581h354l-205 -581h-270zM475 -182l121 581h354l-205 -581h-270z" />
<glyph unicode="&#x2022;" horiz-adv-x="964" d="M72 596q0 171 119.5 291.5t289.5 120.5t291 -121t121 -291t-121 -291t-291 -121t-289.5 120.5t-119.5 291.5z" />
<glyph unicode="&#x2026;" horiz-adv-x="2043" d="M109 0v391h376v-391h-376zM834 0v391h376v-391h-376zM1559 0v391h376v-391h-376z" />
<glyph unicode="&#x202f;" horiz-adv-x="387" />
<glyph unicode="&#x2039;" horiz-adv-x="831" d="M45 578l336 421h381l-336 -421l336 -420h-381z" />
<glyph unicode="&#x203a;" horiz-adv-x="833" d="M70 158l336 420l-336 421h383l335 -421l-335 -420h-383z" />
<glyph unicode="&#x205f;" horiz-adv-x="483" />
<glyph unicode="&#x20ac;" horiz-adv-x="1277" d="M72 459v213h114q-4 78 -2 116h-112v216h153q75 217 269.5 355t443.5 138q57 0 121 -7.5t99 -15.5l36 -8l-100 -362q-82 26 -170 26q-162 0 -242 -126h385l-49 -216h-385q-3 -55 6 -116h358l-49 -213h-235q80 -109 235 -109q45 0 96 9t79 19l28 9l66 -367 q-13 -5 -37 -12.5t-97.5 -20t-146.5 -12.5q-254 0 -440 132.5t-265 351.5h-159z" />
<glyph unicode="&#x2122;" horiz-adv-x="2000" d="M41 1241v223h836v-223h-287v-692h-258v692h-291zM915 549l72 915h242l149 -358l27 -90h4q15 59 27 90l149 358h242l67 -915h-260l-20 356l2 66h-4l-105 -256h-200l-105 256h-4l2 -66l-24 -356h-261z" />
<glyph unicode="&#x25fc;" horiz-adv-x="1064" d="M0 0v1065h1065v-1065h-1065z" />
</font>
</defs>
</svg>
