<?xml version="1.0" standalone="no"?>
<!DOCTYPE svg PUBLIC "-//W3C//DTD SVG 1.1//EN" "http://www.w3.org/Graphics/SVG/1.1/DTD/svg11.dtd" >
<svg xmlns="http://www.w3.org/2000/svg">
<metadata></metadata>
<defs>
<font id="museo_slab100" horiz-adv-x="1691" >
<font-face units-per-em="2048" ascent="1536" descent="-512" />
<missing-glyph horiz-adv-x="512" />
<glyph unicode="&#xfb01;" horiz-adv-x="1247" d="M82 944v80h194v55q0 66 12 121t31.5 91.5t47 64.5t54.5 43.5t58 25t54.5 12.5t46.5 3q20 0 38 -1.5t26 -2.5l9 -2v-80q-26 6 -67 6q-27 0 -52.5 -5t-58 -22.5t-56.5 -46t-40.5 -81.5t-16.5 -124v-57h648v-944h184v-80h-455v80h185v864h-562v-864h216v-80h-486v80h184v864 h-194zM911 1284v150h111v-150h-111z" />
<glyph unicode="&#xfb02;" horiz-adv-x="1198" d="M82 944v80h194v37q0 93 25.5 164.5t64.5 114.5t93 70.5t105 37.5t106 10q79 0 152.5 -10t107.5 -20l33 -11v-1184q0 -34 4.5 -59t17.5 -49t40.5 -36.5t68.5 -12.5l51 4l-2 -80q-37 -4 -68 -4q-99 0 -148.5 55.5t-49.5 173.5v1129q-58 24 -203 24q-46 0 -87 -8.5 t-83.5 -30.5t-73 -56t-49.5 -90.5t-19 -129.5v-39h273v-80h-273v-864h216v-80h-486v80h184v864h-194z" />
<glyph unicode="&#xfb03;" horiz-adv-x="1894" d="M82 944v80h194v55q0 66 12 121t31.5 91.5t47 64.5t54.5 43.5t58 25t54.5 12.5t46.5 3q20 0 38 -1.5t26 -2.5l9 -2v-80q-26 6 -67 6q-27 0 -52.5 -5t-58 -22.5t-56.5 -46t-40.5 -81.5t-16.5 -124v-57h562v55q0 92 23 161t56 106t77.5 59.5t78.5 28.5t68 6q20 0 38.5 -1.5 t26.5 -2.5l8 -2v-80q-26 6 -67 6q-27 0 -52 -5t-58 -22.5t-56.5 -46t-40 -81.5t-16.5 -124v-57h647v-944h184v-80h-455v80h185v864h-561v-864h215v-80h-486v80h185v864h-562v-864h216v-80h-486v80h184v864h-194zM1559 1284v150h110v-150h-110z" />
<glyph unicode="&#xfb04;" horiz-adv-x="1845" d="M82 944v80h194v55q0 77 15.5 138t42.5 99t58 64t68 38.5t66 17t58 4.5q17 0 34.5 -1.5t25.5 -2.5l9 -2v-80q-28 6 -63 6q-28 0 -54 -5t-59.5 -22.5t-57.5 -46t-40.5 -81.5t-16.5 -124v-57h562v37q0 93 25 164.5t64.5 114.5t93 70.5t104.5 37.5t106 10q79 0 152.5 -10 t106.5 -20l34 -11v-1184q0 -34 4.5 -59t17.5 -49t40.5 -36.5t68.5 -12.5l51 4l-2 -80q-37 -4 -68 -4q-99 0 -148.5 55.5t-49.5 173.5v1129q-58 24 -203 24q-46 0 -87 -8.5t-83 -30.5t-72.5 -56t-49.5 -90.5t-19 -129.5v-39h272v-80h-272v-864h215v-80h-486v80h185v864h-562 v-864h216v-80h-486v80h184v864h-194z" />
<glyph horiz-adv-x="0" />
<glyph horiz-adv-x="682" />
<glyph unicode=" "  horiz-adv-x="512" />
<glyph unicode="&#x09;" horiz-adv-x="512" />
<glyph unicode="&#xa0;" horiz-adv-x="512" />
<glyph unicode="!" horiz-adv-x="448" d="M166 0v125h121v-125h-121zM180 358v1076h88v-1076h-88z" />
<glyph unicode="&#x22;" horiz-adv-x="600" d="M150 1061v391h88v-391h-88zM362 1061v391h89v-391h-89z" />
<glyph unicode="#" horiz-adv-x="1488" d="M100 408l15 81h311l80 453h-311l14 82h311l72 410h88l-72 -410h387l72 410h88l-72 -410h306l-15 -82h-305l-80 -453h305l-14 -81h-305l-72 -408h-88l72 408h-387l-72 -408h-88l72 408h-312zM514 489h387l80 453h-387z" />
<glyph unicode="$" horiz-adv-x="1054" d="M100 184l60 68q6 -7 17 -17.5t49 -38t79.5 -48.5t106 -38.5t131.5 -17.5q136 0 227.5 78t91.5 205q0 57 -25.5 103t-68 78t-98 59.5t-117 52t-122.5 50t-116.5 58.5t-98 73t-68 98.5t-25.5 129.5q0 134 102.5 230.5t270.5 115.5v226h88v-224q60 -2 116.5 -16.5 t94.5 -33.5t67 -37.5t42 -31.5l14 -12l-48 -73q-5 5 -14.5 13t-41.5 28.5t-66 36.5t-87 29t-106 13q-154 0 -247 -76.5t-93 -185.5q0 -60 25.5 -108.5t68 -82t98 -61.5t116.5 -52t122.5 -48.5t117 -56t98 -70t68 -95t25.5 -126.5q0 -149 -100.5 -253.5t-269.5 -117.5v-221 h-88v221q-72 4 -139 24t-111.5 45t-79 49.5t-50.5 41.5z" />
<glyph unicode="%" horiz-adv-x="1400" d="M106 0l1088 1434h106l-1087 -1434h-107zM111 1190q0 110 78 189t188 79t189 -79t79 -189t-79 -188t-189 -78t-188 78t-78 188zM199 1190q0 -77 51 -130.5t127 -53.5t128 53.5t52 130.5t-52 131.5t-128 54.5t-127 -54.5t-51 -131.5zM758 242q0 110 78 189t188 79t189 -79 t79 -189t-79 -188.5t-189 -78.5t-188 78.5t-78 188.5zM846 242q0 -77 51 -131t127 -54t128 54t52 131t-52 131.5t-128 54.5t-127 -54.5t-51 -131.5z" />
<glyph unicode="&#x26;" horiz-adv-x="1347" d="M123 391q0 132 71.5 241t198.5 144v4q-8 2 -22 8t-50 30.5t-63 57t-49.5 93t-22.5 133.5q0 158 117 257t322 99q27 0 65 -5t62 -10l24 -5l-28 -78q-77 16 -130 16q-148 0 -243.5 -74t-95.5 -198q0 -36 6 -69.5t28.5 -75.5t59 -72t104.5 -51t158 -21h369v209h88v-209h198 v-82h-198v-229q0 -265 -128 -397t-350 -132q-215 0 -353 118t-138 298zM215 395q0 -143 108 -238.5t291 -95.5q184 0 287 106t103 337v229h-371q-208 0 -313 -91t-105 -247z" />
<glyph unicode="'" horiz-adv-x="387" d="M150 1061v391h88v-391h-88z" />
<glyph unicode="(" horiz-adv-x="587" d="M164 686q0 425 225 799h90q-231 -390 -231 -801q0 -476 231 -879h-90q-106 186 -165.5 415.5t-59.5 465.5z" />
<glyph unicode=")" horiz-adv-x="589" d="M111 -195q231 403 231 879q0 411 -231 801h90q225 -374 225 -799q0 -236 -59.5 -465.5t-165.5 -415.5h-90z" />
<glyph unicode="*" horiz-adv-x="974" d="M104 1122l27 86l318 -110l-11 336h97l-11 -336l320 108l28 -84l-321 -96v-4l201 -266l-72 -54l-191 275h-4l-190 -272l-74 51l203 266v4z" />
<glyph unicode="+" horiz-adv-x="1228" d="M86 539v82h485v538h88v-538h484v-82h-484v-539h-88v539h-485z" />
<glyph unicode="," horiz-adv-x="493" d="M61 -274l138 399h114l-166 -399h-86z" />
<glyph unicode="-" horiz-adv-x="1081" d="M258 539v82h565v-82h-565z" />
<glyph unicode="." horiz-adv-x="485" d="M180 0v129h125v-129h-125z" />
<glyph unicode="/" horiz-adv-x="806" d="M100 -86l518 1602h91l-519 -1602h-90z" />
<glyph unicode="0" horiz-adv-x="1257" d="M145 717q0 129 15 236.5t50.5 202.5t90 160.5t138 103.5t190.5 38t190 -38t138 -103.5t90 -160.5t50 -202.5t15 -236.5t-15 -237t-50 -203.5t-90 -161t-138 -103t-190 -37.5q-133 0 -229 56.5t-150.5 160t-79.5 233t-25 292.5zM238 717q0 -117 11 -211.5t39 -179.5 t71.5 -142.5t112 -91t157.5 -33.5t157.5 33.5t112 91t71.5 142.5t39 179.5t11 211.5q0 116 -11 210.5t-39 179.5t-71.5 142.5t-112 91t-157.5 33.5t-157.5 -33.5t-112 -91t-71.5 -142.5t-39 -179.5t-11 -210.5z" />
<glyph unicode="1" horiz-adv-x="876" d="M100 0v82h326v1167l2 72h-4q-15 -27 -76 -88l-170 -170l-61 59l309 312h88v-1352h317v-82h-731z" />
<glyph unicode="2" horiz-adv-x="1165" d="M117 76q0 80 26 150.5t70.5 125.5t101.5 105t120.5 94t127 86.5t120.5 89t101.5 95.5t70.5 111.5t26 131.5q0 133 -91 221t-243 88q-64 0 -123.5 -21.5t-98.5 -52t-69 -60.5t-44 -52l-13 -21l-66 45q5 10 15.5 26.5t48.5 59t82 75t117 59t153 26.5q103 0 185 -32.5 t133.5 -87.5t78.5 -125t27 -148t-26 -148t-70 -124t-101.5 -104t-120.5 -93.5t-126 -86.5t-120.5 -89t-101.5 -95.5t-70 -111.5t-26 -131h750v207h86v-289h-924q-6 40 -6 76z" />
<glyph unicode="3" horiz-adv-x="1128" d="M98 174l66 66q6 -7 17.5 -19.5t50 -43.5t80 -55t106.5 -43.5t131 -19.5q142 0 250 101t108 254q0 107 -56 186.5t-141.5 117.5t-185.5 38l-96 -4l-27 65l422 494q7 9 18.5 19t18.5 16l8 6v4q-38 -4 -61 -4h-555v-207h-86v289h823v-62l-463 -534q56 1 115.5 -10t125 -41.5 t116 -76.5t83.5 -122.5t33 -173.5q0 -183 -133.5 -311t-320.5 -128q-76 0 -150 20.5t-125.5 49.5t-92 58.5t-59.5 50.5z" />
<glyph unicode="4" horiz-adv-x="1177" d="M61 410v61l744 963h82v-942h213v-82h-213v-410h-88v410h-738zM184 492h615v722l6 80h-4q-20 -34 -45 -65l-572 -733v-4z" />
<glyph unicode="5" horiz-adv-x="1124" d="M106 162l68 59q4 -7 13 -17.5t40.5 -38.5t67.5 -49.5t96 -39t125 -17.5q165 0 281 111.5t116 261.5q0 174 -110.5 279.5t-280.5 105.5q-73 0 -144 -22t-106 -44l-34 -22l-66 23l82 682h666v-289h-86v207h-502l-56 -459l-12 -57h4q12 7 33.5 18t89 29t135.5 18 q202 0 341 -132t139 -325q0 -194 -143.5 -331.5t-348.5 -137.5q-77 0 -147 19.5t-115.5 46.5t-80 54.5t-49.5 46.5z" />
<glyph unicode="6" horiz-adv-x="1193" d="M137 645q0 109 21 219t69.5 218t118 191t175.5 134t233 51q65 0 127.5 -14t92.5 -28l30 -15l-43 -80q-10 6 -28 15t-73 23.5t-110 14.5q-120 0 -218.5 -58.5t-160.5 -155t-98 -211t-44 -236.5h4q60 90 170 143t236 53q192 0 316 -125t124 -331q0 -113 -35.5 -205 t-96 -151t-140 -90.5t-168.5 -31.5q-154 0 -269.5 91.5t-174 242.5t-58.5 336zM238 539q0 -76 28.5 -159t78.5 -155t127.5 -119t164.5 -47q162 0 256 110t94 284q0 170 -97.5 271t-254.5 101q-159 0 -278 -92t-119 -194z" />
<glyph unicode="7" horiz-adv-x="1069" d="M88 1145v289h940v-62l-680 -1372h-92l635 1294q8 16 17 30.5t14 21.5l4 6v4q-31 -4 -68 -4h-684v-207h-86z" />
<glyph unicode="8" horiz-adv-x="1208" d="M133 401q0 73 23.5 141t54 111.5t71 82t61 53t38.5 24.5q-191 116 -191 293q0 70 27 132.5t78.5 112t133.5 78.5t185 29q194 0 309 -100t115 -262q0 -76 -25.5 -151.5t-62.5 -129.5t-61 -83t-37 -40q103 -57 160 -130t57 -179q0 -169 -134 -288.5t-327 -119.5 q-90 0 -174.5 29t-152 82t-108 135t-40.5 180zM225 406q0 -101 56 -182t142 -123t181 -42q93 0 178.5 40.5t140 114t54.5 159.5q0 46 -14 85t-44 70.5t-63 56t-84 49.5t-94 43t-106.5 45t-108.5 48q-238 -149 -238 -364zM283 1108q0 -44 14 -82t44 -69t61.5 -55t82 -48.5 t89 -41t98.5 -41t96 -40.5q14 11 38.5 39.5t58.5 76t57.5 114t23.5 131.5q0 130 -92.5 206t-241.5 76q-150 0 -239.5 -76.5t-89.5 -189.5z" />
<glyph unicode="9" horiz-adv-x="1193" d="M115 981q0 113 35.5 205t96 150.5t140 90t168.5 31.5q154 0 269.5 -91.5t174 -242.5t58.5 -336q0 -109 -21 -219t-69.5 -218t-118 -191t-175.5 -134t-233 -51q-65 0 -127.5 14.5t-92.5 28.5l-30 15l43 80q10 -6 28 -15t73 -24t110 -15q97 0 180 38.5t142 103.5t102.5 151 t67 179t29.5 190h-4q-60 -87 -170.5 -139t-235.5 -52q-191 0 -315.5 124.5t-124.5 326.5zM207 981q0 -166 98 -266.5t254 -100.5q80 0 155 26t127 66.5t83.5 90.5t31.5 98q0 60 -17.5 126t-53 128.5t-82.5 113t-111.5 81t-134.5 30.5q-162 0 -256 -109.5t-94 -283.5z" />
<glyph unicode=":" horiz-adv-x="620" d="M248 0v129h125v-129h-125zM248 895v129h125v-129h-125z" />
<glyph unicode=";" horiz-adv-x="626" d="M145 -274l117 399h115l-146 -399h-86zM250 895v129h125v-129h-125z" />
<glyph unicode="&#x3c;" horiz-adv-x="1228" d="M141 543v73l899 404v-98l-772 -340v-4l772 -340v-99z" />
<glyph unicode="=" horiz-adv-x="1228" d="M147 375v82h934v-82h-934zM147 702v82h934v-82h-934z" />
<glyph unicode="&#x3e;" horiz-adv-x="1228" d="M186 139v99l772 340v4l-772 340v98l899 -404v-73z" />
<glyph unicode="?" horiz-adv-x="911" d="M90 1356q5 4 14 11t40 24.5t64.5 31t84 24.5t102.5 11q175 0 284 -99.5t109 -252.5q0 -69 -20.5 -127.5t-53 -100.5t-72 -80.5t-79 -74.5t-72 -74.5t-53 -89.5t-20.5 -110v-91h-88v91q0 68 20 127t52.5 102.5t71.5 83t78 76.5t71.5 75.5t52.5 88.5t20 106 q0 112 -83.5 188t-215.5 76q-67 0 -132 -21.5t-97 -42.5l-31 -22zM313 0v125h121v-125h-121z" />
<glyph unicode="@" horiz-adv-x="1542" d="M109 500q0 204 94 374.5t262.5 270.5t376.5 100q113 0 201.5 -30.5t141.5 -82.5t80 -115.5t27 -133.5v-705h144v-82h-543q-164 0 -279.5 116.5t-115.5 281.5t115.5 283t279.5 118h307q-2 52 -23 98.5t-62 85t-111 61.5t-162 23q-137 0 -257 -52.5t-204 -141.5 t-132 -211.5t-48 -259.5q0 -183 82.5 -335t227 -239.5t318.5 -87.5v-86q-147 0 -280.5 58.5t-229.5 158.5t-153 239t-57 294zM590 494q0 -131 91.5 -223.5t221.5 -92.5h297v635h-293q-133 0 -225 -94t-92 -225z" />
<glyph unicode="A" horiz-adv-x="1454" d="M20 0v82h154l506 1352h94l506 -1352h154v-82h-422v82h174l-156 414h-608l-154 -414h174v-82h-422zM453 578h546l-249 669q-6 16 -11.5 35.5t-7.5 31.5l-2 11h-4q-6 -41 -20 -78z" />
<glyph unicode="B" horiz-adv-x="1351" d="M109 0v82h194v1270h-194v82h639q147 0 243 -54q68 -38 112 -120.5t44 -186.5q0 -111 -50 -190.5t-136 -120.5v-4q107 -30 175 -128t68 -231q0 -125 -61.5 -224.5t-161.5 -141.5q-77 -33 -215 -33h-657zM391 82h375q110 0 172 27q80 33 127 108.5t47 177.5 q0 144 -88.5 231t-228.5 87h-404v-631zM391 795h391q121 0 197 77t76 203q0 78 -30.5 139t-84.5 95q-68 43 -192 43h-357v-557z" />
<glyph unicode="C" horiz-adv-x="1515" d="M121 727q0 205 94 372.5t259.5 263t367.5 95.5q56 0 120.5 -8.5t137 -29.5t130.5 -52t96 -81.5t38 -112.5v-136h-90v115q0 56 -44 100.5t-112 69.5t-139 38t-135 13q-132 0 -249 -49.5t-201 -135t-132.5 -206t-48.5 -256.5q0 -184 82 -336.5t228.5 -242t326.5 -89.5 q55 0 125 11.5t145 35.5t125.5 69.5t50.5 103.5v112h90v-133q0 -73 -55 -130t-139.5 -89t-172.5 -48t-169 -16q-208 0 -375.5 101t-260.5 273t-93 378z" />
<glyph unicode="D" horiz-adv-x="1576" d="M109 0v82h194v1270h-194v82h598q186 0 309 -39q203 -68 317.5 -246t114.5 -434q0 -266 -123.5 -443t-345.5 -241q-107 -31 -272 -31h-598zM391 82h301q156 0 264 33q186 57 293 213.5t107 388.5q0 226 -100.5 383t-278.5 217q-102 35 -285 35h-301v-1270z" />
<glyph unicode="E" horiz-adv-x="1261" d="M109 0v82h194v1270h-194v82h989v-267h-86v185h-621v-588h572v-82h-572v-600h662v197h86v-279h-1030z" />
<glyph unicode="F" horiz-adv-x="1136" d="M109 0v82h194v1270h-194v82h938v-277h-86v195h-570v-598h549v-82h-549v-590h205v-82h-487z" />
<glyph unicode="G" horiz-adv-x="1568" d="M123 717q0 156 53.5 292t148.5 235.5t234 156.5t303 57q93 0 186 -19t170.5 -54t126 -89.5t48.5 -119.5v-138h-90v109q0 72 -71.5 125.5t-170.5 77.5t-203 24q-191 0 -338.5 -87t-226 -236.5t-78.5 -335.5t80 -335.5t226 -235t331 -85.5q51 0 110 6.5t127 24t122 43 t90 68t36 94.5v256h-317v82h405v-348q0 -80 -56.5 -142.5t-145 -97.5t-182 -52.5t-181.5 -17.5q-162 0 -300.5 57t-233.5 156t-149 236t-54 293z" />
<glyph unicode="H" d="M109 0v82h194v1270h-194v82h477v-82h-195v-592h909v592h-194v82h477v-82h-194v-1270h194v-82h-477v82h194v596h-909v-596h195v-82h-477z" />
<glyph unicode="I" horiz-adv-x="694" d="M109 0v82h194v1270h-194v82h477v-82h-195v-1270h195v-82h-477z" />
<glyph unicode="J" horiz-adv-x="1095" d="M66 383v53h88v-39q0 -145 77.5 -241.5t217.5 -96.5q56 0 106 18t93.5 55.5t69 105.5t25.5 159v955h-227v82h490v-82h-175v-969q0 -108 -33 -190t-89 -128t-121.5 -68t-138.5 -22q-58 0 -111.5 13t-103.5 44t-87 77t-59 116.5t-22 157.5z" />
<glyph unicode="K" horiz-adv-x="1323" d="M109 0v82h194v1270h-194v82h477v-82h-195v-557h232l387 557h-150v82h408v-82h-152l-418 -594v-4q25 -13 60 -72l325 -541q20 -32 46 -45.5t67 -13.5h72v-82h-72q-60 0 -94.5 11t-54.5 31.5t-48 66.5l-321 536q-21 36 -47.5 52t-71.5 16h-168v-631h195v-82h-477z" />
<glyph unicode="L" horiz-adv-x="1183" d="M109 0v82h194v1270h-194v82h477v-82h-195v-1270h639v246h86v-328h-1007z" />
<glyph unicode="M" horiz-adv-x="1900" d="M74 0v82h194l101 1270h-197v82h289l461 -996l26 -67h4q11 30 27 67l461 996h289v-82h-197l100 -1270h195v-82h-477v82h194l-88 1110l2 86h-4q-15 -53 -27 -80l-432 -922h-90l-432 922l-27 80h-4l2 -86l-88 -1110h195v-82h-477z" />
<glyph unicode="N" horiz-adv-x="1685" d="M109 0v82h194v1270h-194v82h274l893 -1225q8 -12 18 -30.5t16 -30.5l5 -13h4q-1 6 -2 15.5t-3 32t-1 36.5v1133h-195v82h477v-82h-194v-1352h-82l-891 1227q-8 12 -18 30.5t-16 30.5l-5 12h-4q1 -6 2 -15.5t3 -31.5t1 -36v-1135h195v-82h-477z" />
<glyph unicode="O" d="M121 727q0 152 57.5 288t155 232.5t231.5 153.5t281 57t281 -57t231.5 -153.5t155 -232.5t57.5 -288q0 -155 -57.5 -295t-155 -240t-231.5 -158.5t-281 -58.5t-281 58.5t-231.5 158.5t-155 240t-57.5 295zM213 727q0 -185 85 -339t230 -241.5t318 -87.5t318 87.5 t230 241.5t85 339q0 180 -85 329t-230 233.5t-318 84.5t-318 -84.5t-230 -233.5t-85 -329z" />
<glyph unicode="P" horiz-adv-x="1290" d="M109 0v82h194v1270h-194v82h634q159 0 248 -43q101 -48 160 -146.5t59 -228.5q0 -143 -69.5 -247t-188.5 -146q-79 -29 -209 -29h-352v-512h195v-82h-477zM391 676h348q110 0 187 26q90 34 141 116t51 198q0 107 -44.5 183.5t-125.5 115.5q-78 37 -209 37h-348v-676z" />
<glyph unicode="Q" d="M121 725q0 152 57 288.5t153.5 233.5t230 154t280.5 57q150 0 285 -57t232.5 -154t154.5 -233.5t57 -288.5q0 -144 -50 -277t-139 -233l185 -190l-58 -56l-182 189q-202 -183 -485 -183q-196 0 -362 100t-262.5 272.5t-96.5 377.5zM213 725q0 -184 83 -337t227.5 -241 t318.5 -88q114 0 228 42t198 118l-226 234l58 55l223 -232q73 89 114.5 206t41.5 243q0 137 -49 257.5t-134 206.5t-203 135.5t-251 49.5q-131 0 -247.5 -49.5t-200 -135.5t-132.5 -206.5t-49 -257.5z" />
<glyph unicode="R" horiz-adv-x="1370" d="M109 0v82h194v1270h-194v82h604q150 0 245 -33q104 -40 163 -127.5t59 -220.5q0 -167 -92.5 -279t-249.5 -131v-4q21 -16 41 -51l270 -459q18 -29 39 -38t65 -9h39v-82h-39q-64 0 -96 9.5t-50.5 29t-49.5 70.5l-256 432q-33 57 -65.5 75.5t-104.5 18.5h-240v-553h195v-82 h-477zM391 717h379q141 0 229 91.5t88 240.5q0 208 -176 274q-80 29 -202 29h-318v-635z" />
<glyph unicode="S" horiz-adv-x="1132" d="M129 248v125h90v-105q0 -94 101 -151.5t241 -57.5q157 0 254.5 78.5t97.5 216.5q0 44 -11 82t-27.5 66.5t-46.5 56t-56.5 45.5t-70.5 39t-75 33.5t-83 32.5q-155 58 -216 95q-148 89 -166 243q-3 23 -3 49q0 169 118 265.5t297 96.5q100 0 189 -24t148 -73t59 -114v-137 h-90v109q0 36 -28 66t-73 49t-98.5 29.5t-106.5 10.5q-142 0 -232.5 -71t-90.5 -197q0 -54 18 -98t46 -73.5t74 -56.5t88 -45t103 -42q13 -4 19 -7q165 -64 230 -105q147 -90 172 -240q6 -34 6 -72q0 -174 -124 -283t-321 -109q-74 0 -148 17t-138.5 49t-105 86t-40.5 121z " />
<glyph unicode="T" horiz-adv-x="1316" d="M70 1110v324h1177v-324h-86v242h-459v-1270h195v-82h-477v82h194v1270h-458v-242h-86z" />
<glyph unicode="U" horiz-adv-x="1607" d="M74 1352v82h477v-82h-195v-826q0 -178 70 -288q55 -86 153 -132.5t224 -46.5q128 0 228.5 49t152.5 138q67 115 67 284v822h-194v82h477v-82h-195v-830q0 -198 -84 -329q-68 -105 -184.5 -161.5t-265.5 -56.5q-151 0 -271.5 58t-187.5 164q-78 125 -78 325v830h-194z" />
<glyph unicode="V" horiz-adv-x="1429" d="M25 1352v82h419v-82h-170l418 -1174l21 -78h6q8 41 20 78l418 1174h-170v82h420v-82h-156l-485 -1352h-102l-486 1352h-153z" />
<glyph unicode="W" horiz-adv-x="2025" d="M35 1352v82h418v-82h-172l288 -1162l15 -77h6q8 40 18 77l357 1244h96l356 -1244l19 -77h6q6 40 14 77l289 1162h-172v82h418v-82h-152l-346 -1352h-111l-352 1227l-14 78h-6q-5 -41 -15 -78l-352 -1227h-111l-346 1352h-151z" />
<glyph unicode="X" horiz-adv-x="1277" d="M51 0v82h150l379 639l-381 631h-142v82h418v-82h-174l313 -516l29 -52h4q11 25 27 52l303 516h-168v82h416v-82h-150l-385 -645l381 -625h150v-82h-418v82h166l-310 512l-28 51h-4q-11 -24 -27 -51l-301 -512h168v-82h-416z" />
<glyph unicode="Y" horiz-adv-x="1300" d="M20 1352v82h418v-82h-170l353 -588l26 -51h4q15 28 29 51l354 588h-170v82h416v-82h-145l-441 -729v-541h195v-82h-477v82h194v541l-440 729h-146z" />
<glyph unicode="Z" horiz-adv-x="1253" d="M121 0v70l831 1214q13 18 27 35t21 25l8 8v4q-37 -4 -78 -4h-713v-242h-86v324h983v-70l-831 -1214q-13 -18 -27 -35t-22 -25l-7 -8v-4q37 4 78 4h742v246h86v-328h-1012z" />
<glyph unicode="[" horiz-adv-x="571" d="M219 -195v1680h221v-82h-133v-1516h133v-82h-221z" />
<glyph unicode="\" horiz-adv-x="806" d="M98 1516h90l519 -1602h-91z" />
<glyph unicode="]" horiz-adv-x="571" d="M131 -113h133v1516h-133v82h221v-1680h-221v82z" />
<glyph unicode="^" horiz-adv-x="1228" d="M158 516l403 918h66l403 -918h-94l-342 795l-342 -795h-94z" />
<glyph unicode="_" horiz-adv-x="1097" d="M41 0h1016v-82h-1016v82z" />
<glyph unicode="`" horiz-adv-x="1042" d="M354 1763h131l193 -227h-111z" />
<glyph unicode="a" horiz-adv-x="1093" d="M86 279q0 70 27 126t67 91.5t102 61.5t114.5 38.5t123 19.5t109.5 8t92 1h67v45q0 297 -272 297q-80 0 -155 -25.5t-111 -50.5l-35 -25l-49 70q5 5 15 12.5t44.5 27t72.5 34.5t98 27t122 12q356 0 356 -377v-547q0 -45 46 -45h122v-80h-135q-63 0 -91 27t-28 86v22 q0 24 2 47t4 34l3 11h-4q-2 -5 -6 -14t-18.5 -35.5t-32.5 -50t-49 -53t-66 -50t-85 -35t-106 -14.5q-64 0 -123.5 18.5t-109.5 54t-80.5 95.5t-30.5 136zM176 289q0 -96 68 -165t186 -69q85 0 155 39t113 102t66.5 139t23.5 154v56h-65h-13q-19 -1 -47 0h-15q-22 0 -49 -2 q-36 -3 -75.5 -6t-80.5 -12.5t-79.5 -21t-72.5 -32t-59.5 -45t-40.5 -60t-15 -77.5z" />
<glyph unicode="b" horiz-adv-x="1198" d="M0 1354v80h281v-533q0 -21 -2.5 -42t-4.5 -31l-2 -11h4q4 9 11.5 25t38 56t68.5 70.5t106 55.5t147 25q203 0 323 -148.5t120 -388.5q0 -242 -128 -389.5t-331 -147.5q-72 0 -135.5 24t-102 58t-66.5 68t-39 58l-12 24h-4q9 -37 9 -90v-117h-86v1354h-195zM279 510 q0 -69 13.5 -134t42.5 -123t70.5 -101t100.5 -68t129 -25q156 0 260 122t104 331q0 205 -99 329t-257 124q-73 0 -136.5 -26.5t-115.5 -79.5t-82 -142.5t-30 -206.5z" />
<glyph unicode="c" horiz-adv-x="1114" d="M104 510q0 119 42.5 221t115 171t169 108t202.5 39q48 0 104 -10.5t116.5 -33t100 -67t39.5 -102.5v-99h-86v80q0 35 -28.5 65t-72 47t-89 26.5t-84.5 9.5q-185 0 -311.5 -126.5t-126.5 -328.5q0 -200 127 -325.5t311 -125.5q63 0 121.5 15t97 37t67.5 44t43 37l13 15 l45 -72q-5 -7 -15.5 -17.5t-47.5 -38t-78 -48.5t-108 -38.5t-138 -17.5q-108 0 -204.5 38t-168.5 106.5t-114 170t-42 220.5z" />
<glyph unicode="d" horiz-adv-x="1239" d="M109 512q0 242 127.5 389.5t330.5 147.5q72 0 135.5 -23.5t102 -56.5t66.5 -66t39 -57l12 -23h4q-8 37 -8 84v447h-195v80h281v-1309q0 -45 45 -45h122v-80h-135q-63 0 -90.5 27t-27.5 86v22q0 21 2 39t4 26l2 7h-4q-4 -9 -11.5 -25t-38 -56t-68.5 -70.5t-106 -55.5 t-147 -25q-203 0 -322.5 148t-119.5 389zM199 512q0 -205 99 -329t257 -124q73 0 137 26.5t116 79.5t82 143t30 206q0 118 -38 218t-121 166.5t-198 66.5q-156 0 -260 -122t-104 -331z" />
<glyph unicode="e" horiz-adv-x="1124" d="M106 510q0 126 41 229.5t110 170.5t158.5 103t188.5 36q101 0 182.5 -38t132 -103t77 -148t26.5 -178l-4 -56h-821q0 -215 126 -341t312 -126q55 0 108 13.5t89 32t64.5 37.5t41.5 32l14 14l47 -71q-6 -6 -17 -15.5t-47.5 -34t-76 -43t-100.5 -34t-123 -15.5 q-108 0 -204.5 38t-168.5 106.5t-114 170t-42 220.5zM203 606h729q-7 178 -100 270.5t-230 92.5q-148 0 -260 -95t-139 -268z" />
<glyph unicode="f" horiz-adv-x="688" d="M82 944v80h194v55q0 66 12 121t31.5 91.5t47 64.5t54.5 43.5t58 25t54.5 12.5t46.5 3q20 0 38 -1.5t26 -2.5l9 -2v-80q-26 6 -67 6q-27 0 -52.5 -5t-58 -22.5t-56.5 -46t-40.5 -81.5t-16.5 -124v-57h273v-80h-273v-864h216v-80h-486v80h184v864h-194z" />
<glyph unicode="g" horiz-adv-x="1222" d="M111 528q0 239 120 380t320 141q124 0 220.5 -49t135.5 -146h4q-6 14 -6 51q0 64 27 91.5t92 27.5h152v-80h-140q-45 0 -45 -45v-893q0 -113 -38.5 -199.5t-105 -136.5t-148.5 -75t-177 -25q-164 0 -321 80l41 76q14 -8 39.5 -20t97.5 -32t137 -20q175 0 282 87.5 t107 264.5v119q0 21 2 42t4 31l2 11h-4q-48 -98 -134.5 -153.5t-209.5 -55.5q-201 0 -327.5 145t-126.5 383zM201 528q0 -205 102 -324.5t268 -119.5q71 0 129 23.5t106 73.5t74.5 138.5t26.5 208.5q0 437 -356 437q-165 0 -257.5 -115t-92.5 -322z" />
<glyph unicode="h" horiz-adv-x="1318" d="M47 1354v80h281v-590q0 -21 -2 -42t-4 -32l-3 -10h5q12 32 34 67.5t60.5 75.5t86 72t114 53t139.5 21q97 0 164.5 -27.5t104.5 -82.5t53 -124.5t16 -165.5v-569h184v-80h-270v618q0 61 -4 105t-19 93t-41 79t-74 50t-114 20q-181 0 -305.5 -132.5t-124.5 -332.5v-420h184 v-80h-455v80h185v1274h-195z" />
<glyph unicode="i" horiz-adv-x="604" d="M82 944v80h280v-944h185v-80h-455v80h184v864h-194zM264 1284v150h111v-150h-111z" />
<glyph unicode="j" horiz-adv-x="520" d="M-51 -336q18 -4 45 -4q30 0 58 5t63.5 24t62 49.5t44.5 87t18 131.5v987h-195v80h281v-1065q0 -97 -24.5 -169.5t-59.5 -111t-83 -62t-84.5 -30t-74.5 -6.5l-51 4v80zM227 1284v150h111v-150h-111z" />
<glyph unicode="k" horiz-adv-x="1099" d="M47 1354v80h281v-813h172l276 323h-160v80h416v-80h-145l-307 -354v-4q2 0 9 -4.5t23.5 -24t34.5 -49.5l230 -383q18 -28 35.5 -36.5t62.5 -8.5h76v-80h-80q-81 0 -113.5 20t-73.5 89l-233 387q-18 28 -39.5 36.5t-65.5 8.5h-118v-461h184v-80h-455v80h185v1274h-195z " />
<glyph unicode="l" horiz-adv-x="518" d="M4 1354v80h279v-1201q0 -157 120 -157l62 4l-2 -80q-35 -4 -74 -4q-192 0 -192 229v1129h-193z" />
<glyph unicode="m" horiz-adv-x="2033" d="M82 944v80h162q63 0 90.5 -27t27.5 -86v-67q0 -21 -2 -42t-4 -32l-2 -10h4q38 116 156 202.5t238 86.5q151 0 228 -69.5t95 -209.5h4q45 113 154 196t235 83q188 0 265 -102t77 -298v-569h185v-80h-271v618q0 63 -5.5 111t-22 95t-44.5 77.5t-74.5 49t-109.5 18.5 q-81 0 -153 -40.5t-121.5 -106t-78 -148.5t-28.5 -166v-428h185v-80h-271v618q0 61 -4 105t-18.5 93.5t-40.5 80.5t-73 51.5t-113 20.5q-107 0 -198.5 -68.5t-141.5 -174t-50 -218.5v-428h185v-80h-455v80h184v819q0 45 -45 45h-149z" />
<glyph unicode="n" horiz-adv-x="1353" d="M82 944v80h162q63 0 90.5 -27t27.5 -86v-67q0 -21 -2 -42t-4 -32l-2 -10h4q15 41 48 86.5t85.5 93t132 78.5t169.5 31q78 0 137 -18.5t97 -52t61 -84.5t32.5 -110t9.5 -135v-569h185v-80h-271v618q0 62 -4 105.5t-18.5 92.5t-41 79t-74 50t-113.5 20q-181 0 -306 -134.5 t-125 -322.5v-428h185v-80h-455v80h184v819q0 45 -45 45h-149z" />
<glyph unicode="o" horiz-adv-x="1265" d="M102 518q0 147 71 269t193 192t267 70t266.5 -70t192.5 -192t71 -269q0 -150 -71 -275t-192.5 -196.5t-266.5 -71.5q-108 0 -206 42.5t-169.5 114.5t-113.5 173t-42 213zM193 518q0 -194 128 -326.5t312 -132.5t312 132.5t128 326.5q0 189 -128 318t-312 129t-312 -129 t-128 -318z" />
<glyph unicode="p" horiz-adv-x="1245" d="M47 944v80h162q63 0 91 -27t28 -86v-10q0 -21 -1.5 -41.5t-2.5 -30.5l-2 -10h4q3 9 10 24.5t36.5 55.5t67 70t105.5 55t149 25q203 0 323 -148.5t120 -388.5q0 -242 -127.5 -389.5t-327.5 -147.5q-74 0 -138.5 24t-103 58t-66.5 68t-39 58l-11 24h-5q9 -37 9 -90v-447 h184v-80h-455v80h185v1229q0 45 -45 45h-150zM326 510q0 -86 24 -166.5t67.5 -144t112.5 -102t152 -38.5q156 0 260.5 122t104.5 331q0 205 -99.5 329t-257.5 124q-73 0 -136.5 -26.5t-115.5 -79.5t-82 -142.5t-30 -206.5z" />
<glyph unicode="q" horiz-adv-x="1198" d="M109 512q0 242 127.5 389.5t330.5 147.5q72 0 135 -23t101.5 -56t66 -66t38.5 -56l12 -23h4q-6 35 -6 82v117h86v-1354h184v-80h-455v80h185v447q0 24 2 46.5t4 32.5l2 11h-4q-4 -9 -11.5 -25t-38 -56t-68.5 -70.5t-106 -55.5t-147 -25q-203 0 -322.5 148t-119.5 389z M199 512q0 -205 99 -329t257 -124q73 0 137 26.5t116 79.5t82 143t30 206q0 118 -38 218.5t-121 167.5t-198 67q-156 0 -260 -123t-104 -332z" />
<glyph unicode="r" horiz-adv-x="763" d="M74 944v80h162q63 0 90.5 -27t27.5 -86v-71l-4 -84h4q40 125 123.5 200.5t200.5 75.5l59 -6v-86q-24 4 -47 4q-86 0 -153 -48.5t-105.5 -125t-58 -161t-19.5 -167.5v-362h164v-80h-414v80h164v819q0 45 -45 45h-149z" />
<glyph unicode="s" horiz-adv-x="942" d="M100 217v88h86v-78q0 -42 28.5 -76t74 -53t95.5 -29t99 -10q112 0 190.5 50t78.5 137q0 37 -16 68t-39 52.5t-63 43t-73 35.5t-85 33q-13 5 -19 7q-58 22 -94 37.5t-83 43t-74 56t-46 70.5t-19 92q0 123 99.5 194t232.5 71q72 0 144.5 -19.5t128 -66t55.5 -109.5v-113 h-86v84q0 62 -72 101t-166 39q-102 0 -174 -46t-72 -128q0 -26 9 -49.5t21 -41t37 -36t42.5 -30t54 -27.5t56 -24t61.5 -24q62 -24 97.5 -39t86 -43.5t78 -57t48 -71.5t20.5 -94q0 -124 -100.5 -201.5t-266.5 -77.5q-151 0 -263 66t-112 176z" />
<glyph unicode="t" horiz-adv-x="647" d="M35 944v80h194v285h86v-285h269v-80h-269v-567q0 -77 18 -135t44 -89.5t61.5 -50.5t63.5 -24.5t57 -5.5l47 4v-80q-20 -4 -51 -4q-26 0 -51.5 3t-59 13t-62.5 26t-58 45t-49.5 67.5t-33 96.5t-12.5 128v573h-194z" />
<glyph unicode="u" horiz-adv-x="1312" d="M37 944v80h280v-618q0 -61 4 -105t19 -93t41 -79t74 -50t114 -20q124 0 221.5 66.5t148 172t50.5 226.5v420h-194v80h280v-901q0 -45 45 -45h123v-78h-135q-63 0 -91 27t-28 86v57l4 84h-4q-11 -31 -33 -66t-59 -73.5t-82.5 -69t-110 -50.5t-135.5 -20 q-183 0 -260.5 98.5t-77.5 301.5v569h-194z" />
<glyph unicode="v" horiz-adv-x="1122" d="M16 944v80h394v-80h-162l293 -766q5 -14 9.5 -30t6.5 -26l2 -9h4q7 34 19 65l292 766h-161v80h393v-80h-139l-365 -944h-82l-364 944h-140z" />
<glyph unicode="w" horiz-adv-x="1728" d="M18 944v80h394v-80h-166l250 -772q4 -14 7.5 -30.5t4.5 -25.5l2 -10h4q6 35 16 66l287 848h94l287 -848l16 -66h5q4 35 14 66l250 772h-166v80h393v-80h-135l-315 -944h-86l-289 842l-19 67h-4q-8 -36 -18 -67l-289 -842h-86l-315 944h-136z" />
<glyph unicode="x" horiz-adv-x="1114" d="M53 0v80h170l279 455l-254 409h-182v80h231l227 -373l31 -53h4q13 26 31 55l229 371h230v-80h-181l-258 -412l283 -452h168v-80h-219l-254 416l-31 53h-4q-13 -26 -31 -55l-252 -414h-217z" />
<glyph unicode="y" horiz-adv-x="1148" d="M16 944v80h396v-80h-162l305 -780q5 -14 9 -28.5t6 -21.5l1 -8h4q7 27 19 58l305 780h-162v80h396v-80h-142l-463 -1159q-39 -96 -109.5 -155.5t-162.5 -59.5q-44 0 -85.5 14t-60.5 28l-20 13l39 76q6 -5 17.5 -13.5t45 -22t64.5 -13.5q124 0 203 184l69 168l-372 940 h-140z" />
<glyph unicode="z" horiz-adv-x="1036" d="M104 0v70l650 815q13 16 25.5 30.5t18.5 20.5l7 6v4q-35 -2 -76 -2h-522v-194h-84v274h799v-70l-652 -815q-13 -16 -25.5 -30.5t-18.5 -20.5l-7 -6v-4q35 2 76 2h543v194h84v-274h-818z" />
<glyph unicode="{" horiz-adv-x="624" d="M80 616v82q7 1 19 4t42 19t52.5 40t41.5 72t19 109v166q0 99 23.5 172.5t55 110.5t74 59.5t70.5 27.5t55 5h19v-80h-12q-19 0 -39 -4t-50 -21.5t-52.5 -46.5t-39 -86.5t-16.5 -134.5v-190q0 -56 -16.5 -103t-40.5 -75t-48 -48t-41 -28l-16 -7v-4q7 -2 17.5 -7t38.5 -25 t49.5 -46.5t39 -75t17.5 -106.5v-217q0 -77 16.5 -134.5t39 -86.5t52.5 -46.5t50 -21.5t39 -4h12v-80q-7 -2 -19 -2q-27 0 -55 5t-70.5 27.5t-74 60t-55 111.5t-23.5 173v193q0 61 -18 108.5t-43.5 72t-51 39.5t-43.5 19z" />
<glyph unicode="|" horiz-adv-x="522" d="M217 -317v1925h88v-1925h-88z" />
<glyph unicode="}" horiz-adv-x="624" d="M74 -115h12q19 0 39 4t50 21.5t52.5 46.5t39 86.5t16.5 134.5v217q0 58 16.5 106t40.5 75.5t47.5 46.5t40.5 25l16 7v4q-7 3 -17.5 8t-38.5 26.5t-49 48.5t-38.5 74.5t-17.5 103.5v190q0 77 -16.5 134.5t-39 86.5t-52.5 46.5t-50 21.5t-39 4h-12v80h18q27 0 55 -5 t71 -27.5t74.5 -59.5t55 -110.5t23.5 -172.5v-166q0 -61 18 -109t43.5 -72t51 -39.5t43.5 -19.5l18 -4v-82q-7 -1 -19 -4t-42 -19t-52.5 -39.5t-41.5 -71.5t-19 -109v-193q0 -99 -23.5 -173t-55 -111.5t-74.5 -60t-71 -27.5t-55 -5l-18 2v80z" />
<glyph unicode="~" horiz-adv-x="1218" d="M166 436q0 152 64 223.5t171 71.5q54 0 98.5 -16.5t72 -41.5t56.5 -54.5t53 -54.5t61 -41.5t81 -16.5q39 0 68.5 16.5t45 39.5t25.5 55t12.5 56.5t2.5 49.5h82q0 -152 -64.5 -223.5t-171.5 -71.5q-54 0 -98.5 16.5t-72 41.5t-56.5 54.5t-53 54.5t-61 41.5t-81 16.5 q-48 0 -81 -23t-47.5 -60.5t-19.5 -69t-5 -64.5h-82z" />
<glyph unicode="&#xa1;" horiz-adv-x="428" d="M152 899v125h120v-125h-120zM170 -410v1076h88v-1076h-88z" />
<glyph unicode="&#xa2;" horiz-adv-x="1110" d="M104 717q0 114 26.5 212.5t78.5 175.5t134.5 125.5t188.5 57.5v170h89v-170q249 -22 378 -291l-84 -32q-114 237 -333 237q-99 0 -174.5 -37.5t-120.5 -105t-67.5 -153.5t-22.5 -189t22.5 -189.5t67.5 -153.5t120.5 -105t174.5 -38q218 0 333 238l84 -33 q-131 -272 -378 -291v-172h-89v172q-140 12 -238.5 93t-144 203.5t-45.5 275.5z" />
<glyph unicode="&#xa3;" horiz-adv-x="1232" d="M96 0v82h185v600h-134v82h134v332q0 154 114 258t289 104q51 0 100.5 -10.5t84.5 -26t62 -31t41 -26.5l13 -10l-59 -68q-4 3 -11.5 9t-33 21t-52 26t-67 20.5t-80.5 9.5q-147 0 -230 -82.5t-83 -202.5v-323h405v-82h-405v-600h671v246h86v-328h-1030z" />
<glyph unicode="&#xa5;" horiz-adv-x="1259" d="M100 1434h101l340 -566l88 -161h4q45 91 88 161l340 566h100l-379 -631h222v-82h-271l-57 -98v-86h328v-82h-328v-455h-88v455h-334v82h334v86l-60 98h-274v82h225z" />
<glyph unicode="&#xa7;" horiz-adv-x="768" d="M119 -59l53 65q7 -5 19 -13.5t48 -22t72 -13.5q99 0 164.5 63.5t65.5 167.5q0 29 -2 43l-133 973h86l137 -971q4 -36 4 -51q0 -133 -92 -221t-232 -88q-48 0 -95.5 17t-71.5 34zM139 1149q0 133 92 221t232 88q48 0 95.5 -17t71.5 -33l23 -17l-53 -66q-7 5 -19 13.5 t-48 22t-72 13.5q-99 0 -165.5 -63.5t-66.5 -167.5q0 -15 4 -43l134 -973h-86l-138 971q-4 32 -4 51z" />
<glyph unicode="&#xa8;" horiz-adv-x="1042" d="M293 1614v149h110v-149h-110zM637 1614v149h111v-149h-111z" />
<glyph unicode="&#xa9;" horiz-adv-x="1665" d="M109 717q0 152 57 289.5t153 236.5t229.5 157t280.5 58q150 0 285 -58t232.5 -157t155 -236t57.5 -290t-57.5 -291t-155 -236.5t-232.5 -156.5t-285 -58q-147 0 -280.5 58t-229.5 156.5t-153 236.5t-57 291zM201 717q0 -183 82.5 -333.5t227 -236.5t318.5 -86 q177 0 323.5 86t230 236.5t83.5 333.5q0 136 -49.5 257.5t-134 208.5t-202.5 138t-251 51q-131 0 -247.5 -51t-200 -138t-132 -208.5t-48.5 -257.5zM414 715q0 82 28.5 158.5t81.5 138t139 98.5t191 37q60 0 116 -18.5t94 -45t67.5 -53t42.5 -44.5l14 -19l-68 -60 q-4 6 -11.5 16.5t-33.5 36.5t-54.5 46t-73.5 36.5t-91 16.5q-165 0 -257.5 -101.5t-92.5 -240.5q0 -65 22.5 -125.5t64.5 -109t110.5 -78t152.5 -29.5q48 0 92.5 15.5t74.5 37.5t53 44.5t34 37.5l10 16l68 -59q-5 -7 -14.5 -19.5t-42 -43.5t-68.5 -54.5t-93 -43t-116 -19.5 q-106 0 -191.5 36.5t-139 97.5t-81.5 136.5t-28 157.5z" />
<glyph unicode="&#xaa;" horiz-adv-x="882" d="M180 539v75h518v-75h-518zM186 973q0 227 398 227h28v8q0 170 -155 170q-44 0 -88 -15t-66 -29l-22 -15l-45 61q10 8 28 20.5t76 33t119 20.5q233 0 233 -246v-413h-80v104h-4q-2 -5 -7 -13t-23 -28t-38.5 -35.5t-54.5 -28t-71 -12.5q-92 0 -160 49.5t-68 141.5zM270 981 q0 -51 38 -87t108 -36q88 0 142 77t54 171v20h-26q-33 0 -56.5 -1t-65.5 -4.5t-71.5 -13.5t-60 -25t-46.5 -41t-16 -60z" />
<glyph unicode="&#xab;" horiz-adv-x="1015" d="M111 578l335 421h109l-336 -421l336 -420h-109zM438 578l336 421h109l-336 -421l336 -420h-109z" />
<glyph unicode="&#xac;" horiz-adv-x="1230" d="M147 702v82h934v-448h-86v366h-848z" />
<glyph unicode="&#xad;" horiz-adv-x="1081" d="M258 539v82h565v-82h-565z" />
<glyph unicode="&#xae;" horiz-adv-x="1665" d="M109 717q0 152 57 289.5t153 236.5t229.5 157t280.5 58q150 0 285 -58t232.5 -157t155 -236t57.5 -290t-57.5 -291t-155 -236.5t-232.5 -156.5t-285 -58q-147 0 -280.5 58t-229.5 156.5t-153 236.5t-57 291zM201 717q0 -183 82.5 -333.5t227 -236.5t318.5 -86 q177 0 323.5 86t230 236.5t83.5 333.5q0 136 -49.5 257.5t-134 208.5t-202.5 138t-251 51q-131 0 -247.5 -51t-200 -138t-132 -208.5t-48.5 -257.5zM592 307v819h272q105 0 171.5 -65.5t66.5 -171.5q0 -87 -45.5 -145t-112.5 -74v-4q9 -10 27 -45l162 -314h-101l-174 342 h-176v-342h-90zM682 727h172q71 0 113.5 43.5t42.5 118.5q0 73 -42.5 114t-113.5 41h-172v-317z" />
<glyph unicode="&#xaf;" horiz-adv-x="1042" d="M276 1610v82h490v-82h-490z" />
<glyph unicode="&#xb0;" horiz-adv-x="757" d="M113 1186q0 110 78 189t188 79t189 -79t79 -189t-79 -188t-189 -78t-188 78t-78 188zM201 1186q0 -77 51 -131t127 -54t128 54t52 131t-52 131.5t-128 54.5t-127 -54.5t-51 -131.5z" />
<glyph unicode="&#xb1;" horiz-adv-x="1228" d="M86 539v82h485v538h88v-538h484v-82h-484v-539h-88v539h-485zM127 -231h975v-82h-975v82z" />
<glyph unicode="&#xb2;" horiz-adv-x="722" d="M78 932q0 63 25 117.5t65 93.5t88 74t96 68t88 66.5t65 78t25 94.5q0 74 -51.5 126t-134.5 52q-52 0 -100 -26t-70 -52l-22 -25l-50 54q4 5 10.5 13.5t29.5 29.5t49 37t67.5 29.5t85.5 13.5q126 0 196 -73t70 -179q0 -62 -24.5 -114.5t-64 -89.5t-87 -70t-95.5 -65 t-88 -65.5t-65.5 -79.5t-27.5 -100h393v117h78v-191h-547q-4 39 -4 66z" />
<glyph unicode="&#xb3;" horiz-adv-x="737" d="M68 979l57 53q3 -5 8.5 -12.5t26.5 -26.5t45 -34t63.5 -27t83.5 -12q79 0 145 59.5t66 146.5q0 89 -66.5 143t-152.5 54h-65l-23 49l231 273q10 11 20.5 20.5t15.5 13.5l5 4v5q-22 -7 -55 -7h-285v-116h-77v190h526v-53l-264 -309q45 -3 89.5 -19t86.5 -45.5t68 -82 t26 -120.5q0 -117 -86.5 -198.5t-206.5 -81.5q-55 0 -104 13.5t-80 33t-54.5 39.5t-33.5 34z" />
<glyph unicode="&#xb4;" horiz-adv-x="1042" d="M365 1536l192 227h131l-213 -227h-110z" />
<glyph unicode="&#xb6;" horiz-adv-x="1126" d="M92 965q0 129 67 237.5t179.5 170t243.5 61.5h430v-82h-342v-1454h-86v596q-131 0 -244 62t-180.5 171t-67.5 238zM797 -102v1325h86v-1325h-86z" />
<glyph unicode="&#xb7;" horiz-adv-x="571" d="M223 522v129h125v-129h-125z" />
<glyph unicode="&#xb8;" horiz-adv-x="1042" d="M383 -332q37 -10 84 -10q106 0 106 76q0 38 -32.5 58t-89.5 20h-25l49 233l72 -10v-17l-27 -141q59 -6 99 -45t40 -94q0 -79 -53 -117.5t-133 -38.5q-24 0 -46.5 2t-32.5 4l-11 2v78z" />
<glyph unicode="&#xb9;" horiz-adv-x="628" d="M80 866v74h217v645l4 64h-2q-10 -16 -35 -39l-125 -123l-53 55l211 213h78v-815h211v-74h-506z" />
<glyph unicode="&#xba;" horiz-adv-x="983" d="M156 1124q0 139 97.5 235.5t235.5 96.5q139 0 236.5 -96.5t97.5 -235.5q0 -144 -97.5 -242t-236.5 -98t-236 98t-97 242zM193 539v75h602v-75h-602zM236 1124q0 -113 73 -188.5t180 -75.5t180.5 75.5t73.5 188.5q0 109 -73.5 182.5t-180.5 73.5t-180 -73t-73 -183z" />
<glyph unicode="&#xbb;" horiz-adv-x="1015" d="M133 158l336 420l-336 421h109l336 -421l-336 -420h-109zM461 158l336 420l-336 421h108l336 -421l-336 -420h-108z" />
<glyph unicode="&#xbc;" horiz-adv-x="1878" d="M125 545v73h217v646l4 63h-2q-10 -16 -35 -39l-125 -123l-53 56l211 213h78v-816h211v-73h-506zM530 0l689 1434h88l-686 -1434h-91zM1135 248v53l454 588h64v-567h139v-74h-139v-248h-78v248h-440zM1243 322h332v358l6 84h-4q-18 -37 -45 -70l-289 -368v-4z" />
<glyph unicode="&#xbd;" horiz-adv-x="1832" d="M109 545v73h217v646l4 63h-2q-10 -16 -35 -39l-125 -123l-53 56l211 213h77v-816h211v-73h-505zM514 0l688 1434h88l-686 -1434h-90zM1176 66q0 63 25 117.5t65 93.5t88 74t96 67.5t88 66t65 78t25 94.5q0 74 -52 126.5t-134 52.5q-52 0 -100 -26t-70 -52l-23 -25l-49 53 q4 5 10.5 13.5t29.5 29.5t49 37t67.5 29.5t85.5 13.5q126 0 196 -73t70 -179q0 -62 -24.5 -114.5t-64 -89t-87 -70t-96 -65t-88.5 -65t-65.5 -79.5t-27.5 -100h394v116h77v-190h-546q-4 39 -4 66z" />
<glyph unicode="&#xbe;" horiz-adv-x="1921" d="M111 657l57 54q3 -5 8.5 -12.5t26.5 -27t45 -34.5t63.5 -27t83.5 -12q79 0 145 60t66 147q0 89 -66.5 142.5t-152.5 53.5h-65l-23 50l231 272l41 39v4q-22 -6 -55 -6h-285v-117h-77v191h526v-54l-264 -309q45 -3 89.5 -18.5t86.5 -45.5t68 -82t26 -120q0 -117 -86.5 -199 t-206.5 -82q-55 0 -104 13.5t-80 33t-54.5 39.5t-33.5 34zM567 0l688 1434h88l-686 -1434h-90zM1171 248v53l455 588h64v-567h139v-74h-139v-248h-78v248h-441zM1280 322h332v358l6 84h-4q-18 -37 -45 -70l-289 -368v-4z" />
<glyph unicode="&#xbf;" horiz-adv-x="899" d="M115 -78q0 69 20.5 127.5t53 101t72 80.5t79 74.5t72 75t53 89.5t20.5 110v86h88v-86q0 -68 -20 -127t-52.5 -102.5t-71.5 -83t-78 -77t-71.5 -76t-52.5 -88.5t-20 -106q0 -112 83.5 -188t215.5 -76q67 0 132 21.5t96 42.5l32 22l47 -70q-5 -4 -14 -11t-40 -24.5 t-64.5 -31t-84 -24.5t-102.5 -11q-175 0 -284 99.5t-109 252.5zM469 899v125h121v-125h-121z" />
<glyph unicode="&#xc0;" horiz-adv-x="1454" d="M20 0v82h154l506 1352h94l506 -1352h154v-82h-422v82h174l-156 414h-608l-154 -414h174v-82h-422zM453 578h546l-249 669q-6 16 -11.5 35.5t-7.5 31.5l-2 11h-4q-6 -41 -20 -78zM479 1763h131l193 -227h-111z" />
<glyph unicode="&#xc1;" horiz-adv-x="1454" d="M20 0v82h154l506 1352h94l506 -1352h154v-82h-422v82h174l-156 414h-608l-154 -414h174v-82h-422zM453 578h546l-249 669q-6 16 -11.5 35.5t-7.5 31.5l-2 11h-4q-6 -41 -20 -78zM649 1536l193 227h131l-213 -227h-111z" />
<glyph unicode="&#xc2;" horiz-adv-x="1454" d="M20 0v82h154l506 1352h94l506 -1352h154v-82h-422v82h174l-156 414h-608l-154 -414h174v-82h-422zM453 578h546l-249 669q-6 16 -11.5 35.5t-7.5 31.5l-2 11h-4q-6 -41 -20 -78zM502 1536l164 227h122l164 -227h-108l-115 164h-4l-115 -164h-108z" />
<glyph unicode="&#xc3;" horiz-adv-x="1454" d="M20 0v82h154l506 1352h94l506 -1352h154v-82h-422v82h174l-156 414h-608l-154 -414h174v-82h-422zM424 1542q0 108 44 164.5t128 56.5q43 0 77.5 -15t56 -36.5t41 -43.5t41.5 -37t46 -15q84 0 84 141h90q0 -108 -44 -164.5t-128 -56.5q-43 0 -77.5 15t-56 37t-41 43.5 t-41.5 36.5t-46 15q-84 0 -84 -141h-90zM453 578h546l-249 669q-6 16 -11.5 35.5t-7.5 31.5l-2 11h-4q-6 -41 -20 -78z" />
<glyph unicode="&#xc4;" horiz-adv-x="1454" d="M20 0v82h154l506 1352h94l506 -1352h154v-82h-422v82h174l-156 414h-608l-154 -414h174v-82h-422zM453 578h546l-249 669q-6 16 -11.5 35.5t-7.5 31.5l-2 11h-4q-6 -41 -20 -78zM500 1614v149h110v-149h-110zM844 1614v149h110v-149h-110z" />
<glyph unicode="&#xc5;" horiz-adv-x="1454" d="M20 0v82h154l506 1352h94l506 -1352h154v-82h-422v82h174l-156 414h-608l-154 -414h174v-82h-422zM453 578h546l-249 669q-6 16 -11.5 35.5t-7.5 31.5l-2 11h-4q-6 -41 -20 -78zM575 1651q0 65 44 109t108 44q66 0 111 -43.5t45 -109.5q0 -63 -45 -106.5t-111 -43.5 q-63 0 -107.5 43.5t-44.5 106.5zM655 1651q0 -32 20 -53t52 -21q35 0 55.5 20.5t20.5 53.5q0 37 -20.5 58.5t-55.5 21.5q-32 0 -52 -21.5t-20 -58.5z" />
<glyph unicode="&#xc6;" horiz-adv-x="1849" d="M20 0v82h142l520 1270h-168v82h1174v-267h-86v185h-621v-588h571v-82h-571v-600h661v186h87v-268h-1020v82h184v600h-389l-248 -600h166v-82h-402zM537 764h356v588h-115z" />
<glyph unicode="&#xc7;" horiz-adv-x="1515" d="M121 727q0 205 94 372.5t259.5 263t367.5 95.5q56 0 120.5 -8.5t137 -29.5t130.5 -52t96 -81.5t38 -112.5v-136h-90v115q0 56 -44 100.5t-112 69.5t-139 38t-135 13q-132 0 -249 -49.5t-201 -135t-132.5 -206t-48.5 -256.5q0 -184 82 -336.5t228.5 -242t326.5 -89.5 q55 0 125 11.5t145 35.5t125.5 69.5t50.5 103.5v112h90v-133q0 -71 -52.5 -127.5t-135 -88.5t-168 -48.5t-166.5 -18.5l-18 -98q59 -6 99 -45t40 -94q0 -79 -53 -117.5t-133 -38.5q-24 0 -46.5 2t-32.5 4l-11 2v78q37 -10 84 -10q106 0 106 76q0 38 -33 58t-90 20h-24 l34 165q-192 15 -344.5 119t-236.5 269.5t-84 361.5z" />
<glyph unicode="&#xc8;" horiz-adv-x="1261" d="M109 0v82h194v1270h-194v82h989v-267h-86v185h-621v-588h572v-82h-572v-600h662v197h86v-279h-1030zM391 1763h131l193 -227h-111z" />
<glyph unicode="&#xc9;" horiz-adv-x="1261" d="M109 0v82h194v1270h-194v82h989v-267h-86v185h-621v-588h572v-82h-572v-600h662v197h86v-279h-1030zM561 1536l193 227h131l-213 -227h-111z" />
<glyph unicode="&#xca;" horiz-adv-x="1261" d="M109 0v82h194v1270h-194v82h989v-267h-86v185h-621v-588h572v-82h-572v-600h662v197h86v-279h-1030zM414 1536l164 227h122l164 -227h-108l-115 164h-4l-115 -164h-108z" />
<glyph unicode="&#xcb;" horiz-adv-x="1261" d="M109 0v82h194v1270h-194v82h989v-267h-86v185h-621v-588h572v-82h-572v-600h662v197h86v-279h-1030zM412 1614v149h110v-149h-110zM756 1614v149h110v-149h-110z" />
<glyph unicode="&#xcc;" horiz-adv-x="694" d="M98 1763h131l193 -227h-111zM109 0v82h194v1270h-194v82h477v-82h-195v-1270h195v-82h-477z" />
<glyph unicode="&#xcd;" horiz-adv-x="694" d="M109 0v82h194v1270h-194v82h477v-82h-195v-1270h195v-82h-477zM268 1536l193 227h131l-213 -227h-111z" />
<glyph unicode="&#xce;" horiz-adv-x="694" d="M109 0v82h194v1270h-194v82h477v-82h-195v-1270h195v-82h-477zM121 1536l164 227h123l163 -227h-108l-115 164h-4l-115 -164h-108z" />
<glyph unicode="&#xcf;" horiz-adv-x="694" d="M109 0v82h194v1270h-194v82h477v-82h-195v-1270h195v-82h-477zM119 1614v149h110v-149h-110zM463 1614v149h110v-149h-110z" />
<glyph unicode="&#xd0;" horiz-adv-x="1597" d="M109 0v82h194v600h-164v82h164v588h-194v82h645q324 0 519 -190.5t195 -526.5q0 -225 -90 -388t-250 -246t-374 -83h-645zM391 82h348q292 0 464.5 166t172.5 469q0 302 -173 468.5t-464 166.5h-348v-588h375v-82h-375v-600z" />
<glyph unicode="&#xd1;" horiz-adv-x="1685" d="M109 0v82h194v1270h-194v82h274l893 -1225q8 -12 18 -30.5t16 -30.5l5 -13h4q-1 6 -2 15.5t-3 32t-1 36.5v1133h-195v82h477v-82h-194v-1352h-82l-891 1227q-8 12 -18 30.5t-16 30.5l-5 12h-4q1 -6 2 -15.5t3 -31.5t1 -36v-1135h195v-82h-477zM549 1542q0 108 44 164.5 t128 56.5q43 0 77.5 -15t56 -36.5t41 -43.5t41.5 -37t46 -15q84 0 84 141h90q0 -108 -44 -164.5t-128 -56.5q-43 0 -77.5 15t-56 37t-41 43.5t-41.5 36.5t-46 15q-84 0 -84 -141h-90z" />
<glyph unicode="&#xd2;" d="M121 727q0 152 57.5 288t155 232.5t231.5 153.5t281 57t281 -57t231.5 -153.5t155 -232.5t57.5 -288q0 -155 -57.5 -295t-155 -240t-231.5 -158.5t-281 -58.5t-281 58.5t-231.5 158.5t-155 240t-57.5 295zM213 727q0 -185 85 -339t230 -241.5t318 -87.5t318 87.5 t230 241.5t85 339q0 180 -85 329t-230 233.5t-318 84.5t-318 -84.5t-230 -233.5t-85 -329zM598 1763h131l193 -227h-111z" />
<glyph unicode="&#xd3;" d="M121 727q0 152 57.5 288t155 232.5t231.5 153.5t281 57t281 -57t231.5 -153.5t155 -232.5t57.5 -288q0 -155 -57.5 -295t-155 -240t-231.5 -158.5t-281 -58.5t-281 58.5t-231.5 158.5t-155 240t-57.5 295zM213 727q0 -185 85 -339t230 -241.5t318 -87.5t318 87.5 t230 241.5t85 339q0 180 -85 329t-230 233.5t-318 84.5t-318 -84.5t-230 -233.5t-85 -329zM768 1536l193 227h131l-213 -227h-111z" />
<glyph unicode="&#xd4;" d="M121 727q0 152 57.5 288t155 232.5t231.5 153.5t281 57t281 -57t231.5 -153.5t155 -232.5t57.5 -288q0 -155 -57.5 -295t-155 -240t-231.5 -158.5t-281 -58.5t-281 58.5t-231.5 158.5t-155 240t-57.5 295zM213 727q0 -185 85 -339t230 -241.5t318 -87.5t318 87.5 t230 241.5t85 339q0 180 -85 329t-230 233.5t-318 84.5t-318 -84.5t-230 -233.5t-85 -329zM621 1536l163 227h123l164 -227h-108l-115 164h-4l-115 -164h-108z" />
<glyph unicode="&#xd5;" d="M121 727q0 152 57.5 288t155 232.5t231.5 153.5t281 57t281 -57t231.5 -153.5t155 -232.5t57.5 -288q0 -155 -57.5 -295t-155 -240t-231.5 -158.5t-281 -58.5t-281 58.5t-231.5 158.5t-155 240t-57.5 295zM213 727q0 -185 85 -339t230 -241.5t318 -87.5t318 87.5 t230 241.5t85 339q0 180 -85 329t-230 233.5t-318 84.5t-318 -84.5t-230 -233.5t-85 -329zM543 1542q0 108 44 164.5t128 56.5q43 0 77.5 -15t56 -36.5t41 -43.5t41.5 -37t46 -15q84 0 84 141h90q0 -108 -44 -164.5t-128 -56.5q-43 0 -77.5 15t-56 37t-41 43.5t-41.5 36.5 t-46 15q-84 0 -84 -141h-90z" />
<glyph unicode="&#xd6;" d="M121 727q0 152 57.5 288t155 232.5t231.5 153.5t281 57t281 -57t231.5 -153.5t155 -232.5t57.5 -288q0 -155 -57.5 -295t-155 -240t-231.5 -158.5t-281 -58.5t-281 58.5t-231.5 158.5t-155 240t-57.5 295zM213 727q0 -185 85 -339t230 -241.5t318 -87.5t318 87.5 t230 241.5t85 339q0 180 -85 329t-230 233.5t-318 84.5t-318 -84.5t-230 -233.5t-85 -329zM618 1614v149h111v-149h-111zM963 1614v149h110v-149h-110z" />
<glyph unicode="&#xd7;" horiz-adv-x="1228" d="M100 57l459 523l-459 522l58 57l456 -518l457 518l57 -57l-460 -522l460 -523l-57 -57l-457 518l-456 -518z" />
<glyph unicode="&#xd8;" d="M121 727q0 152 57.5 288t155 232.5t231.5 153.5t281 57q211 0 393 -117l100 142l70 -51l-100 -142q123 -102 192.5 -248.5t69.5 -314.5q0 -155 -57.5 -295t-155 -240t-231.5 -158.5t-281 -58.5q-213 0 -393 119l-101 -141l-71 49l102 143q-123 105 -192.5 256t-69.5 326z M213 727q0 -152 59 -284.5t162 -225.5l754 1055q-151 102 -342 102q-173 0 -318 -84.5t-230 -233.5t-85 -329zM502 164q151 -105 344 -105q173 0 318 87.5t230 241.5t85 339q0 148 -59 276t-163 218z" />
<glyph unicode="&#xd9;" horiz-adv-x="1607" d="M74 1352v82h477v-82h-195v-826q0 -178 70 -288q55 -86 153 -132.5t224 -46.5q128 0 228.5 49t152.5 138q67 115 67 284v822h-194v82h477v-82h-195v-830q0 -198 -84 -329q-68 -105 -184.5 -161.5t-265.5 -56.5q-151 0 -271.5 58t-187.5 164q-78 125 -78 325v830h-194z M555 1763h131l193 -227h-111z" />
<glyph unicode="&#xda;" horiz-adv-x="1607" d="M74 1352v82h477v-82h-195v-826q0 -178 70 -288q55 -86 153 -132.5t224 -46.5q128 0 228.5 49t152.5 138q67 115 67 284v822h-194v82h477v-82h-195v-830q0 -198 -84 -329q-68 -105 -184.5 -161.5t-265.5 -56.5q-151 0 -271.5 58t-187.5 164q-78 125 -78 325v830h-194z M725 1536l193 227h131l-213 -227h-111z" />
<glyph unicode="&#xdb;" horiz-adv-x="1607" d="M74 1352v82h477v-82h-195v-826q0 -178 70 -288q55 -86 153 -132.5t224 -46.5q128 0 228.5 49t152.5 138q67 115 67 284v822h-194v82h477v-82h-195v-830q0 -198 -84 -329q-68 -105 -184.5 -161.5t-265.5 -56.5q-151 0 -271.5 58t-187.5 164q-78 125 -78 325v830h-194z M578 1536l163 227h123l164 -227h-108l-115 164h-4l-115 -164h-108z" />
<glyph unicode="&#xdc;" horiz-adv-x="1607" d="M74 1352v82h477v-82h-195v-826q0 -178 70 -288q55 -86 153 -132.5t224 -46.5q128 0 228.5 49t152.5 138q67 115 67 284v822h-194v82h477v-82h-195v-830q0 -198 -84 -329q-68 -105 -184.5 -161.5t-265.5 -56.5q-151 0 -271.5 58t-187.5 164q-78 125 -78 325v830h-194z M575 1614v149h111v-149h-111zM920 1614v149h110v-149h-110z" />
<glyph unicode="&#xdd;" horiz-adv-x="1300" d="M20 1352v82h418v-82h-170l353 -588l26 -51h4q15 28 29 51l354 588h-170v82h416v-82h-145l-441 -729v-541h195v-82h-477v82h194v541l-440 729h-146zM573 1536l193 227h131l-213 -227h-111z" />
<glyph unicode="&#xde;" horiz-adv-x="1294" d="M109 0v82h194v1270h-194v82h477v-82h-195v-185h383q191 0 313.5 -113t122.5 -304q0 -192 -123 -307t-317 -115h-379v-246h195v-82h-477zM391 410h379q159 0 253.5 90.5t94.5 249.5t-94.5 247t-253.5 88h-379v-675z" />
<glyph unicode="&#xdf;" horiz-adv-x="1206" d="M57 0v80h185v1010q0 70 22 130t59 103.5t86.5 74t104.5 45.5t113 15q152 0 240.5 -84.5t88.5 -197.5q0 -62 -25.5 -116t-62 -91.5t-72.5 -71.5t-61.5 -70.5t-25.5 -72.5q0 -30 24 -60.5t62 -57.5t84 -56t92 -62.5t84 -70t62 -84.5t24 -101q0 -132 -92.5 -204t-223.5 -72 q-88 0 -167 18t-114 36l-34 17v95q5 -3 15 -8.5t42.5 -20t67 -25t87 -19.5t105.5 -9q95 0 159.5 49t64.5 143q0 60 -44.5 112.5t-108.5 93t-127.5 80.5t-108 91.5t-44.5 110.5q0 51 25.5 97t62 82t73 71.5t62 81t25.5 94.5q0 77 -64 137.5t-179 60.5q-117 0 -206 -79.5 t-89 -211.5v-1083h-271z" />
<glyph unicode="&#xe0;" horiz-adv-x="1093" d="M86 279q0 70 27 126t67 91.5t102 61.5t114.5 38.5t123 19.5t109.5 8t92 1h67v45q0 297 -272 297q-80 0 -155 -25.5t-111 -50.5l-35 -25l-49 70q5 5 15 12.5t44.5 27t72.5 34.5t98 27t122 12q356 0 356 -377v-547q0 -45 46 -45h122v-80h-135q-63 0 -91 27t-28 86v22 q0 24 2 47t4 34l3 11h-4q-2 -5 -6 -14t-18.5 -35.5t-32.5 -50t-49 -53t-66 -50t-85 -35t-106 -14.5q-64 0 -123.5 18.5t-109.5 54t-80.5 95.5t-30.5 136zM176 289q0 -96 68 -165t186 -69q85 0 155 39t113 102t66.5 139t23.5 154v56h-65h-13q-19 -1 -47 0t-64 -2t-75.5 -6 t-80.5 -12.5t-79.5 -21t-72.5 -32t-59.5 -45t-40.5 -60t-15 -77.5zM270 1434h131l193 -228h-111z" />
<glyph unicode="&#xe1;" horiz-adv-x="1093" d="M86 279q0 70 27 126t67 91.5t102 61.5t114.5 38.5t123 19.5t109.5 8t92 1h67v45q0 297 -272 297q-80 0 -155 -25.5t-111 -50.5l-35 -25l-49 70q5 5 15 12.5t44.5 27t72.5 34.5t98 27t122 12q356 0 356 -377v-547q0 -45 46 -45h122v-80h-135q-63 0 -91 27t-28 86v22 q0 24 2 47t4 34l3 11h-4q-2 -5 -6 -14t-18.5 -35.5t-32.5 -50t-49 -53t-66 -50t-85 -35t-106 -14.5q-64 0 -123.5 18.5t-109.5 54t-80.5 95.5t-30.5 136zM176 289q0 -96 68 -165t186 -69q85 0 155 39t113 102t66.5 139t23.5 154v56h-65h-13q-19 -1 -47 0t-64 -2t-75.5 -6 t-80.5 -12.5t-79.5 -21t-72.5 -32t-59.5 -45t-40.5 -60t-15 -77.5zM440 1206l193 228h131l-213 -228h-111z" />
<glyph unicode="&#xe2;" horiz-adv-x="1093" d="M86 279q0 70 27 126t67 91.5t102 61.5t114.5 38.5t123 19.5t109.5 8t92 1h67v45q0 297 -272 297q-80 0 -155 -25.5t-111 -50.5l-35 -25l-49 70q5 5 15 12.5t44.5 27t72.5 34.5t98 27t122 12q356 0 356 -377v-547q0 -45 46 -45h122v-80h-135q-63 0 -91 27t-28 86v22 q0 24 2 47t4 34l3 11h-4q-2 -5 -6 -14t-18.5 -35.5t-32.5 -50t-49 -53t-66 -50t-85 -35t-106 -14.5q-64 0 -123.5 18.5t-109.5 54t-80.5 95.5t-30.5 136zM176 289q0 -96 68 -165t186 -69q85 0 155 39t113 102t66.5 139t23.5 154v56h-65h-13q-19 -1 -47 0t-64 -2t-75.5 -6 t-80.5 -12.5t-79.5 -21t-72.5 -32t-59.5 -45t-40.5 -60t-15 -77.5zM293 1206l164 228h123l163 -228h-108l-115 164h-4l-115 -164h-108z" />
<glyph unicode="&#xe3;" horiz-adv-x="1093" d="M86 279q0 70 27 126t67 91.5t102 61.5t114.5 38.5t123 19.5t109.5 8t92 1h67v45q0 297 -272 297q-80 0 -155 -25.5t-111 -50.5l-35 -25l-49 70q5 5 15 12.5t44.5 27t72.5 34.5t98 27t122 12q356 0 356 -377v-547q0 -45 46 -45h122v-80h-135q-63 0 -91 27t-28 86v22 q0 24 2 47t4 34l3 11h-4q-2 -5 -6 -14t-18.5 -35.5t-32.5 -50t-49 -53t-66 -50t-85 -35t-106 -14.5q-64 0 -123.5 18.5t-109.5 54t-80.5 95.5t-30.5 136zM176 289q0 -96 68 -165t186 -69q85 0 155 39t113 102t66.5 139t23.5 154v56h-65h-13q-19 -1 -47 0t-64 -2t-75.5 -6 t-80.5 -12.5t-79.5 -21t-72.5 -32t-59.5 -45t-40.5 -60t-15 -77.5zM215 1212q0 108 44.5 165t127.5 57q43 0 77.5 -15t56 -37t41 -44t41.5 -37t46 -15q84 0 84 141h90q0 -108 -44 -164.5t-128 -56.5q-43 0 -77.5 15t-56 37t-41 44t-41.5 37t-46 15q-84 0 -84 -142h-90z" />
<glyph unicode="&#xe4;" horiz-adv-x="1093" d="M86 279q0 70 27 126t67 91.5t102 61.5t114.5 38.5t123 19.5t109.5 8t92 1h67v45q0 297 -272 297q-80 0 -155 -25.5t-111 -50.5l-35 -25l-49 70q5 5 15 12.5t44.5 27t72.5 34.5t98 27t122 12q356 0 356 -377v-547q0 -45 46 -45h122v-80h-135q-63 0 -91 27t-28 86v22 q0 24 2 47t4 34l3 11h-4q-2 -5 -6 -14t-18.5 -35.5t-32.5 -50t-49 -53t-66 -50t-85 -35t-106 -14.5q-64 0 -123.5 18.5t-109.5 54t-80.5 95.5t-30.5 136zM176 289q0 -96 68 -165t186 -69q85 0 155 39t113 102t66.5 139t23.5 154v56h-65h-13q-19 -1 -47 0t-64 -2t-75.5 -6 t-80.5 -12.5t-79.5 -21t-72.5 -32t-59.5 -45t-40.5 -60t-15 -77.5zM291 1284v150h110v-150h-110zM635 1284v150h110v-150h-110z" />
<glyph unicode="&#xe5;" horiz-adv-x="1093" d="M86 279q0 70 27 126t67 91.5t102 61.5t114.5 38.5t123 19.5t109.5 8t92 1h67v45q0 297 -272 297q-80 0 -155 -25.5t-111 -50.5l-35 -25l-49 70q5 5 15 12.5t44.5 27t72.5 34.5t98 27t122 12q356 0 356 -377v-547q0 -45 46 -45h122v-80h-135q-63 0 -91 27t-28 86v22 q0 24 2 47t4 34l3 11h-4q-2 -5 -6 -14t-18.5 -35.5t-32.5 -50t-49 -53t-66 -50t-85 -35t-106 -14.5q-64 0 -123.5 18.5t-109.5 54t-80.5 95.5t-30.5 136zM176 289q0 -96 68 -165t186 -69q85 0 155 39t113 102t66.5 139t23.5 154v56h-65h-13q-19 -1 -47 0t-64 -2t-75.5 -6 t-80.5 -12.5t-79.5 -21t-72.5 -32t-59.5 -45t-40.5 -60t-15 -77.5zM367 1321q0 66 44 110t107 44q66 0 111 -44t45 -110q0 -63 -45 -106.5t-111 -43.5q-63 0 -107 43.5t-44 106.5zM446 1321q0 -32 20 -53t52 -21q35 0 55.5 20.5t20.5 53.5q0 37 -20.5 58.5t-55.5 21.5 q-32 0 -52 -21.5t-20 -58.5z" />
<glyph unicode="&#xe6;" horiz-adv-x="1783" d="M90 272q0 55 14 100.5t35.5 78.5t57.5 59t70 43t84 29t88.5 18t94 9.5t89.5 4t86 0.5h82v45q0 161 -78 234.5t-211 73.5q-79 0 -152.5 -25.5t-107.5 -50.5l-33 -25l-49 70q5 5 14.5 12.5t43 27t70.5 34.5t96.5 27t121.5 12q293 0 352 -240h4q62 118 167.5 179t238.5 61 q131 0 226.5 -63.5t141 -165.5t45.5 -228l-4 -57h-800q0 -225 116 -351.5t301 -126.5q55 0 108 13.5t89.5 32.5t65 38.5t41.5 32.5l14 14l47 -71q-6 -6 -17 -15.5t-47.5 -34t-76.5 -43t-101 -34t-123 -15.5q-160 0 -282.5 83.5t-177.5 230.5h-5q-5 -23 -17.5 -54.5 t-43.5 -79t-71.5 -86t-108 -66.5t-146.5 -28q-148 0 -250 78t-102 219zM180 279q0 -92 69.5 -158t192.5 -66q65 0 122 25.5t97.5 69t70.5 99t44.5 117.5t14.5 123v46h-142q-49 0 -86 -1.5t-88.5 -7t-89.5 -16t-79 -29.5t-66.5 -45.5t-42.5 -66.5t-17 -90zM885 614h706 q-4 90 -32.5 160t-75 111t-102.5 61.5t-119 20.5q-146 0 -249 -91t-128 -262z" />
<glyph unicode="&#xe7;" horiz-adv-x="1114" d="M104 510q0 119 42.5 221t115 171t169 108t202.5 39q48 0 104 -10.5t116.5 -33t100 -67t39.5 -102.5v-99h-86v80q0 35 -28.5 65t-72 47t-89 26.5t-84.5 9.5q-185 0 -311.5 -126.5t-126.5 -328.5q0 -200 127 -325.5t311 -125.5q63 0 121.5 15t97 37t67.5 44t43 37l13 15 l45 -72q-5 -6 -15 -16.5t-45 -37t-74.5 -47.5t-103 -39t-131.5 -20l-18 -98q59 -6 99 -45t40 -94q0 -79 -53 -117.5t-133 -38.5q-24 0 -46.5 2t-33.5 4l-10 2v78q37 -10 84 -10q106 0 106 76q0 38 -33 58t-90 20h-24l34 168q-202 19 -335.5 163.5t-133.5 366.5z" />
<glyph unicode="&#xe8;" horiz-adv-x="1124" d="M106 510q0 126 41 229.5t110 170.5t158.5 103t188.5 36q101 0 182.5 -38t132 -103t77 -148t26.5 -178l-4 -56h-821q0 -215 126 -341t312 -126q55 0 108 13.5t89 32t64.5 37.5t41.5 32l14 14l47 -71q-6 -6 -17 -15.5t-47.5 -34t-76 -43t-100.5 -34t-123 -15.5 q-108 0 -204.5 38t-168.5 106.5t-114 170t-42 220.5zM203 606h729q-7 178 -100 270.5t-230 92.5q-148 0 -260 -95t-139 -268zM360 1434h132l192 -228h-111z" />
<glyph unicode="&#xe9;" horiz-adv-x="1124" d="M106 510q0 126 41 229.5t110 170.5t158.5 103t188.5 36q101 0 182.5 -38t132 -103t77 -148t26.5 -178l-4 -56h-821q0 -215 126 -341t312 -126q55 0 108 13.5t89 32t64.5 37.5t41.5 32l14 14l47 -71q-6 -6 -17 -15.5t-47.5 -34t-76 -43t-100.5 -34t-123 -15.5 q-108 0 -204.5 38t-168.5 106.5t-114 170t-42 220.5zM203 606h729q-7 178 -100 270.5t-230 92.5q-148 0 -260 -95t-139 -268zM530 1206l193 228h131l-213 -228h-111z" />
<glyph unicode="&#xea;" horiz-adv-x="1124" d="M106 510q0 126 41 229.5t110 170.5t158.5 103t188.5 36q101 0 182.5 -38t132 -103t77 -148t26.5 -178l-4 -56h-821q0 -215 126 -341t312 -126q55 0 108 13.5t89 32t64.5 37.5t41.5 32l14 14l47 -71q-6 -6 -17 -15.5t-47.5 -34t-76 -43t-100.5 -34t-123 -15.5 q-108 0 -204.5 38t-168.5 106.5t-114 170t-42 220.5zM203 606h729q-7 178 -100 270.5t-230 92.5q-148 0 -260 -95t-139 -268zM383 1206l164 228h123l164 -228h-109l-115 164h-4l-114 -164h-109z" />
<glyph unicode="&#xeb;" horiz-adv-x="1124" d="M106 510q0 126 41 229.5t110 170.5t158.5 103t188.5 36q101 0 182.5 -38t132 -103t77 -148t26.5 -178l-4 -56h-821q0 -215 126 -341t312 -126q55 0 108 13.5t89 32t64.5 37.5t41.5 32l14 14l47 -71q-6 -6 -17 -15.5t-47.5 -34t-76 -43t-100.5 -34t-123 -15.5 q-108 0 -204.5 38t-168.5 106.5t-114 170t-42 220.5zM203 606h729q-7 178 -100 270.5t-230 92.5q-148 0 -260 -95t-139 -268zM381 1284v150h111v-150h-111zM725 1284v150h111v-150h-111z" />
<glyph unicode="&#xec;" horiz-adv-x="575" d="M49 1434h131l193 -228h-111zM90 0v80h164v864h-164v80h250v-944h164v-80h-414z" />
<glyph unicode="&#xed;" horiz-adv-x="575" d="M90 0v80h164v864h-164v80h250v-944h164v-80h-414zM219 1206l193 228h131l-213 -228h-111z" />
<glyph unicode="&#xee;" horiz-adv-x="575" d="M72 1206l164 228h122l164 -228h-108l-115 164h-4l-115 -164h-108zM90 0v80h164v864h-164v80h250v-944h164v-80h-414z" />
<glyph unicode="&#xef;" horiz-adv-x="575" d="M86 1284v150h111v-150h-111zM90 0v80h164v864h-164v80h250v-944h164v-80h-414zM381 1284v150h111v-150h-111z" />
<glyph unicode="&#xf0;" horiz-adv-x="1200" d="M109 471q0 75 19 145t59.5 132.5t98 109t139 73.5t177.5 27q63 0 120.5 -14t94.5 -34t64.5 -39.5t40.5 -33.5l12 -14h4q-74 230 -281 375l-352 -164l-35 76l299 139q-136 72 -313 117l25 78q233 -60 385 -152l252 119l34 -76l-207 -96q146 -111 233 -283t87 -403 q0 -84 -18 -165t-58 -156t-96.5 -132t-140 -91t-183.5 -34q-107 0 -196 42.5t-145.5 113t-87.5 158.5t-31 182zM199 471q0 -79 25.5 -153t72 -132.5t118.5 -93.5t158 -35q81 0 149 29.5t114 77.5t78 111.5t46.5 130t14.5 133.5q0 148 -104 243t-271 95q-99 0 -177.5 -35 t-126 -93t-72.5 -129.5t-25 -148.5z" />
<glyph unicode="&#xf1;" horiz-adv-x="1353" d="M82 944v80h162q63 0 90.5 -27t27.5 -86v-67q0 -21 -2 -42t-4 -32l-2 -10h4q15 41 48 86.5t85.5 93t132 78.5t169.5 31q78 0 137 -18.5t97 -52t61 -84.5t32.5 -110t9.5 -135v-569h185v-80h-271v618q0 62 -4 105.5t-18.5 92.5t-41 79t-74 50t-113.5 20q-181 0 -306 -134.5 t-125 -322.5v-428h185v-80h-455v80h184v819q0 45 -45 45h-149zM424 1212q0 108 44.5 165t127.5 57q43 0 77.5 -15t56 -37t41 -44t41.5 -37t46 -15q84 0 84 141h90q0 -108 -44 -164.5t-128 -56.5q-43 0 -77.5 15t-56 37t-41 44t-41.5 37t-46 15q-84 0 -84 -142h-90z" />
<glyph unicode="&#xf2;" horiz-adv-x="1265" d="M102 518q0 147 71 269t193 192t267 70t266.5 -70t192.5 -192t71 -269q0 -150 -71 -275t-192.5 -196.5t-266.5 -71.5q-108 0 -206 42.5t-169.5 114.5t-113.5 173t-42 213zM193 518q0 -194 128 -326.5t312 -132.5t312 132.5t128 326.5q0 189 -128 318t-312 129t-312 -129 t-128 -318zM385 1434h131l193 -228h-111z" />
<glyph unicode="&#xf3;" horiz-adv-x="1265" d="M102 518q0 147 71 269t193 192t267 70t266.5 -70t192.5 -192t71 -269q0 -150 -71 -275t-192.5 -196.5t-266.5 -71.5q-108 0 -206 42.5t-169.5 114.5t-113.5 173t-42 213zM193 518q0 -194 128 -326.5t312 -132.5t312 132.5t128 326.5q0 189 -128 318t-312 129t-312 -129 t-128 -318zM555 1206l193 228h131l-213 -228h-111z" />
<glyph unicode="&#xf4;" horiz-adv-x="1265" d="M102 518q0 147 71 269t193 192t267 70t266.5 -70t192.5 -192t71 -269q0 -150 -71 -275t-192.5 -196.5t-266.5 -71.5q-108 0 -206 42.5t-169.5 114.5t-113.5 173t-42 213zM193 518q0 -194 128 -326.5t312 -132.5t312 132.5t128 326.5q0 189 -128 318t-312 129t-312 -129 t-128 -318zM408 1206l163 228h123l164 -228h-108l-115 164h-4l-115 -164h-108z" />
<glyph unicode="&#xf5;" horiz-adv-x="1265" d="M102 518q0 147 71 269t193 192t267 70t266.5 -70t192.5 -192t71 -269q0 -150 -71 -275t-192.5 -196.5t-266.5 -71.5q-108 0 -206 42.5t-169.5 114.5t-113.5 173t-42 213zM193 518q0 -194 128 -326.5t312 -132.5t312 132.5t128 326.5q0 189 -128 318t-312 129t-312 -129 t-128 -318zM330 1212q0 108 44.5 165t127.5 57q43 0 77.5 -15t56 -37t41 -44t41.5 -37t46 -15q84 0 84 141h90q0 -108 -44 -164.5t-128 -56.5q-43 0 -77.5 15t-56 37t-41 44t-41.5 37t-46 15q-84 0 -84 -142h-90z" />
<glyph unicode="&#xf6;" horiz-adv-x="1265" d="M102 518q0 147 71 269t193 192t267 70t266.5 -70t192.5 -192t71 -269q0 -150 -71 -275t-192.5 -196.5t-266.5 -71.5q-108 0 -206 42.5t-169.5 114.5t-113.5 173t-42 213zM193 518q0 -194 128 -326.5t312 -132.5t312 132.5t128 326.5q0 189 -128 318t-312 129t-312 -129 t-128 -318zM406 1284v150h110v-150h-110zM750 1284v150h110v-150h-110z" />
<glyph unicode="&#xf7;" horiz-adv-x="1228" d="M127 539v82h975v-82h-975zM555 156v120h117v-120h-117zM555 883v121h117v-121h-117z" />
<glyph unicode="&#xf8;" horiz-adv-x="1265" d="M102 518q0 147 71 269t193 192t267 70q155 0 287 -82l77 108l62 -47l-78 -108q84 -74 133 -179.5t49 -222.5q0 -150 -71 -275t-192.5 -196.5t-266.5 -71.5t-271 76l-75 -106l-62 47l74 104q-91 75 -144 185.5t-53 236.5zM193 518q0 -104 41.5 -195.5t113.5 -156.5 l522 731q-113 68 -237 68q-184 0 -312 -129t-128 -318zM412 121q106 -62 221 -62q184 0 312 132.5t128 326.5q0 96 -38.5 182t-104.5 148z" />
<glyph unicode="&#xf9;" horiz-adv-x="1312" d="M37 944v80h280v-618q0 -61 4 -105t19 -93t41 -79t74 -50t114 -20q124 0 221.5 66.5t148 172t50.5 226.5v420h-194v80h280v-901q0 -45 45 -45h123v-78h-135q-63 0 -91 27t-28 86v57l4 84h-4q-11 -31 -33 -66t-59 -73.5t-82.5 -69t-110 -50.5t-135.5 -20 q-183 0 -260.5 98.5t-77.5 301.5v569h-194zM385 1434h131l193 -228h-111z" />
<glyph unicode="&#xfa;" horiz-adv-x="1312" d="M37 944v80h280v-618q0 -61 4 -105t19 -93t41 -79t74 -50t114 -20q124 0 221.5 66.5t148 172t50.5 226.5v420h-194v80h280v-901q0 -45 45 -45h123v-78h-135q-63 0 -91 27t-28 86v57l4 84h-4q-11 -31 -33 -66t-59 -73.5t-82.5 -69t-110 -50.5t-135.5 -20 q-183 0 -260.5 98.5t-77.5 301.5v569h-194zM555 1206l193 228h131l-213 -228h-111z" />
<glyph unicode="&#xfb;" horiz-adv-x="1312" d="M37 944v80h280v-618q0 -61 4 -105t19 -93t41 -79t74 -50t114 -20q124 0 221.5 66.5t148 172t50.5 226.5v420h-194v80h280v-901q0 -45 45 -45h123v-78h-135q-63 0 -91 27t-28 86v57l4 84h-4q-11 -31 -33 -66t-59 -73.5t-82.5 -69t-110 -50.5t-135.5 -20 q-183 0 -260.5 98.5t-77.5 301.5v569h-194zM408 1206l163 228h123l164 -228h-108l-115 164h-4l-115 -164h-108z" />
<glyph unicode="&#xfc;" horiz-adv-x="1312" d="M37 944v80h280v-618q0 -61 4 -105t19 -93t41 -79t74 -50t114 -20q124 0 221.5 66.5t148 172t50.5 226.5v420h-194v80h280v-901q0 -45 45 -45h123v-78h-135q-63 0 -91 27t-28 86v57l4 84h-4q-11 -31 -33 -66t-59 -73.5t-82.5 -69t-110 -50.5t-135.5 -20 q-183 0 -260.5 98.5t-77.5 301.5v569h-194zM406 1284v150h110v-150h-110zM750 1284v150h110v-150h-110z" />
<glyph unicode="&#xfd;" horiz-adv-x="1148" d="M16 944v80h396v-80h-162l305 -780q5 -14 9 -28.5t6 -21.5l1 -8h4q7 27 19 58l305 780h-162v80h396v-80h-142l-463 -1159q-39 -96 -109.5 -155.5t-162.5 -59.5q-44 0 -85.5 14t-60.5 28l-20 13l39 76q6 -5 17.5 -13.5t45 -22t64.5 -13.5q124 0 203 184l69 168l-372 940 h-140zM510 1206l192 228h132l-213 -228h-111z" />
<glyph unicode="&#xfe;" horiz-adv-x="1198" d="M10 -330h185v1684h-185v80h271v-523l-2 -82h4q3 9 10 24t36 52.5t66.5 66.5t104.5 53t147 24q203 0 323 -148.5t120 -388.5q0 -242 -127.5 -389.5t-327.5 -147.5q-74 0 -138 23t-102 55.5t-65.5 65t-37.5 55.5l-11 23h-5q5 -38 5 -91v-436h184v-80h-455v80zM279 510 q0 -69 15 -134.5t45 -123t71.5 -101t99.5 -69t125 -25.5q156 0 260 123t104 332q0 205 -99 329t-257 124q-73 0 -136.5 -26.5t-115.5 -79.5t-82 -142.5t-30 -206.5z" />
<glyph unicode="&#xff;" horiz-adv-x="1148" d="M16 944v80h396v-80h-162l305 -780q5 -14 9 -28.5t6 -21.5l1 -8h4q7 27 19 58l305 780h-162v80h396v-80h-142l-463 -1159q-39 -96 -109.5 -155.5t-162.5 -59.5q-44 0 -85.5 14t-60.5 28l-20 13l39 76q6 -5 17.5 -13.5t45 -22t64.5 -13.5q124 0 203 184l69 168l-372 940 h-140zM360 1284v150h111v-150h-111zM705 1284v150h110v-150h-110z" />
<glyph unicode="&#x152;" horiz-adv-x="1943" d="M123 717q0 154 53.5 289.5t147.5 234.5t229 156t291 57q36 0 122.5 -10t114.5 -10h701v-267h-86v185h-621v-588h572v-82h-572v-600h662v186h86v-268h-740q-27 0 -114.5 -10t-124.5 -10q-208 0 -373.5 97t-256.5 265.5t-91 374.5zM215 717q0 -185 77.5 -333.5 t221.5 -234.5t330 -86q34 0 69.5 4.5t54.5 8.5l19 4v1274q-67 16 -143 16q-186 0 -330 -86t-221.5 -234.5t-77.5 -332.5z" />
<glyph unicode="&#x153;" horiz-adv-x="2091" d="M104 510q0 119 42.5 221t115 171t169 108t202.5 39q157 0 286.5 -82.5t192.5 -223.5h4q59 146 181.5 226t273.5 80q101 0 182.5 -38t132 -103t77 -148t26.5 -178l-4 -56h-822q6 -221 131.5 -344t307.5 -123q55 0 108 13.5t89 32t64.5 37.5t42.5 32l13 14l47 -71 q-6 -6 -17 -15.5t-47.5 -34t-76 -43t-100.5 -34t-123 -15.5q-162 0 -292.5 82t-191.5 226h-4q-63 -144 -192.5 -226t-288.5 -82q-107 0 -203 38.5t-168.5 106.5t-115 169.5t-42.5 220.5zM195 510q0 -200 127 -325.5t311 -125.5q185 0 312.5 127t127.5 334q0 131 -61.5 234 t-161.5 157t-217 54q-184 0 -311 -127.5t-127 -327.5zM1169 606h729q-7 178 -100 270.5t-229 92.5q-148 0 -260.5 -95t-139.5 -268z" />
<glyph unicode="&#x178;" horiz-adv-x="1300" d="M20 1352v82h418v-82h-170l353 -588l26 -51h4q15 28 29 51l354 588h-170v82h416v-82h-145l-441 -729v-541h195v-82h-477v82h194v541l-440 729h-146zM424 1614v149h111v-149h-111zM768 1614v149h111v-149h-111z" />
<glyph unicode="&#x2c6;" horiz-adv-x="1040" d="M295 1536l164 227h123l163 -227h-108l-115 164h-4l-115 -164h-108z" />
<glyph unicode="&#x2dc;" horiz-adv-x="1042" d="M217 1542q0 108 44 164.5t128 56.5q43 0 77.5 -15t56 -36.5t41 -43.5t41.5 -37t46 -15q84 0 84 141h90q0 -108 -44 -164.5t-128 -56.5q-43 0 -77.5 15t-56 37t-41 43.5t-41.5 36.5t-46 15q-84 0 -84 -141h-90z" />
<glyph unicode="&#x2000;" horiz-adv-x="902" />
<glyph unicode="&#x2001;" horiz-adv-x="1804" />
<glyph unicode="&#x2002;" horiz-adv-x="902" />
<glyph unicode="&#x2003;" horiz-adv-x="1804" />
<glyph unicode="&#x2004;" horiz-adv-x="601" />
<glyph unicode="&#x2005;" horiz-adv-x="451" />
<glyph unicode="&#x2006;" horiz-adv-x="300" />
<glyph unicode="&#x2007;" horiz-adv-x="300" />
<glyph unicode="&#x2008;" horiz-adv-x="225" />
<glyph unicode="&#x2009;" horiz-adv-x="360" />
<glyph unicode="&#x200a;" horiz-adv-x="100" />
<glyph unicode="&#x2010;" horiz-adv-x="1081" d="M258 539v82h565v-82h-565z" />
<glyph unicode="&#x2011;" horiz-adv-x="1081" d="M258 539v82h565v-82h-565z" />
<glyph unicode="&#x2012;" horiz-adv-x="1081" d="M258 539v82h565v-82h-565z" />
<glyph unicode="&#x2013;" horiz-adv-x="1490" d="M258 539v82h975v-82h-975z" />
<glyph unicode="&#x2014;" horiz-adv-x="1900" d="M258 539v82h1384v-82h-1384z" />
<glyph unicode="&#x2018;" horiz-adv-x="417" d="M119 1059l119 391h79l-92 -391h-106z" />
<glyph unicode="&#x2019;" horiz-adv-x="409" d="M123 1059l92 391h107l-119 -391h-80z" />
<glyph unicode="&#x201a;" horiz-adv-x="479" d="M100 -266l93 391h106l-119 -391h-80z" />
<glyph unicode="&#x201c;" horiz-adv-x="643" d="M119 1059l119 391h79l-92 -391h-106zM344 1059l119 391h80l-92 -391h-107z" />
<glyph unicode="&#x201d;" horiz-adv-x="634" d="M123 1059l92 391h107l-119 -391h-80zM348 1059l92 391h107l-119 -391h-80z" />
<glyph unicode="&#x201e;" horiz-adv-x="704" d="M100 -266l93 391h106l-119 -391h-80zM326 -266l92 391h106l-118 -391h-80z" />
<glyph unicode="&#x2022;" horiz-adv-x="802" d="M131 596q0 112 78.5 191t191.5 79t192 -79t79 -191t-79 -191t-192 -79t-191.5 79t-78.5 191z" />
<glyph unicode="&#x2026;" horiz-adv-x="1357" d="M180 0v129h125v-129h-125zM616 0v129h125v-129h-125zM1053 0v129h125v-129h-125z" />
<glyph unicode="&#x202f;" horiz-adv-x="360" />
<glyph unicode="&#x2039;" horiz-adv-x="688" d="M111 578l335 421h109l-336 -421l336 -420h-109z" />
<glyph unicode="&#x203a;" horiz-adv-x="688" d="M133 158l336 420l-336 421h109l336 -421l-336 -420h-109z" />
<glyph unicode="&#x205f;" horiz-adv-x="451" />
<glyph unicode="&#x20ac;" horiz-adv-x="1214" d="M102 539v82h111q-5 34 -4.5 107t6.5 116h-113v82h127q58 235 243 383.5t435 148.5q47 0 93 -5.5t68 -10.5l22 -6l-21 -86q-74 22 -162 22q-216 0 -372 -122t-211 -324h669l-16 -82h-670q-14 -100 -4 -223h635l-14 -82h-609q46 -214 207 -346t385 -132q46 0 91 6.5 t67 13.5l22 7l25 -84q-88 -29 -205 -29q-258 0 -446 157.5t-238 406.5h-121z" />
<glyph unicode="&#x2122;" horiz-adv-x="1914" d="M63 1356v78h738v-78h-330v-815h-80v815h-328zM885 541l71 893h72l258 -553q8 -18 15 -38.5t11 -32.5l3 -11h4q11 41 29 82l258 553h71l72 -893h-78l-57 671l2 58h-4l-260 -561h-70l-260 561h-4l2 -58l-57 -671h-78z" />
<glyph unicode="&#x25fc;" horiz-adv-x="1024" d="M0 0v1024h1024v-1024h-1024z" />
</font>
</defs>
</svg>
